osu file format v14

[General]
AudioFilename: audio.mp3
AudioLeadIn: 0
PreviewTime: 68502
Countdown: 0
SampleSet: None
StackLeniency: 0.7
Mode: 0
LetterboxInBreaks: 0
WidescreenStoryboard: 1

[Editor]
Bookmarks: 20859,30002,39145,48288,57431,68859,87145,96288,96359,96431,96502,96574,96645,96717,96788,96859,96931,97002,97074,97145,97217,97288,97359,97431,97502,97574,97645,97716,97788,97859,97931,98002,98074,98145,98217,98288,98359,98431,98502,98574,98645,98716,98788,98859,98931,99002,99074,99145,99217,99288,99359,99431,99502,99574,99645,99716,99788,99859,99931,100002,100074,100145,100217,100288,100359,100431,110002,119145,128288,139717,158002,167145,176288,185431,194574,206002,206145,206288,206431,206574,206645,206788,206931,207074,207217,207359,207502,207645,207788,207931,208074,208217,208359,208502,208645,208788,208931,209074,209217,209359,209502,209645,209788,209931,210074,210217,210359,210574,215145,224288,233431,253859
DistanceSpacing: 2.1
BeatDivisor: 4
GridSize: 4
TimelineZoom: 3.199999

[Metadata]
Title:Uncontrollable
TitleUnicode:Uncontrollable
Artist:Ito Kanako
ArtistUnicode:いとうかなこ
Creator:ShiraKai
Version:Collab
Source:CHAOS;CHILD
Tags:kacha nasya n_a_s_y_a 5pb.
BeatmapID:1282958
BeatmapSetID:598881

[Difficulty]
HPDrainRate:5.4
CircleSize:3.8
OverallDifficulty:8.8
ApproachRate:9.4
SliderMultiplier:1.8
SliderTickRate:1

[Events]
//Background and Video events
0,0,"BG.jpg",0,0
//Break Periods
2,96288,99891
2,128488,132319
2,206058,210034
//Storyboard Layer 0 (Background)
//Storyboard Layer 1 (Fail)
//Storyboard Layer 2 (Pass)
//Storyboard Layer 3 (Foreground)
//Storyboard Sound Samples

[TimingPoints]
10574,285.714285714286,4,2,2,30,1,0
11145,-500,4,2,2,30,0,0
11645,-500,4,2,2,5,0,0
11716,-142.857142857143,4,2,2,50,0,0
16288,-111.111111111111,4,2,1,60,0,0
18574,-111.111111111111,4,2,1,70,0,0
19002,-111.111111111111,4,2,1,80,0,0
19431,-111.111111111111,4,2,1,90,0,0
19716,-111.111111111111,4,2,1,70,0,0
20145,-333.333333333333,4,2,1,60,0,0
20502,-333.333333333333,4,2,1,5,0,0
20574,-66.6666666666667,4,2,3,80,0,0
20788,-66.6666666666667,4,2,3,5,0,0
20859,-100,4,2,1,60,0,0
28288,-111.111111111111,4,2,1,60,0,0
28716,-125,4,2,1,60,0,0
29145,-142.857142857143,4,2,1,60,0,0
29716,-66.6666666666667,4,2,1,60,0,0
30002,-111.111111111111,4,2,1,70,0,0
30288,-111.111111111111,4,2,3,40,0,0
30859,-111.111111111111,4,2,1,70,0,0
31145,-111.111111111111,4,2,6,30,0,0
31288,-111.111111111111,4,2,3,40,0,0
32288,-111.111111111111,4,2,1,70,0,0
32574,-111.111111111111,4,2,3,40,0,0
33145,-111.111111111111,4,2,1,70,0,0
33431,-111.111111111111,4,2,6,30,0,0
33574,-111.111111111111,4,2,3,40,0,0
34574,-111.111111111111,4,2,1,70,0,0
34859,-111.111111111111,4,2,3,40,0,0
35431,-111.111111111111,4,2,1,70,0,0
35716,-111.111111111111,4,2,6,30,0,0
35859,-111.111111111111,4,2,3,40,0,0
36002,-111.111111111111,4,2,6,30,0,0
36145,-111.111111111111,4,2,3,40,0,0
36859,-111.111111111111,4,2,1,70,0,0
37145,-111.111111111111,4,2,3,30,0,0
37288,-111.111111111111,4,2,3,35,0,0
37431,-111.111111111111,4,2,3,40,0,0
37574,-111.111111111111,4,2,1,50,0,0
37716,-66.6666666666667,4,2,1,60,0,0
38002,-100,4,2,1,70,0,0
38431,-100,4,2,1,75,0,0
38859,-58.8235294117647,4,2,3,80,0,0
39145,-100,4,2,1,60,0,0
47431,-66.6666666666667,4,2,1,60,0,0
47716,-100,4,2,1,60,0,0
48288,-125,4,2,4,50,0,0
56431,-125,4,2,4,60,0,0
57002,-285.714285714286,4,2,1,60,0,0
57359,-285.714285714286,4,2,1,5,0,0
57431,-100,4,2,1,60,0,0
68002,-133.333333333333,4,2,1,60,0,0
68716,-133.333333333333,4,2,1,5,0,0
68859,-90.9090909090909,4,2,1,80,0,1
70002,-90.9090909090909,4,2,7,50,0,1
70145,-90.9090909090909,4,2,1,80,0,1
77716,-166.666666666667,4,2,3,90,0,0
78002,-90.9090909090909,4,2,1,80,0,1
79145,-90.9090909090909,4,2,7,50,0,1
79288,-90.9090909090909,4,2,1,80,0,1
86859,-90.9090909090909,4,2,3,90,0,1
87002,-90.9090909090909,4,2,1,80,0,1
87145,-133.333333333333,4,2,1,60,0,0
88859,-100,4,2,1,60,0,0
89431,-133.333333333333,4,2,1,60,0,0
91145,-100,4,2,1,60,0,0
95002,-200,4,2,1,60,0,0
100431,-100,4,2,1,60,0,0
100859,-111.111111111111,4,2,5,60,0,0
107716,-200,4,2,1,60,0,0
108002,-200,4,2,1,70,0,0
108288,-200,4,2,1,80,0,0
108574,-200,4,2,1,90,0,0
108716,-200,4,2,1,5,0,0
108859,-200,4,2,5,60,0,0
109716,-58.8235294117647,4,2,3,60,0,0
110002,-100,4,2,1,60,0,0
111145,-100,4,2,7,40,0,0
111288,-100,4,2,1,60,0,0
113431,-100,4,2,7,40,0,0
113574,-100,4,2,1,60,0,0
115716,-100,4,2,7,40,0,0
115859,-100,4,2,1,60,0,0
117716,-100,4,2,3,60,0,0
118002,-76.9230769230769,4,2,1,60,0,0
118574,-58.8235294117647,4,2,1,70,0,0
119145,-125,4,2,4,50,0,0
119145,-125,4,2,1,50,0,0
123431,-66.6666666666667,4,2,4,50,0,0
123716,-125,4,2,4,50,0,0
127859,-125,4,2,3,50,0,0
128288,-125,4,2,4,60,0,0
132859,-100,4,2,1,50,0,0
134002,-100,4,2,1,60,0,0
135145,-100,4,2,1,70,0,0
135716,-100,4,2,1,75,0,0
136288,-100,4,2,1,80,0,0
139716,-90.9090909090909,4,2,3,80,0,1
139859,-90.9090909090909,4,2,1,80,0,1
148574,-66.6666666666667,4,2,3,80,0,1
148859,-90.9090909090909,4,2,1,80,0,1
157716,-90.9090909090909,4,2,3,80,0,1
158002,-125,4,2,1,60,0,0
162574,-100,4,2,1,60,0,0
167145,-66.6666666666667,4,2,3,60,0,0
167431,-133.333333333333,4,2,4,60,0,0
174859,-117.647058823529,4,2,1,60,0,0
175145,-105.263157894737,4,2,4,60,0,0
175431,-100,4,2,4,60,0,0
176002,-50,4,2,3,60,0,0
176288,-100,4,2,4,50,0,0
182288,-100,4,2,8,30,0,0
182383,-100,4,2,4,50,0,0
182859,-100,4,2,8,30,0,0
182954,-100,4,2,4,50,0,0
185145,-50,4,2,3,80,0,0
185359,-50,4,2,3,5,0,0
185431,-100,4,2,1,65,0,0
194574,-100,4,2,1,75,0,1
196288,-100,4,2,1,85,0,1
196859,-100,4,2,1,80,0,1
198574,-100,4,2,1,90,0,1
199145,-100,4,2,1,85,0,1
201431,-100,4,2,1,40,0,0
202574,-100,4,2,1,60,0,0
205145,-142.857142857143,4,2,1,60,0,0
205716,-200,4,2,1,30,0,0
205859,-142.857142857143,4,2,1,5,0,0
210574,-142.857142857143,4,2,1,60,0,0
211716,-117.647058823529,4,2,1,60,0,0
214859,-117.647058823529,4,2,3,60,0,0
215145,-90.9090909090909,4,2,1,90,0,1
216288,-90.9090909090909,4,2,7,60,0,1
216431,-90.9090909090909,4,2,1,90,0,1
220859,-90.9090909090909,4,2,7,60,0,1
221002,-90.9090909090909,4,2,1,90,0,1
224002,-90.9090909090909,4,2,3,100,0,1
224145,-90.9090909090909,4,2,3,90,0,1
224288,-133.333333333333,4,2,1,60,0,0
232574,-200,4,2,1,60,0,0
233145,-200,4,2,1,5,0,0
233431,-333.333333333333,4,2,1,60,0,0
233502,-333.333333333333,4,2,1,5,0,0
235288,-333.333333333333,4,2,1,60,0,0
235431,-55.5555555555556,4,2,1,70,0,0
235645,-55.5555555555556,4,2,1,5,0,0
235716,-100,4,2,1,80,0,1
242431,-100,4,2,1,80,0,0
242716,-100,4,2,1,90,0,1
242788,-100,4,2,1,90,0,0
242859,-100,4,2,1,90,0,1
243002,-100,4,2,1,90,0,0
243145,-100,4,2,1,90,0,1
243216,-100,4,2,1,90,0,0
243288,-100,4,2,1,90,0,1
243431,-100,4,2,1,90,0,0
243574,-100,4,2,1,90,0,1
243645,-100,4,2,1,90,0,0
243716,-100,4,2,1,90,0,1
243859,-100,4,2,1,90,0,0
244002,-100,4,2,1,90,0,1
244074,-100,4,2,1,90,0,0
244145,-100,4,2,1,90,0,1
244288,-100,4,2,1,90,0,0
244431,-100,4,2,1,90,0,1
244502,-100,4,2,1,90,0,0
244574,-100,4,2,1,90,0,1
244859,-100,4,2,2,80,0,0
247145,-100,4,2,2,60,0,0
248288,-100,4,2,2,40,0,0
249431,-100,4,2,2,60,0,0
251716,-100,4,2,2,70,0,0
252859,-100,4,2,2,80,0,0
253859,-100,4,2,2,60,0,0

[HitObjects]
467,194,11145,6,0,L|462:225|457:256,1,63
476,276,11716,6,0,P|413:265|351:255,1,125.999996154785,4|2,0:1|0:0,0:0:0:0:
301,334,12145,2,0,P|238:345|176:355,1,125.999996154785,2|2,0:0|0:0,0:0:0:0:
51,235,12573,1,0,0:0:0:0:
16,311,12716,6,0,P|76:319|122:278,1,125.999996154785,2|2,0:0|0:0,0:0:0:0:
156,199,13145,1,2,0:0:0:0:
156,199,13431,2,0,B|208:211|208:211|233:198|233:198|277:203,2,125.999996154785,2|2|4,0:0|0:0|0:1,0:0:0:0:
95,97,14145,5,0,0:0:0:0:
25,151,14288,2,0,L|86:137,1,62.9999980773926,2|0,0:0|0:0,0:0:0:0:
253,66,14573,5,2,0:0:0:0:
253,66,14716,1,0,0:0:0:0:
183,120,14859,2,0,L|244:106,1,62.9999980773926,2|0,0:0|0:0,0:0:0:0:
402,37,15145,5,4,0:1:0:0:
332,91,15288,2,0,L|454:62,1,125.999996154785,2|2,0:0|0:0,0:0:0:0:
425,214,15716,5,4,0:1:0:0:
512,201,15859,2,0,L|389:172,1,125.999996154785,2|2,0:0|0:0,0:0:0:0:
373,329,16288,6,0,P|412:320|444:296,1,80.9999975280763,6|0,0:0|0:0,0:0:0:0:
291,176,16574,2,0,P|297:215|311:253,1,80.9999975280763,8|0,0:0|0:0,0:0:0:0:
167,285,16859,2,0,P|200:353|275:344,1,161.999995056153,2|8,0:0|0:0,0:0:0:0:
275,344,17288,1,0,0:0:0:0:
194,228,17431,6,0,P|162:252|122:260,1,80.9999975280763,2|0,0:0|0:0,0:0:0:0:
71,335,17716,2,0,P|46:303|38:263,1,80.9999975280763,8|0,0:0|0:0,0:0:0:0:
0,164,18002,2,0,L|78:182,1,80.9999975280763,2|0,0:0|0:0,0:0:0:0:
237,128,18288,2,0,L|158:146,1,80.9999975280763,8|0,0:0|0:0,0:0:0:0:
61,29,18574,6,2,B|124:62|124:62|212:41,1,161.999995056153,6|0,1:0|0:0,0:1:0:0:
235,18,19002,2,2,P|245:73|344:88,1,161.999995056153,6|0,1:0|0:0,0:1:0:0:
367,80,19431,2,2,B|353:132|353:132|372:213,1,121.499996292114,6|0,1:0|0:0,0:1:0:0:
360,232,19716,6,0,P|380:225|398:219,1,40.4999987640381,6|0,1:0|0:0,0:0:0:0:
506,350,19859,2,0,P|486:343|468:337,1,40.4999987640381,6|0,1:0|0:0,0:0:0:0:
363,248,20002,2,0,P|383:241|401:235,1,40.4999987640381,6|0,1:0|0:0,0:0:0:0:
512,369,20145,6,2,P|480:357|448:347,1,67.4999979400635,6|0,1:0|0:0,0:1:0:0:
444,316,20574,6,0,B|384:336|384:336|327:326|327:326|246:340,1,202.500007724762,4|0,0:0|0:0,0:0:0:0:
156,360,20859,5,4,0:0:0:0:
296,168,21002,1,0,0:0:0:0:
84,92,21145,1,8,0:0:0:0:
176,256,21288,1,0,0:0:0:0:
236,80,21431,5,2,0:0:0:0:
280,268,21574,1,2,0:0:0:0:
60,200,21716,2,0,L|84:320,1,90,8|0,0:0|0:0,0:0:0:0:
252,132,22002,6,0,P|268:64|284:12,1,90,0|0,0:0|0:0,0:1:0:0:
156,220,22288,1,8,0:0:0:0:
96,64,22431,1,0,0:0:0:0:
308,204,22574,1,2,0:0:0:0:
272,40,22716,5,2,0:1:0:0:
160,200,22859,1,10,0:1:0:0:
384,264,23002,1,2,0:1:0:0:
408,48,23145,6,0,L|396:144,1,90,2|0,0:0|0:3,0:1:0:0:
232,264,23431,1,8,0:0:0:0:
292,68,23574,1,0,0:3:0:0:
348,204,23716,5,2,0:0:0:0:
120,160,23859,1,2,0:0:0:0:
292,336,24002,2,0,L|192:364,1,90,8|0,0:0|0:0,0:0:0:0:
32,143,24288,6,0,L|152:167,1,90,2|0,0:0|0:0,0:1:0:0:
284,12,24574,1,8,0:0:0:0:
188,280,24716,1,0,0:0:0:0:
88,76,24859,1,2,0:0:0:0:
332,124,25002,5,2,0:1:0:0:
120,248,25145,1,10,0:1:0:0:
372,348,25288,1,2,0:1:0:0:
236,384,25431,6,0,L|268:260,1,90,4|0,0:0|0:0,0:1:0:0:
156,88,25716,1,8,0:0:0:0:
344,188,25859,1,0,0:0:0:0:
172,308,26002,5,2,0:0:0:0:
304,48,26145,1,2,0:0:0:0:
24,232,26288,2,0,L|128:208,1,90,8|0,0:0|0:0,0:0:0:0:
440,304,26574,6,0,L|316:272,1,90,2|0,0:0|0:0,0:1:0:0:
196,124,26859,1,8,0:0:0:0:
408,40,27002,1,0,0:0:0:0:
300,272,27145,1,2,0:0:0:0:
60,104,27288,5,2,0:1:0:0:
172,356,27431,1,10,0:1:0:0:
312,164,27574,1,2,0:1:0:0:
336,152,27859,5,14,0:1:0:0:
156,236,28002,2,0,L|56:276,1,90,14|0,0:1|0:0,0:0:0:0:
212,88,28288,5,14,0:1:0:0:
336,260,28431,2,0,L|348:340,1,80.9999975280763,14|0,0:1|0:0,0:0:0:0:
340,124,28716,5,14,0:1:0:0:
180,208,28859,2,0,L|96:180,1,72,14|0,0:1|0:0,0:0:0:0:
268,260,29145,5,14,0:1:0:0:
320,156,29288,2,0,L|336:68,1,62.9999980773926,14|0,0:1|0:0,0:0:0:0:
232,144,29574,5,4,0:3:0:0:
268,260,29716,2,2,P|324:268|404:212,1,135.000005149842,2|0,0:1|0:0,0:1:0:0:
458,167,30002,5,2,0:0:0:0:
402,382,30145,1,2,0:0:0:0:
512,320,30288,2,0,P|472:309|432:305,1,80.9999975280763,2|0,0:0|0:0,0:0:0:0:
390,231,30574,2,0,B|355:266|307:273|307:273|292:267|292:267|269:256|242:259,1,161.999995056153,2|2,0:0|0:0,0:0:0:0:
250,347,31002,6,0,B|199:335|199:335|162:352|162:352|93:342,1,161.999995056153,2|0,0:0|0:0,0:0:0:0:
3,263,31431,2,0,L|83:252,1,80.9999975280763,2|0,0:0|0:0,0:0:0:0:
167,201,31716,2,0,P|146:129|73:139,1,161.999995056153,2|2,0:0|0:0,0:0:0:0:
72,139,32288,5,2,0:0:0:0:
143,6,32431,1,2,0:0:0:0:
162,101,32574,1,2,0:0:0:0:
253,141,32716,2,0,P|261:101|265:61,1,80.9999975280763,0|2,0:0|0:0,0:0:0:0:
352,5,33002,2,0,P|355:45|364:84,1,80.9999975280763,0|2,0:0|0:0,0:0:0:0:
457,102,33288,6,0,P|379:107|356:181,1,161.999995056153,2|0,0:0|0:0,0:0:0:0:
418,261,33716,1,2,0:0:0:0:
503,198,33859,1,0,0:0:0:0:
457,102,34002,2,0,P|379:107|356:181,1,161.999995056153,2|2,0:0|0:0,0:0:0:0:
355,177,34574,5,2,0:0:0:0:
426,350,34716,1,2,0:0:0:0:
503,198,34859,1,2,0:0:0:0:
418,261,35002,2,0,P|379:272|339:278,1,80.9999975280763,0|2,0:0|0:0,0:0:0:0:
276,357,35288,2,0,P|237:345|197:339,1,80.9999975280763,0|2,0:0|0:0,0:0:0:0:
137,180,35574,6,0,P|214:185|249:254,2,161.999995056153,2|0|0,0:0|0:0|0:0,0:0:0:0:
42,316,36288,1,2,0:0:0:0:
166,258,36431,1,0,0:0:0:0:
56,159,36574,1,2,0:0:0:0:
56,159,36859,5,2,0:0:0:0:
116,361,37002,1,2,0:0:0:0:
166,258,37145,1,2,0:0:0:0:
166,258,37216,1,2,0:0:0:0:
166,258,37288,2,2,P|147:262|128:269,1,40.4999987640381
56,159,37431,2,2,P|75:162|94:169,1,40.4999987640381
192,121,37574,1,2,0:0:0:0:
69,29,37716,6,0,B|108:37|142:53|142:53|186:34|186:34|229:49|262:45,1,202.500007724762,12|0,0:3|0:0,0:0:0:0:
290,17,38002,6,0,P|303:59|323:99,1,90,6|0,0:1|0:0,0:0:0:0:
488,229,38288,1,8,0:0:0:0:
219,381,38431,6,0,P|232:338|252:298,1,90,6|0,0:1|0:0,0:0:0:0:
366,183,38716,1,8,0:0:0:0:
498,353,38859,6,0,P|423:361|373:306,1,153.000002918243,4|0,0:0|0:0,0:0:0:0:
256,184,39145,6,0,L|284:68,1,90,4|0,0:0|0:0,0:0:0:0:
160,316,39431,1,8,0:0:0:0:
256,184,39574,1,0,0:0:0:0:
360,292,39716,2,0,L|344:380,1,90,2|0,0:0|0:0,0:0:0:0:
492,176,40002,1,8,0:0:0:0:
208,76,40145,6,0,P|344:96|364:160,1,180
172,320,40574,2,0,L|68:340,1,90,8|0,0:0|0:0,0:0:0:0:
296,196,40859,1,0,0:3:0:0:
172,320,41002,1,8,0:3:0:0:
296,196,41145,2,0,L|400:168,1,90,8|0,0:3|0:0,0:0:0:0:
176,140,41431,5,2,0:0:0:0:
420,236,41574,1,0,0:0:0:0:
248,372,41716,1,8,0:0:0:0:
296,196,41859,2,0,L|320:316,1,90,0|2,0:0|0:0,0:0:0:0:
436,128,42145,2,0,P|448:68|452:24,1,90,0|8,0:0|0:0,0:0:0:0:
304,0,42431,6,0,P|216:-1|151:57,1,180
284,264,42859,2,0,L|266:175,1,90,8|0,0:0|0:0,0:0:0:0:
240,80,43145,1,0,0:0:0:0:
248,372,43288,1,8,0:3:0:0:
188,228,43431,6,0,P|300:248|328:284,1,135,8|0,0:3|0:0,0:0:0:0:
376,324,43716,2,0,P|388:260|400:204,1,90,2|0,0:0|0:0,0:0:0:0:
280,108,44002,1,8,0:0:0:0:
432,56,44145,1,0,0:0:0:0:
264,248,44288,2,0,L|148:212,1,90,2|0,0:0|0:0,0:0:0:0:
32,192,44574,1,8,0:0:0:0:
80,29,44716,6,0,P|167:21|236:76,1,180
40,208,45145,2,0,L|64:108,1,90,8|0,0:0|0:0,0:0:0:0:
200,256,45431,1,0,0:3:0:0:
40,208,45574,1,4,0:3:0:0:
200,256,45716,2,0,L|228:368,1,90,4|0,0:3|0:0,0:0:0:0:
404,144,46002,5,6,0:0:0:0:
328,296,46145,1,0,0:0:0:0:
240,128,46288,1,10,0:1:0:0:
436,232,46431,1,0,0:0:0:0:
392,32,46574,1,10,0:1:0:0:
300,204,46716,1,0,0:0:0:0:
496,144,46859,1,8,0:0:0:0:
496,144,46931,1,8,0:0:0:0:
496,144,47002,1,8,0:0:0:0:
496,144,47074,1,8,0:0:0:0:
496,144,47145,6,0,P|508:40|512:16,1,90,6|6,0:1|0:1,0:0:0:0:
280,88,47431,2,2,P|220:160|108:160,1,202.500007724762,8|0,0:1|0:0,0:1:0:0:
40,120,47716,5,6,0:1:0:0:
232,200,47859,2,0,P|292:144|396:144,1,180,6|0,0:1|0:0,0:0:0:0:
443,225,48288,5,6,0:0:0:0:
294,310,48431,2,0,P|224:293|152:287,1,144,2|0,0:0|0:0,0:0:0:0:
152,287,48859,1,8,0:0:0:0:
294,310,49145,5,2,0:0:0:0:
142,318,49288,2,0,P|72:334|0:340,1,144,2|0,0:0|0:0,0:0:0:0:
0,341,49716,1,8,0:0:0:0:
88,183,50002,6,0,L|232:200,1,144,2|0,0:3|0:0,0:0:0:0:
358,359,50574,6,0,P|371:325|373:289,1,72,6|0,0:0|0:0,0:0:0:0:
457,293,50859,2,0,P|445:260|443:224,1,72,2|0,0:0|0:0,0:0:0:0:
373,177,51145,1,8,0:0:0:0:
373,289,51431,5,2,0:0:0:0:
456,147,51574,2,0,P|411:94|342:94,1,144,2|0,0:0|0:0,0:0:0:0:
254,38,52002,2,0,P|249:73|243:109,1,72,8|0,0:0|0:0,0:0:0:0:
163,167,52288,5,2,0:3:0:0:
41,33,52431,2,0,P|50:104|62:175,1,144
122,341,52859,5,6,0:0:0:0:
203,301,53002,2,0,P|150:254|81:261,1,144,2|0,0:0|0:0,0:0:0:0:
81,261,53431,1,8,0:0:0:0:
301,365,53716,5,2,0:0:0:0:
442,336,53859,2,0,L|301:365,1,144,2|0,0:0|0:0,0:0:0:0:
203,301,54288,1,0,0:0:0:0:
381,175,54574,6,0,P|450:181|492:237,1,144,2|0,0:3|0:0,0:0:0:0:
288,281,55145,6,0,P|294:245|296:209,1,72,6|0,0:0|0:0,0:0:0:0:
381,175,55431,2,0,P|374:139|372:103,1,72,2|0,0:0|0:0,0:0:0:0:
298,50,55716,1,8,0:0:0:0:
296,209,56002,5,2,0:0:0:0:
410,65,56145,2,0,B|357:84|357:84|328:76|328:76|272:90,1,144,6|2,0:0|0:0,0:0:0:0:
79,251,56574,1,2,0:0:0:0:
218,161,56716,1,2,0:0:0:0:
40,73,56859,1,2,0:0:0:0:
136,104,57002,6,2,P|153:68|162:30,1,78.7499975967408,6|0,0:1|0:0,0:1:0:0:
60,164,57431,6,0,P|72:208|80:260,1,90,4|0,0:0|0:0,0:0:0:0:
241,260,57716,1,8,0:0:0:0:
64,168,57859,1,0,0:0:0:0:
241,260,58002,2,0,L|217:380,1,90,0|2,0:0|0:0,0:0:0:0:
464,217,58288,2,0,P|388:197|348:177,1,90,8|0,0:0|0:0,0:0:0:0:
224,148,58574,5,2,0:0:0:0:
312,300,58716,1,0,0:0:0:0:
420,120,58859,2,0,L|407:30,1,90,8|0,0:0|0:0,0:0:0:0:
336,240,59145,1,0,0:0:0:0:
260,68,59288,1,2,0:0:0:0:
444,136,59431,1,8,0:0:0:0:
87,235,59574,6,0,P|235:191|299:179,1,180
452,336,60002,2,0,P|384:308|336:288,1,90,8|0,0:0|0:0,0:0:0:0:
184,164,60288,1,0,3:0:0:0:
320,76,60431,1,2,0:0:0:0:
296,324,60574,2,0,L|276:220,1,90,8|0,0:0|0:0,0:0:0:0:
116,80,60859,5,2,0:0:0:0:
292,152,61002,1,0,0:0:0:0:
172,264,61145,1,8,0:0:0:0:
328,140,61288,1,0,0:0:0:0:
56,224,61431,2,0,P|72:308|76:336,1,90,0|2,3:0|0:0,0:0:0:0:
308,104,61716,2,0,P|204:72|188:28,1,135,8|0,0:0|0:0,0:0:0:0:
160,24,62002,6,0,L|144:124,1,90,6|0,0:1|0:0,0:0:0:0:
256,264,62288,1,10,0:1:0:0:
328,108,62431,1,0,0:0:0:0:
432,316,62574,2,0,L|408:208,1,90,10|0,0:1|0:0,0:0:0:0:
424,76,62859,1,10,0:1:0:0:
264,200,63002,1,2,0:0:0:0:
148,40,63145,6,0,L|264:72,1,90,8|0,0:0|0:0,0:0:0:0:
448,232,63431,2,0,L|344:272,1,90,8|0,0:0|0:0,0:0:0:0:
304,80,63716,2,0,P|188:96|144:176,1,180,8|8,0:0|0:0,0:0:0:0:
24,80,64145,1,0,0:0:0:0:
120,328,64288,6,0,L|140:228,1,90,14|0,0:1|0:0,0:0:0:0:
264,160,64574,1,10,0:1:0:0:
116,72,64716,1,0,0:0:0:0:
392,156,64859,6,0,L|368:264,1,90,10|0,0:1|0:0,0:0:0:0:
256,276,65145,1,10,0:1:0:0:
416,132,65288,1,0,0:0:0:0:
212,56,65431,1,2,0:0:0:0:
332,216,65574,1,0,0:0:0:0:
136,264,65716,1,2,0:0:0:0:
328,120,65859,1,0,0:0:0:0:
344,352,66002,5,10,0:1:0:0:
144,124,66145,1,2,0:1:0:0:
344,240,66288,1,10,0:1:0:0:
128,372,66431,1,2,0:1:0:0:
472,300,66574,6,0,P|477:255|486:211,1,90,6|2,1:1|1:1,0:0:0:0:
280,56,66859,1,2,1:1:0:0:
358,216,67002,2,0,P|270:208|202:284,1,180,2|2,1:1|1:1,0:0:0:0:
45,293,67574,6,2,P|124:312|212:260,1,180,2|2,1:1|1:1,0:0:0:0:
307,143,68002,6,2,P|255:139|191:83,1,135.000005149842,2|0,3:1|0:0,0:1:0:0:
194,88,68574,2,0,L|220:8,1,67.5000025749208
88,292,68859,5,6,0:0:0:0:
4,159,69002,2,0,P|53:163|100:176,1,99.0000030212403,0|8,0:0|0:0,0:0:0:0:
369,371,69288,1,0,0:0:0:0:
453,238,69431,2,0,P|403:242|356:255,1,99.0000030212403,2|0,0:0|0:0,0:0:0:0:
164,365,69716,1,8,0:0:0:0:
257,156,69859,6,0,B|263:209|263:209|250:255|250:255|270:304|269:349,1,198.000006042481
53,322,70288,2,0,P|81:282|125:261,1,99.0000030212403,8|0,0:0|0:0,0:0:0:0:
363,164,70574,1,2,0:0:0:0:
164,365,70716,1,0,0:0:0:0:
356,254,70859,1,8,0:0:0:0:
146,109,71002,1,0,0:0:0:0:
254,256,71145,5,2,0:0:0:0:
393,74,71288,2,0,L|296:95,1,99.0000030212403,0|8,0:0|0:0,0:0:0:0:
83,14,71574,1,0,0:0:0:0:
175,191,71716,1,2,0:0:0:0:
288,56,71859,6,2,P|240:48|191:34,1,99.0000030212403,0|8,0:0|0:0,0:1:0:0:
2,199,72145,6,2,P|18:152|45:110,1,99.0000030212403,0|2,0:0|0:0,0:1:0:0:
335,218,72431,6,2,P|291:197|255:155,1,99.0000030212403,0|8,0:0|0:0,0:1:0:0:
53,322,72716,6,2,P|81:282|125:261,1,99.0000030212403,0|2,0:0|0:0,0:1:0:0:
400,328,73002,5,2,0:1:0:0:
175,191,73145,1,8,0:0:0:0:
260,380,73288,1,2,0:1:0:0:
474,220,73431,6,0,L|329:252,1,148.50000453186,6|0,0:0|0:0,0:0:0:0:
335,218,73716,2,0,P|291:197|255:155,1,99.0000030212403,8|0,0:0|0:0,0:0:0:0:
53,322,74002,2,0,P|81:282|125:261,1,99.0000030212403,2|0,0:0|0:0,0:0:0:0:
369,23,74288,2,0,P|361:71|348:119,1,99.0000030212403,8|0,0:0|0:0,0:0:0:0:
268,294,74574,5,2,0:0:0:0:
89,183,74716,1,2,0:0:0:0:
147,350,74859,1,8,0:0:0:0:
273,82,75002,1,0,3:0:0:0:
370,258,75145,1,2,0:0:0:0:
175,191,75288,1,2,0:0:0:0:
285,374,75431,1,8,0:0:0:0:
435,132,75574,1,0,3:0:0:0:
268,294,75716,5,6,0:0:0:0:
474,220,75859,1,2,0:0:0:0:
474,220,76002,1,8,0:0:0:0:
241,84,76145,5,6,0:0:0:0:
285,374,76288,1,2,0:0:0:0:
285,374,76431,1,8,0:0:0:0:
369,23,76574,5,6,0:0:0:0:
175,191,76716,1,2,0:0:0:0:
384,336,76859,6,0,L|361:189,1,148.50000453186,6|0,0:0|0:0,0:0:0:0:
345,158,77145,2,2,P|393:158|434:131,1,99.0000030212403,8|0,0:0|0:0,0:1:0:0:
137,278,77431,2,2,P|185:277|226:304,1,99.0000030212403,8|2,0:0|0:0,0:1:0:0:
0,119,77716,6,2,P|38:107|67:79,1,80.9999975280763,4|0,0:0|0:0,0:1:0:0:
72,42,78002,5,6,0:0:0:0:
361,189,78145,2,0,P|320:161|271:161,1,99.0000030212403,0|8,0:0|0:0,0:0:0:0:
58,202,78431,1,0,0:0:0:0:
298,345,78574,2,0,P|305:296|293:248,1,99.0000030212403,2|0,0:0|0:0,0:0:0:0:
191,101,78859,1,8,0:0:0:0:
473,175,79002,6,0,P|446:86|354:84,1,198.000006042481
58,202,79431,2,0,B|90:211|90:211|149:185,1,99.0000030212403,8|0,0:0|0:0,0:0:0:0:
298,345,79716,2,0,P|305:296|293:248,1,99.0000030212403,6|0,0:0|0:0,0:0:0:0:
152,31,80002,1,12,0:0:0:0:
177,273,80145,1,0,0:0:0:0:
360,188,80288,6,0,P|319:161|271:161,1,99.0000030212403,2|0,0:0|0:0,0:0:0:0:
39,380,80574,2,0,P|87:382|131:360,1,99.0000030212403,8|0,0:0|0:0,0:0:0:0:
293,248,80859,1,2,0:0:0:0:
99,115,81002,1,0,0:0:0:0:
177,273,81145,1,8,0:0:0:0:
0,214,81288,6,2,B|30:198|30:198|93:213,1,99.0000030212403,0|2,0:0|0:0,0:1:0:0:
250,349,81574,6,2,B|280:365|280:365|343:350,1,99.0000030212403,0|8,0:0|0:0,0:1:0:0:
94,213,81859,6,2,B|31:198|31:198|1:214,1,99.0000030212403,0|2,0:0|0:0,0:1:0:0:
250,349,82145,5,2,0:1:0:0:
193,188,82288,1,8,0:0:0:0:
385,271,82431,1,2,0:1:0:0:
473,102,82574,6,0,B|424:130|424:130|378:117|378:117|334:123,1,148.50000453186,6|0,0:0|0:0,0:0:0:0:
303,138,82859,2,0,B|301:90|301:90|292:40,1,99.0000030212403,8|0,0:0|0:0,0:0:0:0:
293,248,83145,1,2,0:0:0:0:
117,143,83288,1,0,0:0:0:0:
304,270,83431,1,8,0:0:0:0:
76,352,83574,1,0,0:0:0:0:
189,204,83716,6,0,B|187:252|187:252|178:302,1,99.0000030212403,6|0,0:0|0:0,0:0:0:0:
489,341,84002,2,0,P|462:300|418:278,1,99.0000030212403,8|0,0:0|0:0,0:0:0:0:
77,313,84288,2,0,B|110:314|110:314|139:331|139:331|172:330,1,99.0000030212403,6|0,0:0|0:0,0:0:0:0:
401,299,84574,2,0,P|373:340|329:362,1,99.0000030212403,12|0,0:0|0:0,0:0:0:0:
117,143,84859,5,2,0:0:0:0:
189,204,85002,1,0,0:0:0:0:
102,236,85145,1,8,0:0:0:0:
209,117,85288,1,2,0:0:0:0:
304,270,85431,1,8,0:0:0:0:
189,204,85574,1,0,0:0:0:0:
387,159,85716,1,8,0:0:0:0:
318,4,85859,6,0,B|283:55|283:55|313:104|313:104|286:148|295:188,1,198.000006042481,6|2,0:0|0:0,0:0:0:0:
509,98,86288,2,0,P|460:89|417:65,1,99.0000030212403,8|0,0:0|0:0,0:0:0:0:
218,282,86574,5,2,0:0:0:0:
387,159,86716,1,2,0:0:0:0:
149,64,86859,1,4,0:0:0:0:
294,179,87002,1,0,0:0:0:0:
102,236,87145,6,0,P|8:256|-16:288,1,135.000005149842,4|0,0:0|0:0,0:0:0:0:
198,123,87716,1,8,0:0:0:0:
271,293,88002,1,2,0:0:0:0:
271,293,88145,2,0,P|358:262|416:249,1,135.000005149842,2|0,0:0|0:0,0:0:0:0:
512,282,88574,1,2,0:0:0:0:
380,103,88859,6,0,P|333:80|268:64,1,90,10|0,0:1|0:0,0:0:0:0:
180,232,89145,2,0,L|209:330,1,90,2|0,0:1|0:0,0:0:0:0:
67,153,89431,6,2,P|120:112|186:108,1,135.000005149842,2|2,0:0|0:0,0:1:0:0:
315,215,90002,1,8,0:0:0:0:
176,321,90288,1,2,0:0:0:0:
176,321,90431,2,0,P|82:295|29:291,1,135.000005149842,2|0,0:0|0:0,0:0:0:0:
0,168,90859,1,2,0:0:0:0:
316,292,91145,6,0,L|296:388,1,90,10|0,0:1|0:0,0:0:0:0:
216,168,91431,2,0,P|268:144|316:132,1,90,2|0,0:1|0:0,0:0:0:0:
376,40,91716,5,14,0:1:0:0:
336,224,91859,1,0,0:0:0:0:
468,124,92002,1,14,0:1:0:0:
208,228,92145,1,0,0:0:0:0:
404,232,92288,5,14,0:1:0:0:
168,108,92431,1,0,0:0:0:0:
328,168,92574,1,14,0:1:0:0:
220,312,92716,1,0,0:0:0:0:
408,304,92859,5,14,0:1:0:0:
232,240,93002,1,0,0:0:0:0:
344,68,93145,1,14,0:1:0:0:
108,184,93288,1,0,0:0:0:0:
336,224,93431,5,14,0:1:0:0:
8,128,93574,1,0,0:0:0:0:
200,216,93716,1,14,0:1:0:0:
16,348,93859,1,0,0:0:0:0:
243,374,94002,6,0,L|220:288,1,90,14|14,0:1|0:1,0:0:0:0:
40,240,94288,1,0,0:0:0:0:
332,104,94431,6,0,L|316:196,1,90,14|14,0:1|0:1,0:0:0:0:
464,68,94716,1,0,0:0:0:0:
128,0,94859,5,14,0:1:0:0:
212,256,95002,2,2,P|280:256|324:216,1,112.5,14|0,0:1|0:0,0:1:0:0:
360,1,100431,5,2,0:1:0:0:
152,82,100574,1,2,0:1:0:0:
307,188,100716,1,2,0:1:0:0:
138,207,100859,6,0,P|182:224|226:240,1,80.9999975280763,6|2,0:0|0:0,0:0:0:0:
460,281,101145,2,0,P|401:279|325:342,1,161.999995056153
324,342,101716,2,0,L|302:263,1,80.9999975280763,2|2,0:0|0:0,0:0:0:0:
224,124,102002,2,0,L|400:152,1,161.999995056153,0|0,3:0|0:0,0:0:0:0:
156,256,102431,1,0,3:0:0:0:
156,256,103145,6,0,L|75:235,1,80.9999975280763,2|2,0:0|0:0,0:0:0:0:
148,64,103431,1,0,0:0:0:0:
7,112,103574,2,0,P|80:59|165:73,1,161.999995056153
244,208,104002,2,0,P|226:285|218:321,1,80.9999975280763,2|2,0:0|0:0,0:0:0:0:
172,40,104288,5,0,3:0:0:0:
398,257,104716,2,0,L|222:201,1,161.999995056153,0|0,3:0|0:0,0:0:0:0:
336,52,105145,1,0,3:0:0:0:
336,52,105431,6,0,L|354:155,1,80.9999975280763,2|2,0:0|0:0,0:0:0:0:
180,156,105716,1,0,0:0:0:0:
150,315,105859,2,0,L|179:156,1,161.999995056153
344,308,106288,2,0,P|296:300|256:276,1,80.9999975280763,2|2,0:0|0:0,0:0:0:0:
80,212,106574,5,0,3:0:0:0:
400,80,107002,2,0,P|312:156|260:144,1,161.999995056153,0|0,3:0|0:0,0:0:0:0:
104,284,107431,6,2,P|188:236|244:244,1,121.499996292114,0|0,0:0|0:0,0:0:0:0:
256,72,107716,1,4,0:3:0:0:
256,192,107788,12,0,108716,0:0:0:0:
260,39,108859,6,0,P|270:79|278:136,1,90,4|0,0:0|0:0,0:0:0:0:
236,273,109288,2,0,P|226:324|219:361,1,90
324,212,109716,2,0,P|271:166|180:167,1,153.000002918243,12|0,0:0|0:0,0:0:0:0:
0,67,110002,6,0,P|44:60|85:43,1,90,6|0,0:0|0:0,0:0:0:0:
65,231,110288,2,0,P|85:191|93:147,1,90,8|0,0:0|0:0,0:0:0:0:
0,346,110574,2,0,B|35:344|62:330|62:330|101:348|101:348|126:324|162:310,1,180,2|8,0:0|0:0,0:0:0:0:
323,212,111002,6,0,P|350:293|435:309,1,180
268,363,111431,1,8,0:0:0:0:
457,303,111574,1,0,0:0:0:0:
264,150,111716,2,0,L|397:169,1,135,2|0,0:0|0:0,0:0:0:0:
425,146,112002,2,0,P|408:187|405:232,1,90,8|0,0:0|0:0,0:0:0:0:
506,49,112288,5,2,0:0:0:0:
399,65,112431,1,0,0:0:0:0:
292,83,112574,1,8,0:0:0:0:
417,34,112716,2,0,P|461:36|505:47,1,90,0|2,0:0|0:0,0:0:0:0:
279,113,113002,2,0,P|234:110|190:99,1,90,0|8,0:0|0:0,0:0:0:0:
41,28,113288,6,0,B|79:88|79:88|29:185,1,180
185,126,113716,1,8,0:0:0:0:
19,211,113859,1,0,0:0:0:0:
225,304,114002,2,0,L|205:216,1,90,2|2,0:0|0:0,0:0:0:0:
42,321,114288,2,0,P|80:298|123:285,1,90,8|0,0:0|0:0,0:0:0:0:
453,371,114574,6,0,B|402:329|402:329|358:366|358:366|302:373,1,180,2|8,0:0|0:0,0:0:0:0:
300,195,115002,2,0,L|320:283,1,90,0|2,0:0|0:0,0:0:0:0:
488,268,115288,2,0,P|449:245|406:232,1,90,0|8,0:0|0:0,0:0:0:0:
228,117,115574,6,0,B|279:159|279:159|323:122|323:122|378:114,1,180
512,172,116002,1,8,0:0:0:0:
395,82,116145,1,0,0:0:0:0:
300,195,116288,1,2,0:0:0:0:
416,116,116431,1,2,0:0:0:0:
257,7,116574,2,0,B|253:45|253:45|272:92,1,90,8|0,0:0|0:0,0:0:0:0:
145,339,116859,5,2,0:0:0:0:
194,197,117002,1,2,0:0:0:0:
119,248,117145,5,8,0:0:0:0:
73,82,117288,1,0,3:0:0:0:
0,352,117431,5,8,0:0:0:0:
71,171,117574,1,0,3:0:0:0:
189,350,117716,5,2,0:0:0:0:
186,336,117788,1,2,0:0:0:0:
183,322,117859,1,2,0:0:0:0:
180,308,117931,1,2,0:0:0:0:
145,339,118002,5,12,0:0:0:0:
380,317,118145,2,0,B|432:282|432:282|360:295|360:295|312:277|265:270,1,233.999989288331,12|0,0:0|0:0,0:0:0:0:
194,197,118574,5,12,0:0:0:0:
406,305,118716,2,0,B|450:370|450:370|434:278|434:278|460:210|469:148,1,306.000005836487,12|0,0:0|0:0,0:0:0:0:
200,232,119145,5,6,0:0:0:0:
368,248,119288,2,0,P|456:224|528:216,1,144,2|0,0:0|0:0,0:0:0:0:
387,96,119716,1,8,0:0:0:0:
387,96,120002,5,2,0:0:0:0:
267,196,120145,2,0,P|163:172|131:116,1,144,2|2,0:0|0:0,0:0:0:0:
237,81,120574,1,2,0:0:0:0:
237,81,120859,2,2,L|325:56,1,72,8|0,0:0|0:0,0:1:0:0:
97,244,121145,2,0,L|78:166,1,72,0|0,3:0|0:0,0:0:0:0:
91,34,121431,5,2,0:0:0:0:
0,166,121574,1,2,0:0:0:0:
187,212,121716,2,0,L|248:224,2,48,0|0|0,3:0|3:0|3:0,0:0:0:0:
71,290,122002,2,2,L|92:370,1,72,8|0,0:0|0:0,0:1:0:0:
87,130,122288,1,2,0:0:0:0:
268,334,122431,6,0,P|278:256|288:174,1,144,2|8,0:0|0:0,0:1:0:0:
392,128,122859,1,2,0:0:0:0:
392,128,123145,1,8,0:0:0:0:
285,193,123288,1,0,0:0:0:0:
392,256,123431,6,0,P|460:244|504:192,1,135.000005149842,8|0,0:3|0:0,0:0:0:0:
288,120,123716,6,0,P|222:98|192:92,1,72,2|2,0:0|0:0,0:0:0:0:
256,228,124002,2,0,L|272:324,1,72
304,16,124288,1,8,0:0:0:0:
304,16,124574,5,2,0:0:0:0:
256,228,124716,2,0,P|338:210|372:159,1,144,2|8,0:0|0:0,0:0:0:0:
490,93,125145,1,2,0:0:0:0:
490,93,125431,2,2,L|502:187,1,72,8|0,0:0|0:0,0:1:0:0:
389,224,125716,2,0,L|402:328,1,72
262,109,126002,5,2,0:0:0:0:
460,180,126145,1,2,0:0:0:0:
295,303,126288,2,0,P|262:311|222:331,2,48,0|0|0,3:0|3:0|3:0,0:0:0:0:
446,292,126574,2,0,L|462:378,1,72,8|0,0:0|0:0,0:0:0:0:
321,102,126859,1,2,0:0:0:0:
231,270,127002,6,2,P|296:259|345:196,1,144,2|8,0:0|0:0,0:0:0:0:
389,55,127431,1,8,0:0:0:0:
239,164,127574,1,8,0:0:0:0:
424,252,127716,1,8,0:0:0:0:
253,64,127859,6,10,P|186:71|131:144,1,144,12|0,0:0|0:0,0:1:0:0:
55,194,128288,1,4,0:2:0:0:
460,264,132859,6,2,B|491:243|527:244|527:244|512:255,1,90,6|0,0:1|0:0,0:1:0:0:
433,352,133145,2,2,L|343:338,1,90,8|0,0:0|0:0,0:1:0:0:
52,264,133431,2,2,B|21:243|-15:244|-15:244|0:255,1,90,2|0,0:0|0:0,0:1:0:0:
79,352,133717,2,2,L|168:338,1,90,8|0,0:0|0:0,0:1:0:0:
394,169,134002,6,2,P|369:206|363:250,1,90,4|0,0:1|0:0,0:1:0:0:
118,169,134288,2,2,P|142:206|148:250,1,90,8|0,0:0|0:0,0:1:0:0:
339,16,134574,6,2,P|334:60|331:105,1,90,2|0,0:0|0:0,0:1:0:0:
173,16,134859,2,2,P|178:60|181:105,1,90,8|0,0:0|0:0,0:1:0:0:
254,374,135145,5,6,0:1:0:0:
255,292,135288,1,0,0:0:0:0:
255,210,135431,1,10,0:1:0:0:
255,128,135574,1,0,0:0:0:0:
363,250,135716,5,6,0:1:0:0:
394,169,135859,1,0,0:0:0:0:
148,250,136002,1,10,0:1:0:0:
118,169,136145,1,0,0:0:0:0:
254,374,136288,5,14,0:1:0:0:
460,264,136431,1,0,0:0:0:0:
255,292,136574,1,14,0:1:0:0:
52,264,136716,1,0,0:0:0:0:
255,210,136859,1,6,1:0:0:0:
255,210,136931,1,0,1:0:0:0:
255,210,137002,1,0,1:0:0:0:
255,210,137074,1,0,1:0:0:0:
255,210,137145,1,10,1:0:0:0:
344,338,137288,1,2,0:0:0:0:
255,128,137431,5,6,1:0:0:0:
168,338,137574,1,2,1:0:0:0:
363,250,137716,1,2,1:0:0:0:
181,105,137859,5,2,1:0:0:0:
254,374,138145,1,2,1:0:0:0:
459,264,138431,2,0,P|437:181|354:158,1,180,2|2,1:0|1:0,0:0:0:0:
227,238,138859,1,2,1:0:0:0:
227,238,139145,5,2,0:0:0:0:
67,59,139288,2,2,P|73:80|83:100,1,45,2|2,0:0|0:0,0:1:0:0:
121,172,139431,1,2,0:0:0:0:
418,34,139574,2,2,P|411:55|401:75,1,45,2|2,0:0|0:0,0:1:0:0:
360,160,139716,6,0,P|280:176|244:184,1,99.0000030212403,4|0,0:0|0:0,0:0:0:0:
160,72,140002,1,8,0:0:0:0:
48,276,140145,2,0,P|116:288|168:300,1,99.0000030212403,0|2,0:0|0:0,0:0:0:0:
262,179,140431,1,0,0:0:0:0:
48,272,140574,1,8,0:0:0:0:
224,368,140716,6,0,L|245:271,1,99.0000030212403,0|2,0:0|0:0,0:0:0:0:
292,56,141002,1,0,0:0:0:0:
484,236,141145,2,0,P|411:236|357:187,1,148.50000453186,8|0,0:0|0:0,0:0:0:0:
316,144,141431,2,0,P|256:160|216:172,1,99.0000030212403,2|0,0:0|0:0,0:0:0:0:
80,260,141716,1,8,0:0:0:0:
96,72,141859,1,0,0:0:0:0:
288,336,142002,6,0,L|272:228,1,99.0000030212403,2|0,0:0|0:0,0:0:0:0:
360,64,142288,1,8,0:0:0:0:
176,176,142431,1,0,0:0:0:0:
448,228,142574,2,0,L|348:264,1,99.0000030212403,2|0,0:0|0:0,0:0:0:0:
200,80,142859,1,8,0:0:0:0:
184,264,143002,6,0,P|192:320|204:368,1,99.0000030212403,0|2,0:0|0:0,0:0:0:0:
312,112,143288,2,0,P|320:40|328:-4,1,99.0000030212403,0|8,0:0|0:0,0:0:0:0:
68,176,143574,2,0,P|152:196|248:108,1,198.000006042481
116,48,144002,1,8,0:0:0:0:
184,264,144145,1,0,0:0:0:0:
388,164,144288,6,2,L|372:252|364:296,1,99.0000030212403,2|0,0:0|0:0,0:1:0:0:
92,208,144574,2,0,P|148:192|187:181,1,99.0000030212403,8|0,0:0|0:0,0:0:0:0:
352,68,144859,1,2,0:0:0:0:
404,288,145002,1,0,0:0:0:0:
187,180,145145,1,8,0:0:0:0:
256,356,145288,6,0,P|264:308|272:244,1,99.0000030212403,0|2,0:0|0:0,0:0:0:0:
204,40,145574,1,0,0:0:0:0:
340,184,145716,2,0,P|384:140|504:152,1,148.50000453186,8|0,0:0|0:0,0:0:0:0:
496,168,146002,2,0,L|476:280,1,99.0000030212403,2|0,0:0|0:0,0:0:0:0:
184,160,146288,1,8,0:0:0:0:
348,260,146431,1,0,0:0:0:0:
320,92,146574,5,10,0:1:0:0:
204,308,146716,1,8,0:3:0:0:
204,308,146859,1,4,0:3:0:0:
76,128,147002,5,10,0:1:0:0:
444,284,147145,1,2,0:0:0:0:
444,284,147288,1,2,0:0:0:0:
40,280,147431,6,0,L|156:240,1,99.0000030212403,10|0,0:1|0:0,0:0:0:0:
392,276,147716,1,2,0:0:0:0:
176,172,147859,1,2,0:0:0:0:
220,352,148002,1,10,0:1:0:0:
340,108,148145,1,2,0:0:0:0:
332,288,148288,5,10,0:1:0:0:
76,128,148431,1,2,0:1:0:0:
76,128,148502,1,0,0:0:0:0:
76,128,148574,1,12,0:0:0:0:
320,0,148716,1,2,0:1:0:0:
376,180,148859,6,0,P|432:160|504:136,1,99.0000030212403,4|0,0:0|0:0,0:0:0:0:
256,56,149145,1,8,0:0:0:0:
296,292,149288,2,0,L|172:260,1,99.0000030212403,0|2,0:0|0:0,0:0:0:0:
344,136,149574,1,0,0:0:0:0:
192,364,149716,1,8,0:0:0:0:
396,328,149859,6,0,P|380:252|372:196,1,99.0000030212403,0|2,0:0|0:0,0:0:0:0:
432,76,150145,1,0,0:0:0:0:
68,92,150288,2,0,P|112:148|212:144,1,148.50000453186,8|0,0:0|0:0,0:0:0:0:
232,132,150574,1,2,0:0:0:0:
156,304,150716,1,0,0:0:0:0:
464,240,150859,2,0,L|352:212,1,99.0000030212403,8|0,0:0|0:0,0:0:0:0:
168,140,151145,5,2,0:0:0:0:
368,72,151288,1,0,0:0:0:0:
276,272,151431,1,8,0:0:0:0:
140,104,151574,1,0,0:0:0:0:
380,192,151716,2,0,L|356:328,1,99.0000030212403,2|0,0:0|0:0,0:0:0:0:
184,364,152002,1,8,0:0:0:0:
376,316,152145,6,0,P|440:296|480:276,1,99.0000030212403,0|2,0:0|0:0,0:0:0:0:
164,200,152431,2,0,P|100:220|60:236,1,99.0000030212403,0|8,0:0|0:0,0:0:0:0:
232,4,152716,2,0,P|352:20|376:112,1,198.000006042481
424,336,153145,2,0,P|428:264|440:208,1,99.0000030212403,8|0,0:0|0:0,0:0:0:0:
248,188,153431,6,2,P|192:180|92:152,1,148.50000453186,2|0,0:0|0:0,0:1:0:0:
52,172,153716,2,0,L|72:280,1,99.0000030212403,8|0,0:0|0:0,0:0:0:0:
376,112,154002,1,2,0:0:0:0:
200,308,154145,1,0,0:0:0:0:
192,108,154288,1,8,0:0:0:0:
496,280,154431,6,0,P|416:256|268:212,1,198.000006042481
96,224,154859,2,0,P|88:272|80:344,1,99.0000030212403,8|0,0:0|0:0,0:0:0:0:
236,36,155145,2,0,L|256:152,1,99.0000030212403,2|0,0:0|0:0,0:0:0:0:
380,328,155431,2,0,L|404:208,1,99.0000030212403,8|0,0:0|0:0,0:0:0:0:
448,72,155716,5,2,0:0:0:0:
296,268,155859,1,10,0:1:0:0:
500,212,156002,1,2,0:0:0:0:
216,156,156145,1,2,0:0:0:0:
320,360,156288,1,10,0:1:0:0:
128,280,156431,1,2,0:0:0:0:
360,152,156574,1,10,0:1:0:0:
144,8,156716,6,0,P|225:-2|322:82,1,198.000006042481,6|2,0:0|0:0,0:0:0:0:
112,248,157145,2,2,L|0:290,1,99.0000030212403,10|0,0:1|0:0,0:1:0:0:
181,133,157431,1,10,0:1:0:0:
383,196,157574,1,2,0:0:0:0:
164,354,157716,1,4,0:0:0:0:
404,174,157859,1,2,0:1:0:0:
240,256,158002,6,0,L|223:112,2,144,2|0|8,0:0|0:0|0:0,0:0:0:0:
465,354,158859,2,0,P|425:296|356:288,1,144,2|0,0:0|0:0,0:0:0:0:
21,372,159431,6,0,L|163:353,1,144,2|8,0:0|0:0,0:0:0:0:
311,225,160002,1,2,0:3:0:0:
93,186,160288,2,0,P|108:218|127:249,1,72,2|0,0:0|0:0,0:0:0:0:
222,150,160574,2,0,L|230:78,1,72,2|0,0:0|0:0,0:0:0:0:
118,17,160859,1,8,0:0:0:0:
7,120,161145,5,2,0:0:0:0:
7,120,161288,2,0,L|157:93,1,144,2|0,0:0|0:0,0:0:0:0:
306,22,161716,2,0,L|314:93,1,72,2|0,0:0|0:0,0:0:0:0:
436,193,162002,2,0,L|444:121,1,72,8|0,0:0|0:0,0:0:0:0:
225,255,162288,2,0,P|258:243|294:238,1,72,0|0,3:0|0:0,0:0:0:0:
479,366,162574,5,6,0:0:0:0:
281,326,162716,1,0,0:0:0:0:
479,366,162859,1,6,0:0:0:0:
281,326,163002,1,0,0:0:0:0:
376,260,163146,5,6,0:0:0:0:
173,292,163289,1,0,0:0:0:0:
376,260,163432,1,6,0:0:0:0:
173,292,163574,1,0,0:0:0:0:
436,193,163716,5,6,0:0:0:0:
380,359,163859,1,0,0:0:0:0:
436,193,164002,1,6,0:0:0:0:
380,359,164145,1,0,0:0:0:0:
220,135,164288,5,6,0:0:0:0:
281,326,164431,1,0,0:0:0:0:
220,135,164574,1,6,0:0:0:0:
281,326,164717,1,0,0:0:0:0:
45,350,164859,5,10,0:1:0:0:
254,229,165002,1,10,0:1:0:0:
281,326,165288,5,10,0:1:0:0:
68,180,165431,1,10,0:1:0:0:
89,267,165716,5,10,0:1:0:0:
314,93,165859,1,10,0:1:0:0:
352,184,167145,6,0,P|300:180|224:124,1,135.000005149842,12|0,0:0|0:0,0:1:0:0:
80,296,167431,6,0,P|172:252|220:260,1,135.000005149842,0|8,0:0|0:0,0:0:0:0:
356,40,168002,1,2,0:0:0:0:
288,164,168145,1,2,0:0:0:0:
288,164,168574,6,0,L|268:88,1,67.5000025749208,2|0,0:0|0:0,0:0:0:0:
152,240,168859,2,0,L|140:308,1,67.5000025749208,8|0,0:0|0:0,0:0:0:0:
72,164,169145,1,0,0:0:0:0:
232,236,169288,1,0,0:0:0:0:
140,376,169431,6,2,P|232:368|272:324,1,135.000005149842,2|0,0:0|0:0,0:1:0:0:
408,232,169859,1,0,0:0:0:0:
256,168,170002,1,8,0:0:0:0:
256,168,170288,6,0,L|280:256,1,67.5000025749208,2|2,0:0|0:0,0:0:0:0:
136,280,170574,2,0,P|72:264|44:260,1,67.5000025749208,0|8,0:0|0:0,0:0:0:0:
352,164,170859,1,0,0:0:0:0:
352,164,171145,2,0,L|364:84,1,67.5000025749208,8|0,0:0|0:0,0:0:0:0:
272,304,171431,1,2,0:1:0:0:
200,168,171574,1,2,0:1:0:0:
468,244,171716,6,2,P|412:228|324:204,1,135.000005149842,2|0,0:0|0:0,0:1:0:0:
308,48,172145,1,0,0:0:0:0:
152,152,172288,1,8,0:0:0:0:
152,152,172574,2,0,L|244:136,1,67.5000025749208,2|2,0:0|0:0,0:0:0:0:
352,260,172859,2,0,P|344:296|332:348,1,67.5000025749208,0|8,0:0|0:0,0:0:0:0:
268,196,173145,5,2,0:0:0:0:
432,300,173288,1,2,0:0:0:0:
448,164,173431,2,0,L|428:88,1,67.5000025749208,8|0,0:0|0:0,0:0:0:0:
352,172,173716,1,4,0:3:0:0:
512,68,173859,1,4,0:3:0:0:
316,36,174002,6,2,P|228:44|180:96,1,135.000005149842,2|2,0:0|0:0,0:1:0:0:
53,43,174431,1,0,0:0:0:0:
223,187,174574,2,0,L|299:159,1,67.5000025749208,8|0,0:0|0:0,0:0:0:0:
168,321,174859,2,0,L|65:298,1,76.5000014591217,2|2,0:0|0:0,0:0:0:0:
89,174,175145,5,0,0:0:0:0:
287,267,175288,1,8,0:0:0:0:
294,147,175431,5,8,0:0:0:0:
216,360,175574,1,8,0:0:0:0:
456,185,175716,5,8,0:0:0:0:
193,25,175859,1,8,0:0:0:0:
254,263,176002,6,0,P|182:171|290:126,1,270.000010299683,12|0,0:0|0:0,0:0:0:0:
376,196,176288,5,6,0:0:0:0:
376,225,176383,5,0,0:0:0:0:
383,254,176478,5,0,0:0:0:0:
405,274,176574,5,8,0:0:0:0:
432,285,176669,5,0,0:0:0:0:
461,287,176764,5,0,0:0:0:0:
483,245,176859,5,2,0:0:0:0:
454,245,176954,5,0,0:0:0:0:
425,252,177049,5,0,0:0:0:0:
405,274,177145,5,8,0:0:0:0:
394,301,177240,5,0,0:0:0:0:
392,330,177335,5,0,0:0:0:0:
408,368,177431,5,2,0:0:0:0:
379,359,177526,5,0,0:0:0:0:
349,358,177621,5,0,0:0:0:0:
319,358,177716,5,8,0:0:0:0:
291,369,177812,5,0,0:0:0:0:
260,372,177907,5,0,0:0:0:0:
221,359,178002,5,2,0:0:0:0:
202,335,178097,5,0,0:0:0:0:
197,305,178193,5,0,0:0:0:0:
202,275,178288,5,8,0:0:0:0:
221,252,178383,5,0,0:0:0:0:
248,241,178478,5,0,0:0:0:0:
292,259,178574,5,6,0:0:0:0:
295,223,178669,5,0,0:0:0:0:
297,187,178764,5,0,0:0:0:0:
301,151,178859,5,8,0:0:0:0:
305,115,178954,5,0,0:0:0:0:
306,78,179050,5,0,0:0:0:0:
331,37,179145,5,2,0:0:0:0:
366,29,179240,5,0,0:0:0:0:
397,45,179335,5,0,0:0:0:0:
411,78,179431,5,8,0:0:0:0:
406,113,179526,5,0,0:0:0:0:
386,143,179621,5,0,0:0:0:0:
339,132,179716,5,2,0:0:0:0:
305,115,179812,5,0,0:0:0:0:
269,115,179907,5,0,0:0:0:0:
234,123,180002,5,8,0:0:0:0:
204,143,180097,5,0,0:0:0:0:
167,145,180193,5,0,0:0:0:0:
125,121,180288,5,2,0:0:0:0:
135,155,180383,5,0,0:0:0:0:
133,190,180478,5,0,0:0:0:0:
113,220,180574,5,8,0:0:0:0:
80,235,180669,5,0,0:0:0:0:
44,235,180764,5,0,0:0:0:0:
10,200,180859,5,2,0:0:0:0:
10,200,180954,2,0,P|1:172|3:142,1,60
100,312,181145,1,8,0:0:0:0:
100,312,181240,2,0,P|101:341|92:370,1,60
209,228,181431,6,0,P|237:220|267:221,1,60,2|0,0:0|0:0,0:0:0:0:
312,346,181621,2,0,P|340:353|370:352,1,60,0|8,0:0|0:0,0:0:0:0:
405,187,181812,2,0,P|433:179|463:180,1,60
471,275,182002,6,0,B|433:264|433:264|398:275|398:275|354:267,2,120,2|0|0,0:0|0:0|0:0,0:0:0:0:
421,97,182574,2,0,B|361:91|361:91|321:136,2,120,2|0|0,0:0|0:0|0:0,0:0:0:0:
196,40,183145,5,2,0:0:0:0:
196,40,183240,2,0,P|197:69|203:99,1,60
267,225,183431,1,8,0:0:0:0:
267,225,183526,2,0,P|261:254|259:284,1,60
127,147,183716,6,0,P|144:171|167:190,1,60,2|0,0:0|0:0,0:0:0:0:
134,371,183907,2,0,P|159:356|182:335,1,60,0|8,0:0|0:0,0:0:0:0:
13,251,184097,2,0,P|40:262|70:265,1,60
148,266,184288,5,2,0:0:0:0:
148,266,184431,1,2,0:0:0:0:
47,177,184574,1,8,0:0:0:0:
203,99,184716,1,2,0:0:0:0:
167,190,184859,1,8,0:0:0:0:
167,190,184931,1,8,0:0:0:0:
167,190,185002,1,8,0:0:0:0:
324,316,185145,6,0,B|334:298|337:270|337:270|364:251|364:251|386:214|327:165|327:165|298:211|266:224,1,270,4|0,0:0|0:0,0:0:0:0:
184,348,185431,6,0,L|120:326,2,60,4|2|2,0:0|0:1|0:1,0:0:0:0:
44,208,185716,2,0,L|24:288,2,60,8|2|2,0:0|0:1|0:1,0:0:0:0:
168,288,186002,1,2,0:0:0:0:
219,320,186097,1,2,0:1:0:0:
279,312,186193,1,2,0:1:0:0:
324,273,186288,1,8,0:0:0:0:
372,237,186383,1,2,0:1:0:0:
432,240,186478,1,2,0:1:0:0:
476,256,186574,6,0,P|484:200|480:160,2,60,2|2|2,0:0|0:1|0:1,0:0:0:0:
424,76,186859,2,0,L|352:108,2,60,8|2|2,0:0|0:1|0:1,0:0:0:0:
308,196,187145,1,2,0:0:0:0:
252,180,187240,1,2,0:1:0:0:
216,132,187335,1,2,0:1:0:0:
240,76,187431,1,8,0:0:0:0:
212,24,187526,1,2,0:1:0:0:
152,32,187621,1,2,0:1:0:0:
120,84,187716,6,0,L|104:152,2,60,2|2|2,0:0|0:1|0:1,0:0:0:0:
20,252,188002,2,0,L|34:338,2,60,8|2|2,0:0|0:1|0:1,0:0:0:0:
32,152,188288,1,2,0:0:0:0:
71,196,188383,1,2,0:1:0:0:
131,200,188478,1,2,0:1:0:0:
190,183,188574,1,8,0:0:0:0:
240,215,188669,1,2,0:1:0:0:
249,274,188764,1,2,0:1:0:0:
248,324,188859,6,0,L|232:396,2,60,2|2|2,0:0|0:1|0:1,0:0:0:0:
360,176,189145,2,0,L|344:104,2,60,8|0|2,0:0|0:1|0:1,0:0:0:0:
240,228,189431,1,2,0:0:0:0:
208,180,189526,1,2,0:1:0:0:
156,156,189621,1,2,0:1:0:0:
152,96,189716,1,8,0:0:0:0:
200,56,189812,1,2,0:1:0:0:
260,64,189907,1,2,0:1:0:0:
312,36,190002,6,0,L|380:8,2,60,2|2|0,0:0|0:1|0:1,0:0:0:0:
196,196,190288,2,0,L|180:276,2,60,8|2|2,0:0|0:1|0:1,0:0:0:0:
112,32,190574,1,2,0:0:0:0:
88,88,190669,1,2,0:1:0:0:
124,136,190764,1,0,0:1:0:0:
184,144,190859,1,8,0:0:0:0:
240,168,190954,1,2,0:1:0:0:
260,224,191050,1,2,0:1:0:0:
260,280,191145,6,0,L|240:367,1,90,2|0,0:0|0:0,0:0:0:0:
308,100,191431,1,8,0:1:0:0:
124,220,191574,1,0,0:1:0:0:
364,292,191716,6,0,P|428:272|460:264,1,90,2|0,0:0|0:0,0:0:0:0:
176,52,192002,1,8,0:1:0:0:
260,224,192145,1,0,0:0:0:0:
76,208,192288,5,14,0:1:0:0:
392,48,192431,1,2,0:0:0:0:
292,340,192574,1,2,0:0:0:0:
240,48,192716,5,14,0:1:0:0:
372,272,192859,1,2,0:0:0:0:
148,200,193002,1,2,0:0:0:0:
344,156,193145,5,14,0:1:0:0:
232,328,193288,1,0,0:0:0:0:
176,120,193431,6,2,P|218:83|330:82,1,135,6|0,0:1|0:0,0:1:0:0:
348,72,193716,1,10,0:1:0:0:
76,0,193859,1,2,0:0:0:0:
344,260,194002,2,0,P|440:220|464:212,1,90,10|2,0:1|0:0,0:0:0:0:
216,104,194288,1,8,0:0:0:0:
172,112,194359,1,8,0:0:0:0:
132,128,194431,1,8,0:0:0:0:
104,164,194502,1,8,0:0:0:0:
102,209,194574,6,0,P|80:169|45:142,1,90,6|0,1:0|0:0,0:0:0:0:
7,234,194859,1,0,0:0:0:0:
197,355,195002,6,0,L|286:342,1,90,6|0,1:0|0:0,0:0:0:0:
384,323,195288,1,0,0:0:0:0:
102,384,195431,6,0,P|104:339|119:297,1,90,6|0,1:0|0:0,0:0:0:0:
203,249,195716,1,0,0:0:0:0:
478,284,195859,6,0,L|299:258,1,180,6|0,1:0|0:0,0:0:0:0:
45,142,196288,2,0,P|80:169|102:209,1,90,6|0,1:0|0:0,0:0:0:0:
321,98,196574,2,0,P|285:125|264:164,1,90,6|0,1:0|0:0,0:0:0:0:
151,33,196859,6,0,L|169:120,1,90,6|0,1:0|0:0,0:0:0:0:
193,213,197145,1,0,0:0:0:0:
442,197,197288,6,0,P|398:185|353:181,1,90,6|0,1:0|0:0,0:0:0:0:
264,164,197574,1,0,0:0:0:0:
150,377,197716,6,0,P|190:358|216:322,1,90,6|0,1:0|0:0,0:0:0:0:
269,249,198002,1,0,0:0:0:0:
15,148,198145,6,0,B|19:177|38:203|38:203|17:248|17:248|44:272|52:307,1,180,6|0,1:0|0:0,0:0:0:0:
456,312,198574,2,0,L|366:299,1,90,6|0,1:0|0:0,0:0:0:0:
150,377,198859,2,0,P|190:358|216:322,1,90,6|0,1:0|0:0,0:0:0:0:
355,197,199145,5,6,1:0:0:0:
300,344,199288,1,0,0:0:0:0:
259,102,199431,5,6,1:0:0:0:
284,256,199574,1,0,0:0:0:0:
122,63,199716,5,6,1:0:0:0:
220,183,199859,1,0,0:0:0:0:
1,92,200002,5,6,1:0:0:0:
145,146,200145,1,6,1:0:0:0:
0,254,200288,5,6,1:0:0:0:
220,183,200431,1,0,0:0:0:0:
45,19,200574,1,6,1:0:0:0:
259,102,200716,1,2,1:0:0:0:
66,173,200859,5,6,1:0:0:0:
61,172,200931,1,0,1:0:0:0:
57,169,201002,1,0,1:0:0:0:
54,165,201074,1,0,1:0:0:0:
52,160,201145,6,0,P|62:193|72:209,1,45,2|0,1:0|1:0,0:0:0:0:
153,251,201288,2,0,P|141:273|137:291,1,45,2|0,1:0|1:0,0:0:0:0:
43,353,201431,5,4,1:3:0:0:
130,333,201574,1,0,0:0:0:0:
218,319,201716,1,0,0:0:0:0:
306,304,201859,1,0,0:0:0:0:
475,289,202002,5,0,0:0:0:0:
398,335,202145,1,0,0:0:0:0:
383,246,202288,1,0,0:0:0:0:
466,199,202431,1,0,0:0:0:0:
398,335,202574,5,2,1:0:0:0:
292,212,202716,1,2,1:0:0:0:
475,289,202859,1,2,1:0:0:0:
495,84,203002,1,2,1:0:0:0:
495,84,203716,5,2,1:0:0:0:
383,246,203859,1,2,1:0:0:0:
302,93,204002,1,2,1:0:0:0:
466,199,204145,5,2,1:0:0:0:
320,383,204431,1,2,1:0:0:0:
209,179,204716,2,0,B|235:182|262:170|262:170|311:201|311:201|333:170|364:162,1,180,2|2,1:0|1:0,0:0:0:0:
327,10,205145,6,0,P|265:13|222:57,1,125.999996154785,2|0,1:0|0:0,0:0:0:0:
197,48,205716,6,0,P|198:70|201:92,1,45
100,224,210574,6,0,P|196:216|236:180,1,125.999996154785,2|2,0:0|0:0,0:0:0:0:
264,80,211002,1,0,0:0:0:0:
352,192,211145,2,0,L|336:268,1,62.9999980773926,2|0,0:0|0:0,0:0:0:0:
232,336,211431,2,0,L|212:264,1,62.9999980773926,2|0,0:0|0:0,0:0:0:0:
448,212,211716,6,2,P|376:196|296:176,1,153.000002918243,2|2,0:0|0:0,0:1:0:0:
236,28,212145,1,0,0:0:0:0:
84,200,212288,2,2,L|172:172,1,76.5000014591217,2|0,0:0|0:0,0:1:0:0:
316,284,212574,2,2,P|280:297|242:304,1,76.5000014591217,2|0,0:0|0:0,0:1:0:0:
272,56,212859,6,2,P|360:52|412:104,1,153.000002918243,2|0,0:0|0:0,0:0:0:0:
188,232,213288,2,2,P|100:228|44:172,1,153.000002918243,2|0,0:0|0:0,0:0:0:0:
304,376,213716,2,0,P|340:360|392:348,1,76.5000014591217,2|0,0:0|0:0,0:0:0:0:
388,148,214002,6,0,P|376:216|372:236,1,76.5000014591217,0|4,0:0|0:3,0:0:0:0:
208,316,214288,2,0,L|192:228,1,76.5000014591217,8|4,0:3|0:3,0:0:0:0:
288,48,214574,1,10,0:1:0:0:
376,280,214716,1,2,0:1:0:0:
376,280,214788,1,2,0:0:0:0:
376,280,214859,1,12,0:0:0:0:
96,152,215002,1,2,0:1:0:0:
129,290,215145,5,6,0:0:0:0:
279,229,215288,2,0,P|291:181|296:131,1,99.0000030212403,0|8,0:0|0:0,0:0:0:0:
348,343,215574,1,0,0:0:0:0:
194,134,215717,2,0,P|181:86|176:36,1,99.0000030212403,2|0,0:0|0:0,0:0:0:0:
208,316,216002,5,8,0:0:0:0:
377,160,216145,2,0,P|357:68|265:51,1,198.000006042481
37,319,216574,2,0,P|85:314|128:289,1,99.0000030212403,8|0,0:0|0:0,0:0:0:0:
296,131,216859,1,6,0:0:0:0:
208,316,217002,1,0,0:0:0:0:
93,86,217145,1,12,0:0:0:0:
252,223,217288,1,0,0:0:0:0:
60,233,217431,5,2,0:0:0:0:
194,134,217574,1,0,0:0:0:0:
15,30,217716,2,0,P|1:77|5:126,1,99.0000030212403,8|0,0:0|0:0,0:0:0:0:
208,316,218002,1,2,0:0:0:0:
265,50,218145,1,0,0:0:0:0:
130,187,218288,1,8,0:0:0:0:
357,308,218431,6,2,P|361:258|347:211,1,99.0000030212403,0|2,0:0|0:0,0:1:0:0:
170,368,218716,6,2,L|266:347,1,99.0000030212403,0|8,0:0|0:0,0:1:0:0:
500,151,219002,6,2,L|403:130,1,99.0000030212403,0|2,0:0|0:0,0:1:0:0:
199,278,219288,5,2,0:1:0:0:
438,218,219431,1,8,0:0:0:0:
296,131,219574,1,2,0:1:0:0:
365,356,219716,6,0,B|360:315|350:293|350:293|357:259|357:259|346:211,1,148.50000453186,6|0,0:0|0:0,0:0:0:0:
296,131,220002,2,0,P|298:81|301:32,1,99.0000030212403,8|0,0:0|0:0,0:0:0:0:
199,278,220288,1,2,0:0:0:0:
346,211,220431,1,0,0:0:0:0:
170,368,220574,1,8,0:0:0:0:
67,190,220716,6,0,B|105:195|143:215|143:215|181:192|181:192|253:203,1,198.000006042481
479,20,221145,2,0,P|430:28|384:46,1,99.0000030212403,8|0,0:0|0:0,0:0:0:0:
266,346,221431,1,6,0:0:0:0:
438,218,221574,1,0,0:0:0:0:
300,32,221716,2,0,P|297:81|296:131,1,99.0000030212403,12|0,0:0|0:0,0:0:0:0:
73,286,222002,5,2,0:0:0:0:
253,203,222145,1,0,0:0:0:0:
0,351,222288,1,8,0:0:0:0:
129,113,222431,1,2,0:0:0:0:
73,286,222574,1,8,0:0:0:0:
12,91,222716,1,0,0:0:0:0:
170,368,222859,1,8,0:0:0:0:
253,203,223002,6,0,B|181:192|181:192|143:215|143:215|105:195|67:190,1,198.000006042481,6|2,0:0|0:0,0:0:0:0:
365,355,223431,2,0,P|410:337|459:332,1,99.0000030212403,8|0,0:0|0:0,0:0:0:0:
199,278,223716,1,2,0:0:0:0:
397,134,223859,1,2,0:0:0:0:
299,274,224002,1,4,0:0:0:0:
204,55,224145,1,0,0:0:0:0:
44,296,224288,6,0,P|88:256|168:252,1,135.000005149842,6|0,0:0|0:0,0:0:0:0:
292,112,224859,1,8,0:0:0:0:
464,276,225145,1,2,0:0:0:0:
464,276,225288,2,0,P|384:248|320:236,1,135.000005149842,2|8,0:0|0:0,0:0:0:0:
376,60,225716,1,2,0:0:0:0:
376,60,226002,2,0,L|392:156,1,67.5000025749208,10|0,0:1|0:0,0:0:0:0:
264,260,226288,2,0,L|280:172,1,67.5000025749208,2|0,0:1|0:0,0:0:0:0:
292,356,226574,6,2,P|224:360|180:308,1,135.000005149842,2|2,0:0|0:0,0:1:0:0:
104,92,227145,1,8,0:0:0:0:
316,168,227431,1,2,0:0:0:0:
96,264,227574,6,0,L|248:220,1,135.000005149842,2|8,0:0|0:0,0:0:0:0:
436,176,228002,2,0,L|420:256,1,67.5000025749208,2|0,0:0|0:0,0:0:0:0:
200,120,228288,1,10,0:1:0:0:
304,276,228431,1,0,0:0:0:0:
76,128,228574,2,0,P|88:80|100:48,1,67.5000025749208,2|2,0:1|0:0,0:0:0:0:
368,40,228859,5,12,0:1:0:0:
236,288,229002,1,0,0:1:0:0:
144,100,229145,1,12,0:1:0:0:
392,248,229288,1,0,0:1:0:0:
320,88,229431,5,12,0:1:0:0:
80,308,229574,1,0,0:1:0:0:
328,208,229716,1,12,0:1:0:0:
152,24,229859,1,0,0:1:0:0:
440,96,230002,5,12,0:1:0:0:
180,244,230145,1,0,0:1:0:0:
432,308,230288,1,12,0:1:0:0:
100,88,230431,1,0,0:1:0:0:
204,380,230574,5,12,0:1:0:0:
348,88,230716,1,0,0:1:0:0:
16,256,230859,1,12,0:1:0:0:
496,192,231002,1,0,0:1:0:0:
304,64,231145,5,14,0:1:0:0:
188,316,231288,1,14,0:1:0:0:
320,52,231574,5,14,0:1:0:0:
64,156,231717,1,14,0:1:0:0:
332,36,232002,5,14,0:1:0:0:
36,300,232145,2,2,P|52:372|56:396,1,67.5000025749208,14|0,0:1|0:0,0:1:0:0:
132,84,232431,1,0,0:0:0:0:
204,240,232716,6,2,P|296:236|340:196,1,135,0|0,0:0|0:0,0:0:0:0:
328,212,233431,6,0,B|371:229|371:229|397:217|397:217|444:230|444:230|453:245|453:245|482:194|467:138|467:138|429:145|429:145|425:112|412:87,1,350.99998928833,8|0,0:3|3:0,0:0:0:0:
425,69,235431,6,2,B|392:95|361:108|361:108|320:84|320:84|289:99|200:88,1,242.999992584229,2|0,0:3|0:0,0:1:0:0:
78,31,235716,5,6,0:0:0:0:
142,210,235859,1,0,0:0:0:0:
200,88,236002,1,8,0:0:0:0:
20,153,236145,1,0,0:0:0:0:
434,353,236288,5,2,0:0:0:0:
370,174,236431,1,2,0:0:0:0:
312,296,236574,1,8,0:0:0:0:
492,231,236717,1,0,0:0:0:0:
200,88,236859,5,2,0:0:0:0:
231,252,237002,1,0,0:0:0:0:
370,174,237145,1,8,0:0:0:0:
276,375,237288,1,0,0:0:0:0:
142,210,237431,1,2,0:0:0:0:
312,296,237574,1,2,0:1:0:0:
321,84,237716,1,10,0:1:0:0:
231,252,237859,1,2,0:1:0:0:
434,353,238002,5,6,0:0:0:0:
492,231,238145,1,0,0:0:0:0:
370,174,238288,1,8,0:0:0:0:
312,296,238431,1,0,0:0:0:0:
20,153,238574,5,2,0:0:0:0:
78,31,238717,1,2,0:0:0:0:
200,88,238860,1,8,0:0:0:0:
142,210,239003,1,0,0:0:0:0:
113,118,239145,5,2,0:0:0:0:
404,261,239288,1,0,0:0:0:0:
113,118,239431,1,8,0:0:0:0:
404,261,239574,1,0,0:0:0:0:
113,118,239716,1,2,0:0:0:0:
425,69,239859,5,2,0:1:0:0:
142,210,240002,1,10,0:1:0:0:
434,353,240145,1,2,0:1:0:0:
370,174,240288,5,6,0:0:0:0:
312,296,240431,1,0,0:0:0:0:
492,231,240574,1,8,0:0:0:0:
434,353,240717,1,0,0:0:0:0:
200,88,240859,5,2,0:0:0:0:
142,210,241002,1,2,0:0:0:0:
78,31,241145,1,8,0:0:0:0:
20,153,241288,1,0,0:0:0:0:
277,20,241431,5,2,0:0:0:0:
113,118,241574,1,0,0:0:0:0:
370,174,241716,1,8,0:0:0:0:
142,210,241859,1,0,0:0:0:0:
266,368,242002,1,2,0:0:0:0:
227,172,242145,1,2,0:0:0:0:
130,376,242288,1,8,0:0:0:0:
374,315,242431,1,2,0:0:0:0:
391,311,242716,5,6,1:0:0:0:
165,211,242859,2,0,P|123:195|78:191,1,90,2|0,1:0|0:0,0:0:0:0:
101,280,243145,5,6,1:0:0:0:
337,156,243288,2,0,P|378:140|423:136,1,90,6|0,1:0|0:0,0:0:0:0:
406,225,243574,5,6,1:0:0:0:
140,124,243717,2,0,P|98:108|53:104,1,90,2|0,1:0|0:0,0:0:0:0:
78,190,244002,5,6,1:0:0:0:
353,67,244145,2,0,P|394:51|439:47,1,90,2|0,1:0|0:0,0:0:0:0:
423,136,244431,5,6,1:0:0:0:
120,26,244574,1,2,1:0:0:0:
256,228,244859,5,4,0:1:0:0:
256,192,244931,12,2,253859,0:0:0:0:
