osu file format v14

[General]
AudioFilename: audio.mp3
AudioLeadIn: 0
PreviewTime: 60628
Countdown: 0
SampleSet: Normal
StackLeniency: 0.7
Mode: 1
LetterboxInBreaks: 0
WidescreenStoryboard: 1

[Editor]
Bookmarks: 25868,37365,61796,89101,106347
DistanceSpacing: 1.2
BeatDivisor: 4
GridSize: 4
TimelineZoom: 2.2

[Metadata]
Title:Skyclad no Kansokusha (Short Ver.)
TitleUnicode:スカイクラッドの観測者 (Short Ver.)
Artist:Ito Kanako
ArtistUnicode:いとうかなこ
Creator:radar
Version:liku's Muzukashii
Source:シュタインズ・ゲート
Tags:liku heavenly moon ginjani ryxliee Itō itou video game pop jpop j-pop japanese Steins;Gate visual novel anime ending 23 5pb. Nitroplus opening chaosattractor chaos attractor observer 志倉千代丸 Chiyomaru Shikura 磯江俊道 Toshimichi Isoe
BeatmapID:3783053
BeatmapSetID:1801231

[Difficulty]
HPDrainRate:6
CircleSize:5
OverallDifficulty:4
ApproachRate:5
SliderMultiplier:1.4
SliderTickRate:1

[Events]
//Background and Video events
0,0,"raw (1).png",0,90
//Break Periods
//Storyboard Layer 0 (Background)
//Storyboard Layer 1 (Fail)
//Storyboard Layer 2 (Pass)
//Storyboard Layer 3 (Foreground)
//Storyboard Layer 4 (Overlay)
//Storyboard Sound Samples

[TimingPoints]
2874,359.281437125748,4,1,0,80,1,0
2874,-125,4,1,0,80,0,0
31257,-111.111111111111,4,1,0,80,0,0
36823,-114.285714285714,4,1,0,80,0,0
37002,-115.380498769132,4,1,0,80,0,0
37182,-116.502755862963,4,1,0,80,0,0
37362,-117.647058823529,4,1,0,80,0,0
48320,-114.285714285714,4,1,0,80,0,0
48499,-113.211510186936,4,1,0,80,0,0
48679,-112.151477320017,4,1,0,80,0,0
48859,-111.111111111111,4,1,0,80,0,0
53350,-111.111111111111,4,1,0,80,0,0
53709,-107.693625771076,4,1,0,80,0,0
53888,-106.066998565522,4,1,0,80,0,0
54068,-104.480093092843,4,1,0,80,0,0
54248,-102.939972156253,4,1,0,80,0,0
54427,-101.452784503632,4,1,0,80,0,0
54517,-100.721153846154,4,1,0,80,0,0
54607,-100,4,1,0,80,0,0
61074,-98.0370774263904,4,1,0,80,0,0
61314,-95.5366631243358,4,1,0,80,0,0
61553,-93.1702767126127,4,1,0,80,0,0
61796,-90.9090909090909,4,1,0,80,0,1
86227,-90.9090909090909,4,1,0,80,0,0
87664,-90.9090909090909,4,1,0,80,0,1
88921,-90.9090909090909,4,1,0,80,0,0
89199,-100,4,1,0,80,0,0

[HitObjects]
294,196,25868,5,8,0:0:0:0:
294,196,26227,1,0,0:0:0:0:
188,131,26406,1,8,0:0:0:0:
223,90,26766,1,8,0:0:0:0:
213,98,27125,1,0,0:0:0:0:
213,98,27484,1,0,0:0:0:0:
199,84,27844,1,8,0:0:0:0:
198,84,28203,1,0,0:0:0:0:
198,84,28382,1,8,0:0:0:0:
199,84,28742,1,0,0:0:0:0:
198,84,29101,1,8,0:0:0:0:
198,84,29281,1,8,0:0:0:0:
199,84,29640,1,0,0:0:0:0:
208,76,29999,1,8,0:0:0:0:
204,75,30179,1,8,0:0:0:0:
190,68,30359,1,0,0:0:0:0:
190,68,30538,1,0,0:0:0:0:
175,66,30718,1,8,0:0:0:0:
220,111,31616,1,4,0:0:0:0:
163,144,31975,1,8,0:0:0:0:
157,147,32155,1,8,0:0:0:0:
317,135,32335,1,0,0:0:0:0:
150,146,32514,1,8,0:0:0:0:
95,110,32694,1,0,0:0:0:0:
95,110,32873,1,8,0:0:0:0:
166,93,33233,1,0,0:0:0:0:
166,93,33412,1,8,0:0:0:0:
161,93,33592,1,8,0:0:0:0:
317,135,33772,1,0,0:0:0:0:
176,82,33951,1,8,0:0:0:0:
176,82,34041,1,8,0:0:0:0:
176,82,34131,1,8,0:0:0:0:
317,135,34490,1,12,0:0:0:0:
219,143,34670,1,0,0:0:0:0:
317,135,34850,1,0,0:0:0:0:
173,66,35029,1,12,0:0:0:0:
186,132,35388,1,0,0:0:0:0:
165,133,35568,1,8,0:0:0:0:
165,133,35748,1,4,0:0:0:0:
161,108,36107,1,0,0:0:0:0:
159,110,36287,1,8,0:0:0:0:
136,106,36826,1,8,0:0:0:0:
135,107,37005,1,8,0:0:0:0:
128,110,37185,1,8,0:0:0:0:
121,111,37365,1,4,0:0:0:0:
151,155,37724,1,0,0:0:0:0:
87,133,37903,1,0,0:0:0:0:
75,142,38083,1,8,0:0:0:0:
75,142,38263,1,8,0:0:0:0:
172,50,38622,1,0,0:0:0:0:
63,158,38802,1,0,0:0:0:0:
62,158,38981,1,8,0:0:0:0:
141,158,39161,1,0,0:0:0:0:
155,30,39341,1,8,0:0:0:0:
204,27,39700,1,8,0:0:0:0:
204,27,39879,1,8,0:0:0:0:
141,158,40239,1,0,0:0:0:0:
150,89,40598,1,8,0:0:0:0:
132,89,40778,1,0,0:0:0:0:
150,89,40957,1,8,0:0:0:0:
150,89,41137,1,0,0:0:0:0:
103,69,41496,1,8,0:0:0:0:
89,64,41676,1,8,0:0:0:0:
143,21,41856,1,0,0:0:0:0:
123,58,42394,1,8,0:0:0:0:
94,59,42574,1,0,0:0:0:0:
94,59,42754,1,8,0:0:0:0:
205,62,42933,1,0,0:0:0:0:
205,62,43023,1,0,0:0:0:0:
141,158,43113,1,0,0:0:0:0:
86,126,43293,1,0,0:0:0:0:
141,158,43472,1,8,0:0:0:0:
141,158,43832,1,8,0:0:0:0:
141,158,44191,1,0,0:0:0:0:
92,162,44371,1,8,0:0:0:0:
135,158,44550,1,0,0:0:0:0:
19,77,44730,1,0,0:0:0:0:
134,158,44909,1,0,0:0:0:0:
150,78,45089,1,8,0:0:0:0:
152,66,45448,5,0,0:0:0:0:
148,66,45628,1,8,0:0:0:0:
135,158,45987,1,4,0:0:0:0:
126,158,46347,1,0,0:0:0:0:
106,64,46526,1,0,0:0:0:0:
106,64,46706,1,8,0:0:0:0:
106,64,46885,1,8,0:0:0:0:
126,158,47065,1,0,0:0:0:0:
127,29,47245,1,8,0:0:0:0:
193,78,47424,1,0,0:0:0:0:
126,158,47784,1,0,0:0:0:0:
68,115,48323,1,8,0:0:0:0:
126,158,48502,1,0,0:0:0:0:
81,81,48682,1,8,0:0:0:0:
105,129,48862,1,4,0:0:0:0:
133,161,49221,1,0,0:0:0:0:
120,124,49400,1,0,0:0:0:0:
124,133,49580,1,8,0:0:0:0:
124,132,49760,1,8,0:0:0:0:
92,82,50119,1,0,0:0:0:0:
92,82,50299,1,8,0:0:0:0:
76,93,50478,1,0,0:0:0:0:
133,161,50658,1,8,0:0:0:0:
132,161,50838,1,8,0:0:0:0:
154,142,51197,1,8,0:0:0:0:
150,161,51736,1,0,0:0:0:0:
150,161,52095,1,0,0:0:0:0:
56,131,52275,1,0,0:0:0:0:
56,131,52454,1,8,0:0:0:0:
56,131,52634,1,8,0:0:0:0:
11,175,52993,1,0,0:0:0:0:
150,161,53173,1,8,0:0:0:0:
150,161,53353,1,0,0:0:0:0:
82,129,53712,1,0,0:0:0:0:
75,130,53891,1,8,0:0:0:0:
75,130,54071,1,0,0:0:0:0:
73,131,54251,1,8,0:0:0:0:
87,119,54430,1,0,0:0:0:0:
87,119,54520,1,0,0:0:0:0:
87,119,54610,1,0,0:0:0:0:
294,171,54969,1,8,0:0:0:0:
177,144,55149,1,0,0:0:0:0:
162,144,55239,1,0,0:0:0:0:
172,144,55329,1,0,0:0:0:0:
261,71,55508,1,8,0:0:0:0:
150,161,55688,1,0,0:0:0:0:
230,68,55868,1,0,0:0:0:0:
150,161,56047,1,12,0:0:0:0:
147,67,56406,1,8,0:0:0:0:
186,67,56676,1,0,0:0:0:0:
150,161,56766,1,0,0:0:0:0:
154,104,56945,1,0,0:0:0:0:
150,161,57125,1,8,0:0:0:0:
150,161,57484,1,12,0:0:0:0:
106,151,57664,1,0,0:0:0:0:
106,151,57844,1,0,0:0:0:0:
106,151,58023,1,12,0:0:0:0:
122,78,58382,1,0,0:0:0:0:
122,78,58562,1,12,0:0:0:0:
208,75,58742,1,0,0:0:0:0:
56,149,58921,1,0,0:0:0:0:
101,97,59101,1,12,0:0:0:0:
191,93,59281,1,0,0:0:0:0:
191,94,59460,1,0,0:0:0:0:
191,94,59640,1,12,0:0:0:0:
191,93,59820,1,0,0:0:0:0:
191,93,59999,1,12,0:0:0:0:
191,93,60179,1,12,0:0:0:0:
140,135,60897,1,0,0:0:0:0:
157,142,61077,1,8,0:0:0:0:
157,142,61317,1,8,0:0:0:0:
159,126,61556,1,8,0:0:0:0:
159,126,61796,1,4,0:0:0:0:
134,187,61975,1,0,0:0:0:0:
134,187,62065,1,0,0:0:0:0:
134,187,62155,1,0,0:0:0:0:
134,187,62335,1,8,0:0:0:0:
103,60,62694,1,0,0:0:0:0:
98,62,62873,1,8,0:0:0:0:
97,62,63053,1,8,0:0:0:0:
97,62,63233,1,0,0:0:0:0:
95,63,63323,1,0,0:0:0:0:
97,62,63412,1,0,0:0:0:0:
95,63,63592,1,8,0:0:0:0:
98,62,63772,1,0,0:0:0:0:
97,62,63951,1,8,0:0:0:0:
97,62,64041,1,8,0:0:0:0:
89,64,64131,1,8,0:0:0:0:
134,112,64311,1,8,0:0:0:0:
79,66,64670,1,0,0:0:0:0:
86,95,65029,1,8,0:0:0:0:
154,55,65388,1,0,0:0:0:0:
154,55,65478,1,0,0:0:0:0:
154,55,65568,1,0,0:0:0:0:
119,55,65748,1,8,0:0:0:0:
119,55,65927,1,8,0:0:0:0:
119,55,66287,1,0,0:0:0:0:
115,71,66466,1,8,0:0:0:0:
114,71,66646,1,0,0:0:0:0:
114,71,66736,1,0,0:0:0:0:
110,71,66826,1,0,0:0:0:0:
109,72,67005,1,8,0:0:0:0:
109,72,67185,1,8,0:0:0:0:
90,74,67544,1,4,0:0:0:0:
90,74,67903,1,8,0:0:0:0:
88,74,68173,1,0,0:0:0:0:
90,74,68263,1,0,0:0:0:0:
90,74,68442,1,8,0:0:0:0:
90,74,68622,1,0,0:0:0:0:
90,74,68802,1,8,0:0:0:0:
194,72,68981,1,0,0:0:0:0:
88,74,69161,1,0,0:0:0:0:
81,75,69341,1,8,0:0:0:0:
86,83,69520,1,0,0:0:0:0:
68,84,69879,1,8,0:0:0:0:
62,85,69968,1,8,0:0:0:0:
77,113,70059,1,8,0:0:0:0:
42,113,70239,1,8,0:0:0:0:
42,113,70418,1,0,0:0:0:0:
32,102,70598,1,0,0:0:0:0:
31,102,70778,1,8,0:0:0:0:
14,104,71137,1,0,0:0:0:0:
32,102,71496,1,8,0:0:0:0:
32,103,71856,1,0,0:0:0:0:
28,103,72035,1,8,0:0:0:0:
28,103,72125,1,8,0:0:0:0:
25,104,72215,1,8,0:0:0:0:
22,104,72394,1,8,0:0:0:0:
21,104,72574,1,0,0:0:0:0:
20,104,72664,1,0,0:0:0:0:
20,104,72754,1,0,0:0:0:0:
20,104,72933,1,8,0:0:0:0:
22,104,73293,1,4,0:0:0:0:
112,88,73652,1,8,0:0:0:0:
98,88,73832,1,8,0:0:0:0:
58,89,74191,1,0,0:0:0:0:
49,93,74371,1,8,0:0:0:0:
47,93,74550,1,8,0:0:0:0:
46,93,74730,1,0,0:0:0:0:
44,94,74820,1,0,0:0:0:0:
41,95,74909,1,0,0:0:0:0:
39,95,75089,1,8,0:0:0:0:
39,95,75269,1,0,0:0:0:0:
33,95,75448,1,8,0:0:0:0:
32,97,75538,1,8,0:0:0:0:
37,95,75628,1,8,0:0:0:0:
30,97,75808,1,8,0:0:0:0:
29,97,76167,1,0,0:0:0:0:
26,97,76526,1,8,0:0:0:0:
29,97,76885,1,0,0:0:0:0:
85,140,76975,1,0,0:0:0:0:
8,99,77065,1,0,0:0:0:0:
129,138,77245,1,8,0:0:0:0:
129,138,77424,1,8,0:0:0:0:
129,138,77514,1,8,0:0:0:0:
129,138,77604,1,8,0:0:0:0:
85,140,77784,1,0,0:0:0:0:
85,140,77963,1,8,0:0:0:0:
85,140,78143,1,0,0:0:0:0:
85,140,78233,1,0,0:0:0:0:
85,140,78323,1,0,0:0:0:0:
139,49,78502,1,8,0:0:0:0:
82,115,79041,1,4,0:0:0:0:
153,29,79221,1,0,0:0:0:0:
74,114,79400,1,8,0:0:0:0:
105,127,79580,1,0,0:0:0:0:
102,131,79670,1,0,0:0:0:0:
127,120,79760,1,0,0:0:0:0:
68,94,79939,1,8,0:0:0:0:
32,100,80299,1,8,0:0:0:0:
31,100,80478,1,0,0:0:0:0:
154,62,80658,1,0,0:0:0:0:
160,62,80838,1,8,0:0:0:0:
139,100,81017,1,8,0:0:0:0:
139,100,81107,1,8,0:0:0:0:
139,100,81197,1,8,0:0:0:0:
139,100,81376,1,0,0:0:0:0:
139,100,81556,1,8,0:0:0:0:
146,99,81915,1,4,0:0:0:0:
146,99,82275,1,8,0:0:0:0:
146,99,82454,1,0,0:0:0:0:
146,99,82544,1,0,0:0:0:0:
146,99,82634,1,0,0:0:0:0:
146,99,82814,1,0,0:0:0:0:
146,99,82993,1,8,0:0:0:0:
185,132,83173,1,8,0:0:0:0:
232,117,83353,1,0,0:0:0:0:
121,126,83712,1,0,0:0:0:0:
197,91,83891,1,8,0:0:0:0:
197,91,83981,1,8,0:0:0:0:
232,117,84161,1,0,0:0:0:0:
172,135,84251,1,0,0:0:0:0:
232,117,84430,1,8,0:0:0:0:
232,117,84790,1,0,0:0:0:0:
135,93,85149,1,12,0:0:0:0:
135,93,85329,1,8,0:0:0:0:
232,117,85508,1,0,0:0:0:0:
138,54,85688,1,0,0:0:0:0:
138,54,85868,1,8,0:0:0:0:
138,54,85957,1,8,0:0:0:0:
138,54,86047,1,8,0:0:0:0:
90,126,86227,5,4,0:0:0:0:
141,104,87664,1,12,0:0:0:0:
141,104,87844,1,0,0:0:0:0:
141,104,88023,1,0,0:0:0:0:
141,104,88203,1,12,0:0:0:0:
64,155,88562,1,0,0:0:0:0:
64,155,88742,1,12,0:0:0:0:
64,155,88921,1,12,0:0:0:0:
74,138,89460,1,8,0:0:0:0:
52,152,89730,1,0,0:0:0:0:
73,139,89820,1,0,0:0:0:0:
127,83,89999,1,8,0:0:0:0:
74,138,90179,1,8,0:0:0:0:
73,139,90538,1,0,0:0:0:0:
73,139,90628,1,0,0:0:0:0:
54,153,90718,1,0,0:0:0:0:
54,153,90897,1,8,0:0:0:0:
53,153,91077,1,8,0:0:0:0:
52,153,91257,1,0,0:0:0:0:
52,153,91347,1,0,0:0:0:0:
52,153,91436,1,0,0:0:0:0:
52,153,91616,1,8,0:0:0:0:
53,153,91975,1,0,0:0:0:0:
126,82,92335,1,8,0:0:0:0:
126,82,92604,1,0,0:0:0:0:
126,82,92694,1,0,0:0:0:0:
126,82,92873,1,0,0:0:0:0:
118,82,93053,1,8,0:0:0:0:
153,81,93412,1,0,0:0:0:0:
151,85,93592,1,0,0:0:0:0:
153,81,93772,1,8,0:0:0:0:
153,81,93951,1,8,0:0:0:0:
153,81,94131,1,0,0:0:0:0:
148,89,94311,1,0,0:0:0:0:
148,89,94490,1,12,0:0:0:0:
148,89,94850,1,4,0:0:0:0:
148,89,95209,1,8,0:0:0:0:
148,89,95478,1,0,0:0:0:0:
148,89,95568,1,0,0:0:0:0:
148,89,95748,1,8,0:0:0:0:
148,89,95927,1,8,0:0:0:0:
148,89,96287,1,0,0:0:0:0:
148,89,96376,1,0,0:0:0:0:
148,89,96466,1,0,0:0:0:0:
134,104,96646,1,8,0:0:0:0:
132,104,96826,1,8,0:0:0:0:
132,104,97005,1,0,0:0:0:0:
117,104,97095,1,0,0:0:0:0:
132,104,97185,1,0,0:0:0:0:
117,104,97365,1,8,0:0:0:0:
117,104,97724,1,0,0:0:0:0:
117,104,98083,1,8,0:0:0:0:
203,151,98442,1,0,0:0:0:0:
203,151,98622,1,0,0:0:0:0:
203,151,98802,1,8,0:0:0:0:
178,140,99161,1,0,0:0:0:0:
181,100,99520,1,12,0:0:0:0:
181,100,99790,1,0,0:0:0:0:
181,100,99879,1,0,0:0:0:0:
181,100,100059,1,0,0:0:0:0:
177,104,100239,1,8,0:0:0:0:
155,85,100329,1,8,0:0:0:0:
177,104,100418,1,8,0:0:0:0:
177,104,100598,1,4,0:0:0:0:
103,80,101317,1,0,0:0:0:0:
103,80,101496,1,0,0:0:0:0:
103,80,101676,1,8,0:0:0:0:
103,80,101856,1,8,0:0:0:0:
103,80,102035,1,0,0:0:0:0:
103,80,102125,1,0,0:0:0:0:
103,80,102215,1,0,0:0:0:0:
103,80,102394,1,8,0:0:0:0:
77,78,102754,1,8,0:0:0:0:
77,78,102844,1,8,0:0:0:0:
77,78,102933,1,8,0:0:0:0:
77,78,103113,1,0,0:0:0:0:
77,78,103472,1,0,0:0:0:0:
77,78,103832,1,8,0:0:0:0:
77,78,104101,1,0,0:0:0:0:
77,78,104191,1,0,0:0:0:0:
72,80,104371,1,0,0:0:0:0:
72,80,104550,1,8,0:0:0:0:
71,80,104909,1,0,0:0:0:0:
71,80,105089,1,0,0:0:0:0:
72,80,105269,5,12,0:0:0:0:
72,80,105448,1,8,0:0:0:0:
72,80,105628,1,0,0:0:0:0:
71,80,105718,1,0,0:0:0:0:
108,153,105808,1,0,0:0:0:0:
108,153,105987,1,12,0:0:0:0:
131,191,106347,5,4,0:0:0:0:
256,192,106526,12,0,112095,0:0:0:0:
