osu file format v14

[General]
AudioFilename: audio.mp3
AudioLeadIn: 0
PreviewTime: 60628
Countdown: 0
SampleSet: Normal
StackLeniency: 0.7
Mode: 1
LetterboxInBreaks: 0
WidescreenStoryboard: 1

[Editor]
Bookmarks: 25868,37365,43113,48862,54610,60359,61796,67544,73293,79041,84790,90538,96287,102035,106347
DistanceSpacing: 1.2
BeatDivisor: 4
GridSize: 32
TimelineZoom: 2.2

[Metadata]
Title:Skyclad no Kansokusha (Short Ver.)
TitleUnicode:スカイクラッドの観測者 (Short Ver.)
Artist:Ito Kanako
ArtistUnicode:いとうかなこ
Creator:radar
Version:Ryxliee's Futsuu
Source:シュタインズ・ゲート
Tags:liku heavenly moon ginjani ryxliee Itō itou video game pop jpop j-pop japanese Steins;Gate visual novel anime ending 23 5pb. Nitroplus opening chaosattractor chaos attractor observer 志倉千代丸 Chiyomaru Shikura 磯江俊道 Toshimichi Isoe
BeatmapID:3711691
BeatmapSetID:1801231

[Difficulty]
HPDrainRate:7
CircleSize:2
OverallDifficulty:3
ApproachRate:9
SliderMultiplier:1.4
SliderTickRate:1

[Events]
//Background and Video events
0,0,"raw (1).png",0,90
//Break Periods
//Storyboard Layer 0 (Background)
//Storyboard Layer 1 (Fail)
//Storyboard Layer 2 (Pass)
//Storyboard Layer 3 (Foreground)
//Storyboard Layer 4 (Overlay)
//Storyboard Sound Samples

[TimingPoints]
2874,359.281437125748,4,1,0,80,1,0
61796,-100,4,1,0,80,0,1
86227,-100,4,1,0,80,0,0
87664,-100,4,1,0,80,0,1
88921,-100,4,1,0,80,0,0

[HitObjects]
256,192,25868,5,0,0:0:0:0:
256,192,26227,1,0,0:0:0:0:
256,192,26406,1,8,0:0:0:0:
256,192,26766,1,8,0:0:0:0:
256,192,27125,1,0,0:0:0:0:
256,192,27844,1,8,0:0:0:0:
256,192,28203,1,0,0:0:0:0:
256,192,28382,1,0,0:0:0:0:
256,192,28742,1,8,0:0:0:0:
256,192,29101,1,8,0:0:0:0:
256,192,29281,1,0,0:0:0:0:
256,192,29999,1,0,0:0:0:0:
256,192,30179,1,8,0:0:0:0:
256,192,30538,1,8,0:0:0:0:
256,192,30718,1,8,0:0:0:0:
256,192,31616,1,4,0:0:0:0:
256,192,31975,1,8,0:0:0:0:
256,192,32155,1,0,0:0:0:0:
256,192,32514,1,0,0:0:0:0:
256,192,32873,1,8,0:0:0:0:
256,192,33233,1,8,0:0:0:0:
256,192,33592,1,0,0:0:0:0:
256,192,33951,1,0,0:0:0:0:
256,192,34131,1,8,0:0:0:0:
256,192,34490,1,12,0:0:0:0:
256,192,34670,1,0,0:0:0:0:
256,192,34850,1,0,0:0:0:0:
256,192,35029,1,12,0:0:0:0:
256,192,35388,1,0,0:0:0:0:
256,192,35568,1,0,0:0:0:0:
256,192,35748,1,12,0:0:0:0:
256,192,36107,1,0,0:0:0:0:
256,192,36287,1,0,0:0:0:0:
256,192,36646,1,0,0:0:0:0:
256,192,37365,1,12,0:0:0:0:
256,192,37724,1,0,0:0:0:0:
256,192,37903,1,0,0:0:0:0:
256,192,38083,1,8,0:0:0:0:
256,192,38263,1,8,0:0:0:0:
256,192,38622,1,8,0:0:0:0:
256,192,38981,1,0,0:0:0:0:
256,192,39161,1,0,0:0:0:0:
256,192,39341,1,8,0:0:0:0:
256,192,39700,1,0,0:0:0:0:
256,192,39879,1,8,0:0:0:0:
256,192,40239,1,0,0:0:0:0:
256,192,40418,1,8,0:0:0:0:
256,192,40598,1,0,0:0:0:0:
256,192,40957,1,8,0:0:0:0:
256,192,41137,1,8,0:0:0:0:
256,192,41496,1,0,0:0:0:0:
256,192,42215,1,0,0:0:0:0:
256,192,42574,1,0,0:0:0:0:
256,192,42754,1,8,0:0:0:0:
256,192,43113,1,0,0:0:0:0:
256,192,43472,1,0,0:0:0:0:
256,192,43832,1,8,0:0:0:0:
256,192,44011,1,8,0:0:0:0:
256,192,44371,1,0,0:0:0:0:
256,192,44550,1,8,0:0:0:0:
256,192,44909,1,0,0:0:0:0:
256,192,45089,1,0,0:0:0:0:
256,192,45269,1,8,0:0:0:0:
256,192,45628,1,8,0:0:0:0:
256,192,45808,1,8,0:0:0:0:
256,192,45987,1,0,0:0:0:0:
256,192,46347,1,0,0:0:0:0:
256,192,46706,1,8,0:0:0:0:
256,192,46885,1,0,0:0:0:0:
256,192,47065,1,0,0:0:0:0:
256,192,47424,1,8,0:0:0:0:
256,192,48143,1,8,0:0:0:0:
256,192,48322,1,4,0:0:0:0:
256,192,48502,1,4,0:0:0:0:
256,192,48862,1,12,0:0:0:0:
256,192,49221,1,0,0:0:0:0:
256,192,49400,1,0,0:0:0:0:
256,192,49580,1,8,0:0:0:0:
256,192,49760,1,0,0:0:0:0:
256,192,50119,1,8,0:0:0:0:
256,192,50478,1,0,0:0:0:0:
256,192,50658,1,8,0:0:0:0:
256,192,50838,1,8,0:0:0:0:
256,192,51197,1,8,0:0:0:0:
256,192,51376,1,0,0:0:0:0:
256,192,51736,1,0,0:0:0:0:
256,192,51915,1,8,0:0:0:0:
256,192,52095,1,0,0:0:0:0:
256,192,52275,1,0,0:0:0:0:
256,192,52634,1,8,0:0:0:0:
256,192,52993,1,0,0:0:0:0:
256,192,53712,1,0,0:0:0:0:
256,192,54071,1,0,0:0:0:0:
256,192,54251,1,8,0:0:0:0:
256,192,54610,1,0,0:0:0:0:
256,192,54969,1,8,0:0:0:0:
256,192,55149,1,0,0:0:0:0:
256,192,55508,1,0,0:0:0:0:
256,192,55688,1,8,0:0:0:0:
256,192,55868,1,0,0:0:0:0:
256,192,56047,1,12,0:0:0:0:
256,192,56406,1,8,0:0:0:0:
256,192,56586,1,8,0:0:0:0:
256,192,56766,1,0,0:0:0:0:
256,192,56945,1,0,0:0:0:0:
256,192,57125,1,8,0:0:0:0:
256,192,57484,1,12,0:0:0:0:
256,192,57664,1,0,0:0:0:0:
256,192,58023,1,12,0:0:0:0:
256,192,58203,1,0,0:0:0:0:
256,192,58562,1,12,0:0:0:0:
256,192,58742,1,0,0:0:0:0:
256,192,59101,1,12,0:0:0:0:
256,192,59281,1,0,0:0:0:0:
256,192,59640,1,12,0:0:0:0:
256,192,59999,1,12,0:0:0:0:
256,192,60179,1,12,0:0:0:0:
256,192,61077,1,0,0:0:0:0:
256,192,61796,1,12,0:0:0:0:
256,192,62155,1,8,0:0:0:0:
256,192,62335,1,0,0:0:0:0:
256,192,62694,1,0,0:0:0:0:
256,192,62873,1,8,0:0:0:0:
256,192,63233,1,8,0:0:0:0:
256,192,63413,1,8,0:0:0:0:
256,192,63593,1,0,0:0:0:0:
256,192,63772,1,0,0:0:0:0:
256,192,63951,1,8,0:0:0:0:
256,192,64131,1,0,0:0:0:0:
256,192,64490,1,0,0:0:0:0:
256,192,64670,1,8,0:0:0:0:
256,192,65029,1,8,0:0:0:0:
256,192,65388,1,0,0:0:0:0:
256,192,65568,1,8,0:0:0:0:
256,192,65748,1,8,0:0:0:0:
256,192,65927,1,0,0:0:0:0:
256,192,66287,1,0,0:0:0:0:
256,192,67005,1,0,0:0:0:0:
256,192,67185,1,8,0:0:0:0:
256,192,67544,1,4,0:0:0:0:
256,192,67903,1,8,0:0:0:0:
256,192,68263,1,0,0:0:0:0:
256,192,68442,1,0,0:0:0:0:
256,192,68802,1,0,0:0:0:0:
256,192,68981,1,8,0:0:0:0:
256,192,69161,1,0,0:0:0:0:
256,192,69519,1,8,0:0:0:0:
256,192,69879,1,8,0:0:0:0:
256,192,70239,1,0,0:0:0:0:
256,192,70418,1,0,0:0:0:0:
256,192,70598,1,8,0:0:0:0:
256,192,70778,1,0,0:0:0:0:
256,192,71496,1,8,0:0:0:0:
256,192,71856,1,8,0:0:0:0:
256,192,72035,1,0,0:0:0:0:
256,192,72394,1,8,0:0:0:0:
256,192,72574,1,0,0:0:0:0:
256,192,72754,1,0,0:0:0:0:
256,192,72933,1,8,0:0:0:0:
256,192,73293,1,12,0:0:0:0:
256,192,73652,1,8,0:0:0:0:
256,192,73832,1,0,0:0:0:0:
256,192,74191,1,0,0:0:0:0:
256,192,74371,1,8,0:0:0:0:
256,192,74730,1,8,0:0:0:0:
256,192,74909,1,8,0:0:0:0:
256,192,75089,1,0,0:0:0:0:
256,192,75269,1,0,0:0:0:0:
256,192,75448,1,8,0:0:0:0:
256,192,75628,1,0,0:0:0:0:
256,192,75987,1,8,0:0:0:0:
256,192,76167,1,0,0:0:0:0:
256,192,76526,1,0,0:0:0:0:
256,192,76885,1,8,0:0:0:0:
256,192,77065,1,8,0:0:0:0:
256,192,77245,1,0,0:0:0:0:
256,192,77424,1,8,0:0:0:0:
256,192,77784,1,8,0:0:0:0:
256,192,78502,1,0,0:0:0:0:
256,192,78682,1,8,0:0:0:0:
256,192,79041,1,12,0:0:0:0:
256,192,79400,1,8,0:0:0:0:
256,192,79580,1,0,0:0:0:0:
256,192,79939,1,8,0:0:0:0:
256,192,80299,1,0,0:0:0:0:
256,192,80478,1,8,0:0:0:0:
256,192,80838,1,8,0:0:0:0:
256,192,81197,1,8,0:0:0:0:
256,192,81376,1,8,0:0:0:0:
256,192,81556,1,0,0:0:0:0:
256,192,81915,1,12,0:0:0:0:
256,192,82275,1,8,0:0:0:0:
256,192,82454,1,0,0:0:0:0:
256,192,82634,1,0,0:0:0:0:
256,192,83353,1,0,0:0:0:0:
256,192,83712,1,8,0:0:0:0:
256,192,84071,1,0,0:0:0:0:
256,192,84251,1,0,0:0:0:0:
256,192,84430,1,8,0:0:0:0:
256,192,84610,1,8,0:0:0:0:
256,192,84790,1,0,0:0:0:0:
256,192,85149,1,12,0:0:0:0:
256,192,85329,1,0,0:0:0:0:
256,192,85688,1,0,0:0:0:0:
256,192,85868,1,12,0:0:0:0:
256,192,86047,1,0,0:0:0:0:
256,192,86227,1,12,0:0:0:0:
256,192,86945,1,0,0:0:0:0:
256,192,87664,1,12,0:0:0:0:
256,192,87844,1,0,0:0:0:0:
256,192,88023,1,0,0:0:0:0:
256,192,88203,1,12,0:0:0:0:
256,192,88562,1,0,0:0:0:0:
256,192,88742,1,8,0:0:0:0:
256,192,88921,1,4,0:0:0:0:
256,192,89460,1,0,0:0:0:0:
256,192,89820,1,8,0:0:0:0:
256,192,89999,1,0,0:0:0:0:
256,192,90359,1,0,0:0:0:0:
256,192,90538,1,8,0:0:0:0:
256,192,90718,1,0,0:0:0:0:
256,192,91077,1,0,0:0:0:0:
256,192,91975,1,0,0:0:0:0:
256,192,92694,1,8,0:0:0:0:
256,192,92873,1,0,0:0:0:0:
256,192,93233,1,0,0:0:0:0:
256,192,93592,1,0,0:0:0:0:
256,192,93951,1,0,0:0:0:0:
256,192,94311,1,0,0:0:0:0:
256,192,94490,1,12,0:0:0:0:
256,192,94850,1,12,0:0:0:0:
256,192,95568,1,8,0:0:0:0:
256,192,95747,1,0,0:0:0:0:
256,192,96107,1,0,0:0:0:0:
256,192,96466,1,0,0:0:0:0:
256,192,96825,1,0,0:0:0:0:
256,192,97724,1,0,0:0:0:0:
256,192,98442,1,8,0:0:0:0:
256,192,98622,1,0,0:0:0:0:
256,192,98981,1,0,0:0:0:0:
256,192,99341,1,0,0:0:0:0:
256,192,99520,1,12,0:0:0:0:
256,192,99700,1,0,0:0:0:0:
256,192,100059,1,0,0:0:0:0:
256,192,100239,1,12,0:0:0:0:
256,192,100598,1,12,0:0:0:0:
256,192,101317,1,8,0:0:0:0:
256,192,101496,1,0,0:0:0:0:
256,192,101856,1,0,0:0:0:0:
256,192,102215,1,0,0:0:0:0:
256,192,102574,1,0,0:0:0:0:
256,192,103472,1,0,0:0:0:0:
256,192,104191,1,8,0:0:0:0:
256,192,104371,1,0,0:0:0:0:
256,192,104730,1,0,0:0:0:0:
256,192,105089,1,0,0:0:0:0:
256,192,105269,1,12,0:0:0:0:
256,192,105448,1,0,0:0:0:0:
256,192,105808,1,0,0:0:0:0:
256,192,105987,1,12,0:0:0:0:
256,192,106347,1,4,0:0:0:0:
