osu file format v14

[General]
AudioFilename: audio.mp3
AudioLeadIn: 0
PreviewTime: 60628
Countdown: 0
SampleSet: Normal
StackLeniency: 0.7
Mode: 1
LetterboxInBreaks: 0
WidescreenStoryboard: 1

[Editor]
Bookmarks: 25868,31616,37365,43113,48862,54610,60359,61796,67544,73293,79041,84790,90538,96287,102035,106347
DistanceSpacing: 1.2
BeatDivisor: 4
GridSize: 32
TimelineZoom: 2.2

[Metadata]
Title:Skyclad no Kansokusha (Short Ver.)
TitleUnicode:スカイクラッドの観測者 (Short Ver.)
Artist:Ito Kanako
ArtistUnicode:いとうかなこ
Creator:radar
Version:HEAVENLY MOON's Kantan
Source:シュタインズ・ゲート
Tags:liku heavenly moon ginjani ryxliee Itō itou video game pop jpop j-pop japanese Steins;Gate visual novel anime ending 23 5pb. Nitroplus opening chaosattractor chaos attractor observer 志倉千代丸 Chiyomaru Shikura 磯江俊道 Toshimichi Isoe
BeatmapID:3770030
BeatmapSetID:1801231

[Difficulty]
HPDrainRate:8
CircleSize:7
OverallDifficulty:2.5
ApproachRate:10
SliderMultiplier:1.4
SliderTickRate:1

[Events]
//Background and Video events
0,0,"raw (1).png",0,90
//Break Periods
//Storyboard Layer 0 (Background)
//Storyboard Layer 1 (Fail)
//Storyboard Layer 2 (Pass)
//Storyboard Layer 3 (Foreground)
//Storyboard Layer 4 (Overlay)
//Storyboard Sound Samples

[TimingPoints]
2874,359.281437125748,4,1,0,60,1,0
25868,-100,4,1,0,60,0,0
31616,-100,4,1,0,80,0,0
37365,-100,4,1,0,90,0,0
61796,-100,4,1,0,90,0,1
86227,-100,4,1,0,90,0,0
87664,-100,4,1,0,90,0,1
88921,-100,4,1,0,90,0,0
109221,-100,4,1,0,80,0,0

[HitObjects]
256,192,25868,5,2,0:0:0:0:
256,192,26406,1,0,0:0:0:0:
256,192,27125,1,2,0:0:0:0:
256,192,27844,1,2,0:0:0:0:
256,192,28382,1,0,0:0:0:0:
256,192,28742,1,2,0:0:0:0:
256,192,29281,1,2,0:0:0:0:
256,192,30179,1,0,0:0:0:0:
256,192,30718,1,0,0:0:0:0:
256,192,31616,1,6,0:0:0:0:
256,192,32155,1,0,0:0:0:0:
256,192,32873,1,2,0:0:0:0:
256,192,33592,1,2,0:0:0:0:
256,192,34490,1,4,0:0:0:0:
256,192,35029,1,6,0:0:0:0:
256,192,35748,1,6,0:0:0:0:
256,192,36826,1,2,0:0:0:0:
256,192,37365,1,4,0:0:0:0:
256,192,38622,1,2,0:0:0:0:
256,192,38981,1,0,0:0:0:0:
256,192,39341,1,2,0:0:0:0:
256,192,39879,1,2,0:0:0:0:
256,192,40239,1,0,0:0:0:0:
256,192,40598,1,0,0:0:0:0:
256,192,40957,1,2,0:0:0:0:
256,192,41496,1,0,0:0:0:0:
256,192,41856,1,0,0:0:0:0:
256,192,42215,1,2,0:0:0:0:
256,192,43113,1,4,0:0:0:0:
256,192,43472,1,0,0:0:0:0:
256,192,43832,1,2,0:0:0:0:
256,192,44371,1,0,0:0:0:0:
256,192,45089,1,2,0:0:0:0:
256,192,45628,1,2,0:0:0:0:
256,192,45987,1,4,0:0:0:0:
256,192,46706,1,2,0:0:0:0:
256,192,47065,1,2,0:0:0:0:
256,192,47424,1,2,0:0:0:0:
256,192,48323,1,2,0:0:0:0:
256,192,48862,1,4,0:0:0:0:
256,192,50119,1,2,0:0:0:0:
256,192,50478,1,0,0:0:0:0:
256,192,50838,1,0,0:0:0:0:
260,194,51376,1,2,0:0:0:0:
256,192,51736,1,0,0:0:0:0:
256,192,52095,1,2,0:0:0:0:
256,192,52454,1,2,0:0:0:0:
256,192,52993,1,2,0:0:0:0:
256,192,53353,1,0,0:0:0:0:
256,192,53712,1,2,0:0:0:0:
256,192,54610,1,4,0:0:0:0:
256,192,55149,1,2,0:0:0:0:
256,192,55688,1,0,0:0:0:0:
256,192,56047,1,6,0:0:0:0:
256,192,56766,1,0,0:0:0:0:
256,192,57125,1,0,0:0:0:0:
256,192,57484,1,6,0:0:0:0:
256,192,58023,1,6,0:0:0:0:
256,192,58562,1,6,0:0:0:0:
256,192,59101,1,6,0:0:0:0:
256,192,59640,1,6,0:0:0:0:
256,192,59999,1,6,0:0:0:0:
256,193,60359,2,0,B|213:95|213:95|240:155|240:155|310:64,1,280
256,192,61796,1,6,0:0:0:0:
256,192,62873,1,0,0:0:0:0:
256,192,63233,1,2,0:0:0:0:
256,192,63592,1,2,0:0:0:0:
256,192,63951,1,0,0:0:0:0:
256,192,64670,1,2,0:0:0:0:
256,192,65388,1,0,0:0:0:0:
256,192,65927,1,2,0:0:0:0:
256,192,66287,1,2,0:0:0:0:
256,192,66646,1,0,0:0:0:0:
256,192,67005,1,0,0:0:0:0:
256,192,67544,1,6,0:0:0:0:
256,192,68802,1,0,0:0:0:0:
256,192,69161,1,0,0:0:0:0:
256,192,69520,1,2,0:0:0:0:
256,192,69879,1,2,0:0:0:0:
256,192,70239,1,0,0:0:0:0:
256,192,70778,1,2,0:0:0:0:
256,192,71496,1,0,0:0:0:0:
256,192,71856,1,0,0:0:0:0:
256,192,72394,1,2,0:0:0:0:
256,192,72933,1,0,0:0:0:0:
256,192,73293,1,6,0:0:0:0:
256,192,74371,1,0,0:0:0:0:
256,192,74730,1,2,0:0:0:0:
256,192,75089,1,2,0:0:0:0:
256,192,75448,1,0,0:0:0:0:
256,192,76167,1,0,0:0:0:0:
256,192,76526,1,0,0:0:0:0:
256,192,76885,1,2,0:0:0:0:
256,192,77424,1,2,0:0:0:0:
256,192,77784,1,0,0:0:0:0:
256,192,78143,1,2,0:0:0:0:
256,192,78502,1,0,0:0:0:0:
256,192,79041,1,6,0:0:0:0:
256,192,80478,1,2,0:0:0:0:
256,192,80838,1,0,0:0:0:0:
256,192,81197,1,2,0:0:0:0:
256,192,81915,1,6,0:0:0:0:
256,192,82275,1,0,0:0:0:0:
256,192,82634,1,0,0:0:0:0:
256,192,83353,1,2,0:0:0:0:
256,192,83712,1,2,0:0:0:0:
256,192,84071,1,0,0:0:0:0:
256,192,84790,1,2,0:0:0:0:
256,192,85329,1,2,0:0:0:0:
256,192,85868,1,0,0:0:0:0:
256,192,86227,1,6,0:0:0:0:
256,192,87664,5,6,0:0:0:0:
256,192,88203,1,6,0:0:0:0:
256,192,88921,1,6,0:0:0:0:
256,192,89460,1,0,0:0:0:0:
256,192,89820,1,0,0:0:0:0:
256,192,90538,5,2,0:0:0:0:
256,192,91257,1,0,0:0:0:0:
256,192,91616,1,0,0:0:0:0:
256,192,91975,1,2,0:0:0:0:
256,192,92694,1,0,0:0:0:0:
256,192,93412,1,2,0:0:0:0:
256,192,93772,1,2,0:0:0:0:
256,192,94131,1,2,0:0:0:0:
256,192,94850,1,4,0:0:0:0:
256,192,96287,1,2,0:0:0:0:
256,192,96646,1,0,0:0:0:0:
256,192,97005,1,2,0:0:0:0:
256,192,97365,1,0,0:0:0:0:
256,192,97724,1,0,0:0:0:0:
256,192,98442,1,2,0:0:0:0:
256,192,99161,1,2,0:0:0:0:
256,192,99520,1,2,0:0:0:0:
256,192,99879,1,0,0:0:0:0:
256,192,100239,1,0,0:0:0:0:
256,192,100598,1,6,0:0:0:0:
256,192,102035,1,2,0:0:0:0:
256,192,102394,1,2,0:0:0:0:
256,192,102754,1,0,0:0:0:0:
256,192,103472,1,2,0:0:0:0:
256,192,104191,1,0,0:0:0:0:
256,192,104909,1,2,0:0:0:0:
256,192,105269,1,2,0:0:0:0:
256,192,105628,1,0,0:0:0:0:
256,192,105987,1,2,0:0:0:0:
256,192,106347,1,4,0:0:0:0:
256,192,106526,12,0,112095,0:0:0:0:
