osu file format v14

[General]
AudioFilename: audio.mp3
AudioLeadIn: 0
PreviewTime: 61705
Countdown: 0
SampleSet: Normal
StackLeniency: 0.7
Mode: 1
LetterboxInBreaks: 0
WidescreenStoryboard: 0

[Editor]
DistanceSpacing: 1.2
BeatDivisor: 2
GridSize: 16
TimelineZoom: 0.9

[Metadata]
Title:Skyclad no Kansokusha (Short Ver.)
TitleUnicode:スカイクラッドの観測者 (Short Ver.)
Artist:Ito Kanako
ArtistUnicode:いとうかなこ
Creator:Yui Funami
Version:Kantan
Source:STEINS;GATE
Tags:vn [r] ron joltzzz video game pop jpop j-pop japanese Steins Gate visual novel anime ending 23 5pb. Nitroplus opening chaosattractor chaos attractor observer 志倉千代丸 Chiyomaru Shikura 磯江俊道 シュタインズ・ゲート Toshimichi Isoe version op ed itou sky clad
BeatmapID:3602936
BeatmapSetID:1760352

[Difficulty]
HPDrainRate:8
CircleSize:2
OverallDifficulty:3
ApproachRate:10
SliderMultiplier:1.4
SliderTickRate:1

[Events]
//Background and Video events
0,0,"Makise Kurisu.jpg",0,70
//Break Periods
//Storyboard Layer 0 (Background)
//Storyboard Layer 1 (Fail)
//Storyboard Layer 2 (Pass)
//Storyboard Layer 3 (Foreground)
//Storyboard Layer 4 (Overlay)
//Storyboard Sound Samples

[TimingPoints]
25867,359.281437125748,4,1,0,70,1,0
31570,-100,4,1,0,80,0,0
34444,-100,4,1,0,90,0,0
37498,-100,4,1,0,85,0,0
48097,-100,4,1,0,90,0,0
48995,-100,4,1,0,85,0,0
54564,-100,4,1,0,90,0,0
57438,-100,4,1,0,95,0,0
60313,-100,4,1,0,80,0,0
61705,-100,4,1,0,100,0,0
61795,-100,4,1,0,100,0,1
86226,-100,4,1,0,100,0,0
90447,-100,4,1,0,90,0,0

[HitObjects]
225,169,25867,5,8,1:1:0:0:
225,168,27304,1,8,1:1:0:0:
224,164,28741,1,8,1:1:0:0:
224,164,30178,1,0,1:1:0:0:
215,162,30717,1,0,0:0:0:0:
224,164,31615,1,12,1:1:0:0:
234,173,32334,1,8,1:1:0:0:
234,173,32693,1,0,1:1:0:0:
224,164,33052,1,8,1:1:0:0:
259,185,34130,1,0,0:0:0:0:
224,164,34489,1,12,1:1:0:0:
224,164,35028,1,12,1:1:0:0:
250,191,35747,1,12,0:0:0:0:
201,140,37364,1,12,1:1:0:0:
279,186,38082,1,8,1:1:0:0:
242,174,38801,1,8,1:1:0:0:
242,174,39160,1,0,1:1:0:0:
236,178,39519,1,8,1:1:0:0:
250,185,40238,1,0,1:1:0:0:
254,177,40956,1,8,0:0:0:0:
266,196,41675,1,8,1:1:0:0:
229,194,42393,1,0,1:1:0:0:
229,194,42753,1,8,1:1:0:0:
229,194,43112,1,0,1:1:0:0:
219,188,43831,1,8,1:1:0:0:
266,191,44549,1,0,1:1:0:0:
223,210,45986,1,8,1:1:0:0:
230,177,46705,1,8,1:1:0:0:
230,177,47064,1,0,1:1:0:0:
225,184,47423,1,8,1:1:0:0:
256,184,48142,1,8,1:1:0:0:
252,169,48861,1,4,1:1:0:0:
248,194,49579,1,8,1:1:0:0:
248,194,49938,1,0,1:1:0:0:
248,194,50298,1,8,1:1:0:0:
244,186,51016,1,0,1:1:0:0:
244,186,51735,1,0,1:1:0:0:
244,186,52094,1,0,1:1:0:0:
244,186,52453,1,8,1:1:0:0:
244,186,53172,1,0,1:1:0:0:
244,186,54609,1,0,1:1:0:0:
244,178,55328,1,8,0:0:0:0:
228,186,55687,1,0,0:0:0:0:
244,186,56046,1,8,1:1:0:0:
270,168,57124,1,0,0:0:0:0:
244,179,57483,1,12,1:1:0:0:
255,176,58920,1,8,1:1:0:0:
261,202,59639,1,8,1:1:0:0:
261,202,59998,1,8,0:0:0:0:
256,192,60358,12,0,61435,1:1:0:0:
255,198,61795,5,12,0:0:0:0:
255,198,62513,1,8,0:0:0:0:
255,155,62872,5,8,0:0:0:0:
255,198,63232,1,0,0:0:0:0:
244,177,63950,1,8,1:1:0:0:
244,177,64669,1,0,1:1:0:0:
245,186,65028,1,0,1:1:0:0:
240,160,65387,1,8,1:1:0:0:
248,182,66106,1,0,1:1:0:0:
221,175,67543,1,12,1:1:0:0:
296,189,68262,1,0,1:1:0:0:
244,177,68980,1,8,1:1:0:0:
252,165,69340,1,0,1:1:0:0:
244,177,69699,1,8,1:1:0:0:
244,177,70417,1,8,1:1:0:0:
237,182,71495,1,8,0:0:0:0:
231,186,71855,1,0,1:1:0:0:
244,177,72573,1,8,1:1:0:0:
244,177,72932,1,8,1:1:0:0:
244,177,73292,1,4,1:1:0:0:
244,177,74010,1,0,1:1:0:0:
244,177,74729,1,0,1:1:0:0:
244,177,75088,1,0,0:0:0:0:
266,195,75447,1,8,0:0:0:0:
246,184,76166,1,0,1:1:0:0:
246,184,76884,1,8,1:1:0:0:
246,184,77603,1,8,1:1:0:0:
255,182,79040,1,12,1:1:0:0:
250,175,79759,1,0,1:1:0:0:
250,175,80477,1,8,1:1:0:0:
264,188,80837,1,0,0:0:0:0:
250,175,81196,1,8,1:1:0:0:
250,175,81914,1,12,1:1:0:0:
213,188,83352,1,0,1:1:0:0:
250,174,84789,1,8,1:1:0:0:
250,174,85507,1,0,1:1:0:0:
250,174,86226,1,12,1:1:0:0:
250,174,87663,1,8,1:1:0:0:
250,174,88202,1,0,1:1:0:0:
250,174,88920,1,12,1:1:0:0:
255,195,90537,1,0,1:1:0:0:
237,186,91256,1,0,1:1:0:0:
208,191,91974,1,8,1:1:0:0:
203,198,92334,1,0,1:1:0:0:
216,214,92693,1,8,1:1:0:0:
237,199,93411,1,0,1:1:0:0:
245,203,94489,1,0,0:0:0:0:
209,231,94849,5,0,1:1:0:0:
262,193,96286,5,8,1:1:0:0:
257,198,97004,1,8,1:1:0:0:
250,190,97723,1,0,1:1:0:0:
262,190,98082,1,8,1:1:0:0:
261,193,98441,1,0,1:1:0:0:
252,189,99519,1,8,1:1:0:0:
258,193,100238,1,0,1:1:0:0:
261,184,100597,1,0,1:1:0:0:
267,168,101316,1,8,1:1:0:0:
261,183,102034,1,0,1:1:0:0:
256,192,102753,1,0,1:1:0:0:
248,192,103471,1,8,1:1:0:0:
248,192,103831,1,0,1:1:0:0:
248,192,104190,1,8,1:1:0:0:
234,184,104908,1,0,1:1:0:0:
234,184,105268,1,8,1:1:0:0:
234,184,105986,1,8,0:0:0:0:
256,192,106346,12,0,112094,1:1:0:0:
