osu file format v14

[General]
AudioFilename: audio.mp3
AudioLeadIn: 0
PreviewTime: 61705
Countdown: 0
SampleSet: Normal
StackLeniency: 0.7
Mode: 1
LetterboxInBreaks: 0
WidescreenStoryboard: 1

[Editor]
DistanceSpacing: 1.2
BeatDivisor: 4
GridSize: 16
TimelineZoom: 2.599999

[Metadata]
Title:Skyclad no Kansokusha (Short Ver.)
TitleUnicode:スカイクラッドの観測者 (Short Ver.)
Artist:Ito Kanako
ArtistUnicode:いとうかなこ
Creator:Yui Funami
Version:Jo's Muzukashii
Source:STEINS;GATE
Tags:vn [r] ron joltzzz video game pop jpop j-pop japanese Steins Gate visual novel anime ending 23 5pb. Nitroplus opening chaosattractor chaos attractor observer 志倉千代丸 Chiyomaru Shikura 磯江俊道 シュタインズ・ゲート Toshimichi Isoe version op ed itou sky clad
BeatmapID:3604163
BeatmapSetID:1760352

[Difficulty]
HPDrainRate:6
CircleSize:2
OverallDifficulty:5
ApproachRate:10
SliderMultiplier:1.4
SliderTickRate:1

[Events]
//Background and Video events
0,0,"Makise Kurisu.jpg",0,70
//Break Periods
//Storyboard Layer 0 (Background)
//Storyboard Layer 1 (Fail)
//Storyboard Layer 2 (Pass)
//Storyboard Layer 3 (Foreground)
//Storyboard Layer 4 (Overlay)
//Storyboard Sound Samples

[TimingPoints]
25867,359.281437125748,4,1,0,70,1,0
31570,-100,4,1,0,80,0,0
34444,-100,4,1,0,90,0,0
37244,-100,4,1,0,85,0,0
48097,-100,4,1,0,90,0,0
48741,-100,4,1,0,85,0,0
54564,-100,4,1,0,90,0,0
57438,-100,4,1,0,95,0,0
60313,-100,4,1,0,80,0,0
61705,-100,4,1,0,100,0,0
61795,-100,4,1,0,100,0,1
86226,-100,4,1,0,100,0,0
90178,-100,4,1,0,90,0,0

[HitObjects]
256,192,25867,5,8,0:0:0:0:
256,192,26226,1,0,0:0:0:0:
256,192,26405,1,8,0:0:0:0:
256,192,26765,1,0,0:0:0:0:
256,192,27124,1,8,0:0:0:0:
256,192,27483,1,8,0:0:0:0:
256,192,27843,1,8,0:0:0:0:
256,192,28202,1,0,0:0:0:0:
256,192,28381,1,0,0:0:0:0:
256,192,28741,1,0,0:0:0:0:
256,192,29100,1,8,0:0:0:0:
256,192,29280,1,0,0:0:0:0:
256,192,29639,1,8,0:0:0:0:
256,192,29998,1,8,0:0:0:0:
256,192,30178,1,8,0:0:0:0:
256,192,30358,1,0,0:0:0:0:
256,192,30537,1,8,0:0:0:0:
256,192,30717,1,0,0:0:0:0:
256,192,31615,1,4,0:0:0:0:
256,192,31974,1,0,0:0:0:0:
256,192,32154,1,8,0:0:0:0:
256,192,32513,1,8,0:0:0:0:
256,192,32693,1,0,0:0:0:0:
256,192,33052,1,0,0:0:0:0:
256,192,33232,1,0,0:0:0:0:
256,192,33411,1,8,0:0:0:0:
256,192,33591,1,8,0:0:0:0:
256,192,33771,1,0,0:0:0:0:
256,192,33950,1,0,0:0:0:0:
256,192,34130,1,8,0:0:0:0:
256,192,34489,1,12,0:0:0:0:
256,192,34849,1,0,0:0:0:0:
256,192,35028,1,12,0:0:0:0:
256,192,35387,1,0,0:0:0:0:
256,192,35567,1,0,0:0:0:0:
256,192,35747,1,12,0:0:0:0:
256,192,36286,1,0,0:0:0:0:
256,192,36645,1,0,0:0:0:0:
256,192,36825,1,8,0:0:0:0:
256,192,37004,1,8,0:0:0:0:
256,192,37184,1,0,0:0:0:0:
256,192,37364,1,12,0:0:0:0:
256,192,37723,1,0,0:0:0:0:
256,192,37902,1,0,0:0:0:0:
256,192,38082,1,8,0:0:0:0:
256,192,38262,1,0,0:0:0:0:
256,192,38621,1,8,0:0:0:0:
256,192,38980,1,8,0:0:0:0:
256,192,39160,1,0,0:0:0:0:
256,192,39340,1,8,0:0:0:0:
256,192,39699,1,0,0:0:0:0:
256,192,39878,1,8,0:0:0:0:
256,192,40238,1,0,0:0:0:0:
256,192,40417,1,0,0:0:0:0:
256,192,40597,1,8,0:0:0:0:
256,192,40956,1,8,0:0:0:0:
256,192,41495,1,8,0:0:0:0:
256,192,41855,1,0,0:0:0:0:
256,192,42214,1,8,0:0:0:0:
256,192,42573,1,0,0:0:0:0:
256,192,42753,1,8,0:0:0:0:
256,192,42932,1,8,0:0:0:0:
256,192,43112,1,4,0:0:0:0:
256,192,43471,1,0,0:0:0:0:
256,192,43651,1,0,0:0:0:0:
256,192,43831,1,8,0:0:0:0:
256,192,44010,1,0,0:0:0:0:
256,192,44369,1,8,0:0:0:0:
256,192,44729,1,0,0:0:0:0:
256,192,44908,1,0,0:0:0:0:
256,192,45088,1,8,0:0:0:0:
256,192,45447,1,0,0:0:0:0:
256,192,45627,1,8,0:0:0:0:
256,192,45986,1,0,0:0:0:0:
256,192,46346,1,0,0:0:0:0:
256,192,46525,1,0,0:0:0:0:
256,192,46705,1,8,0:0:0:0:
256,192,47064,1,0,0:0:0:0:
256,192,47244,1,8,0:0:0:0:
256,192,47423,1,0,0:0:0:0:
256,192,47603,1,8,0:0:0:0:
256,192,47783,1,0,0:0:0:0:
256,192,48142,1,8,0:0:0:0:
256,192,48322,1,4,0:0:0:0:
256,192,48861,1,12,0:0:0:0:
256,192,49040,1,0,0:0:0:0:
256,192,49220,1,0,0:0:0:0:
256,192,49310,1,0,0:0:0:0:
256,192,49399,1,0,0:0:0:0:
256,192,49579,1,8,0:0:0:0:
256,192,49759,1,0,0:0:0:0:
256,192,50118,1,8,0:0:0:0:
256,192,50298,1,0,0:0:0:0:
256,192,50477,1,0,0:0:0:0:
256,192,50657,1,0,0:0:0:0:
256,192,50837,1,8,0:0:0:0:
256,192,51196,1,8,0:0:0:0:
256,192,51375,1,8,0:0:0:0:
256,192,51735,1,0,0:0:0:0:
256,192,51914,1,0,0:0:0:0:
256,192,52094,1,8,0:0:0:0:
256,192,52274,1,8,0:0:0:0:
256,192,52453,1,8,0:0:0:0:
256,192,52633,1,0,0:0:0:0:
256,192,52992,1,0,0:0:0:0:
256,192,53352,1,0,0:0:0:0:
256,192,53711,1,8,0:0:0:0:
256,192,54070,1,0,0:0:0:0:
256,192,54250,1,8,0:0:0:0:
256,192,54609,1,8,0:0:0:0:
256,192,54789,1,0,0:0:0:0:
256,192,54968,1,8,0:0:0:0:
256,192,55148,1,0,0:0:0:0:
256,192,55507,1,8,0:0:0:0:
256,192,55687,1,0,0:0:0:0:
256,192,55866,1,8,0:0:0:0:
256,192,56405,1,8,0:0:0:0:
256,192,56765,1,0,0:0:0:0:
256,192,56944,1,0,0:0:0:0:
256,192,57124,1,8,0:0:0:0:
256,192,57483,1,4,0:0:0:0:
256,192,57843,1,0,0:0:0:0:
256,192,58022,1,12,0:0:0:0:
256,192,58381,1,0,0:0:0:0:
256,192,58561,1,12,0:0:0:0:
256,192,58920,1,0,0:0:0:0:
256,192,59100,1,12,0:0:0:0:
256,192,59459,1,0,0:0:0:0:
256,192,59639,1,12,0:0:0:0:
256,192,59819,1,0,0:0:0:0:
256,192,59998,1,0,0:0:0:0:
256,192,60178,1,8,0:0:0:0:
256,192,60358,12,0,61435,0:0:0:0:
256,192,61795,5,12,0:0:0:0:
256,192,62154,1,0,0:0:0:0:
256,192,62334,1,8,0:0:0:0:
256,192,62693,1,8,0:0:0:0:
256,192,62872,1,0,0:0:0:0:
256,192,63232,1,8,0:0:0:0:
256,192,63411,1,0,0:0:0:0:
256,192,63591,1,8,0:0:0:0:
256,192,63771,1,0,0:0:0:0:
256,192,63950,1,8,0:0:0:0:
256,192,64040,1,8,0:0:0:0:
256,192,64130,1,8,0:0:0:0:
256,192,64669,1,0,0:0:0:0:
256,192,65028,1,0,0:0:0:0:
256,192,65387,1,0,0:0:0:0:
256,192,65567,1,8,0:0:0:0:
256,192,65926,1,8,0:0:0:0:
256,192,66106,1,0,0:0:0:0:
256,192,66286,1,8,0:0:0:0:
256,192,66465,1,0,0:0:0:0:
256,192,66645,1,8,0:0:0:0:
256,192,67004,1,8,0:0:0:0:
256,192,67184,1,0,0:0:0:0:
256,192,67543,1,4,0:0:0:0:
256,192,67902,1,8,0:0:0:0:
256,192,68262,1,0,0:0:0:0:
256,192,68441,1,8,0:0:0:0:
256,192,68531,1,8,0:0:0:0:
256,192,68621,1,8,0:0:0:0:
256,192,68801,1,8,0:0:0:0:
256,192,68980,1,0,0:0:0:0:
256,192,69160,1,0,0:0:0:0:
256,192,69340,1,8,0:0:0:0:
256,192,69519,1,0,0:0:0:0:
256,192,69878,1,8,0:0:0:0:
256,192,70238,1,0,0:0:0:0:
256,192,70777,1,8,0:0:0:0:
256,192,70956,1,0,0:0:0:0:
256,192,71046,1,0,0:0:0:0:
256,192,71136,1,0,0:0:0:0:
256,192,71316,1,0,0:0:0:0:
256,192,71495,1,8,0:0:0:0:
256,192,71855,1,8,0:0:0:0:
256,192,72034,1,0,0:0:0:0:
256,192,72124,1,0,0:0:0:0:
256,192,72214,1,0,0:0:0:0:
256,192,72393,1,8,0:0:0:0:
256,192,72573,1,8,0:0:0:0:
256,192,72753,1,0,0:0:0:0:
256,192,72932,1,8,0:0:0:0:
256,192,73112,1,8,0:0:0:0:
256,192,73292,1,4,0:0:0:0:
256,192,73651,1,8,0:0:0:0:
256,192,73831,1,0,0:0:0:0:
256,192,74190,1,0,0:0:0:0:
256,192,74369,1,8,0:0:0:0:
256,192,74729,1,8,0:0:0:0:
256,192,74908,1,0,0:0:0:0:
256,192,75088,1,8,0:0:0:0:
256,192,75268,1,0,0:0:0:0:
256,192,75447,1,8,0:0:0:0:
256,192,75537,1,8,0:0:0:0:
256,192,75627,1,8,0:0:0:0:
256,192,76166,1,0,0:0:0:0:
256,192,76525,1,8,0:0:0:0:
256,192,76705,1,0,0:0:0:0:
256,192,76884,1,8,0:0:0:0:
256,192,76974,1,8,0:0:0:0:
256,192,77064,1,8,0:0:0:0:
256,192,77244,1,0,0:0:0:0:
256,192,77423,1,8,0:0:0:0:
256,192,77603,1,0,0:0:0:0:
256,192,77783,1,8,0:0:0:0:
256,192,77962,1,0,0:0:0:0:
256,192,78142,1,8,0:0:0:0:
256,192,78501,1,8,0:0:0:0:
256,192,79040,1,4,0:0:0:0:
256,192,79220,1,0,0:0:0:0:
256,192,79399,1,8,0:0:0:0:
256,192,79579,1,0,0:0:0:0:
256,192,79669,1,0,0:0:0:0:
256,192,79759,1,0,0:0:0:0:
256,192,79938,1,8,0:0:0:0:
256,192,80118,1,0,0:0:0:0:
256,192,80298,1,8,0:0:0:0:
256,192,80477,1,0,0:0:0:0:
256,192,80837,1,8,0:0:0:0:
256,192,81196,1,0,0:0:0:0:
256,192,81286,1,0,0:0:0:0:
256,192,81375,1,0,0:0:0:0:
256,192,81555,1,8,0:0:0:0:
256,192,81914,1,4,0:0:0:0:
256,192,82274,1,8,0:0:0:0:
256,192,82453,1,0,0:0:0:0:
256,192,82543,1,0,0:0:0:0:
256,192,82633,1,0,0:0:0:0:
256,192,82813,1,0,0:0:0:0:
256,192,82992,1,8,0:0:0:0:
256,192,83352,1,0,0:0:0:0:
256,192,83711,1,8,0:0:0:0:
256,192,83890,1,8,0:0:0:0:
256,192,83980,1,8,0:0:0:0:
256,192,84160,1,0,0:0:0:0:
256,192,84250,1,0,0:0:0:0:
256,192,84429,1,8,0:0:0:0:
256,192,84789,1,0,0:0:0:0:
256,192,84968,1,0,0:0:0:0:
256,192,85148,1,8,0:0:0:0:
256,192,85328,1,8,0:0:0:0:
256,192,85687,1,0,0:0:0:0:
256,192,85866,1,0,0:0:0:0:
256,192,85956,1,0,0:0:0:0:
256,192,86046,1,0,0:0:0:0:
256,192,86226,1,12,0:0:0:0:
256,192,87483,1,0,0:0:0:0:
256,192,87663,1,0,0:0:0:0:
256,192,87843,1,0,0:0:0:0:
256,192,88022,1,8,0:0:0:0:
256,192,88202,1,0,0:0:0:0:
256,192,88381,1,0,0:0:0:0:
256,192,88471,1,0,0:0:0:0:
256,192,88561,1,0,0:0:0:0:
256,192,88741,1,8,0:0:0:0:
256,192,88920,1,12,0:0:0:0:
256,192,89459,1,0,0:0:0:0:
256,192,89639,1,8,0:0:0:0:
256,192,89819,1,0,0:0:0:0:
256,192,89908,1,0,0:0:0:0:
256,192,89998,1,0,0:0:0:0:
256,192,90178,1,8,0:0:0:0:
256,192,90537,1,0,0:0:0:0:
256,192,91076,1,0,0:0:0:0:
256,192,91166,1,0,0:0:0:0:
256,192,91256,1,0,0:0:0:0:
256,192,91435,1,0,0:0:0:0:
256,192,91615,1,8,0:0:0:0:
256,192,91974,1,0,0:0:0:0:
256,192,92334,1,8,0:0:0:0:
256,192,92513,1,8,0:0:0:0:
256,192,92603,1,8,0:0:0:0:
256,192,92693,1,8,0:0:0:0:
256,192,92872,1,0,0:0:0:0:
256,192,93052,1,8,0:0:0:0:
256,192,93411,1,0,0:0:0:0:
256,192,93771,1,8,0:0:0:0:
256,192,93950,1,0,0:0:0:0:
256,192,94040,1,0,0:0:0:0:
256,192,94130,1,0,0:0:0:0:
256,192,94310,1,0,0:0:0:0:
256,192,94489,1,12,0:0:0:0:
256,192,94849,1,4,0:0:0:0:
256,192,95387,1,8,0:0:0:0:
256,192,95567,1,0,0:0:0:0:
256,192,95657,1,0,0:0:0:0:
256,192,95747,1,0,0:0:0:0:
256,192,95926,1,8,0:0:0:0:
256,192,96286,1,8,0:0:0:0:
256,192,96825,1,0,0:0:0:0:
256,192,96914,1,0,0:0:0:0:
256,192,97004,1,0,0:0:0:0:
256,192,97184,1,0,0:0:0:0:
256,192,97364,1,8,0:0:0:0:
256,192,97723,1,0,0:0:0:0:
256,192,98082,1,8,0:0:0:0:
256,192,98262,1,0,0:0:0:0:
256,192,98441,1,0,0:0:0:0:
256,192,98531,1,0,0:0:0:0:
256,192,98621,1,0,0:0:0:0:
256,192,98801,1,8,0:0:0:0:
256,192,99160,1,0,0:0:0:0:
256,192,99519,1,12,0:0:0:0:
256,192,99699,1,8,0:0:0:0:
256,192,99878,1,0,0:0:0:0:
256,192,99968,1,0,0:0:0:0:
256,192,100058,1,0,0:0:0:0:
256,192,100238,1,12,0:0:0:0:
256,192,100597,1,4,0:0:0:0:
256,192,101136,1,8,0:0:0:0:
256,192,101316,1,0,0:0:0:0:
256,192,101405,1,0,0:0:0:0:
256,192,101495,1,0,0:0:0:0:
256,192,101675,1,8,0:0:0:0:
256,192,102034,1,0,0:0:0:0:
256,192,102393,1,8,0:0:0:0:
256,192,102573,1,8,0:0:0:0:
256,192,102663,1,8,0:0:0:0:
256,192,102753,1,8,0:0:0:0:
256,192,102932,1,0,0:0:0:0:
256,192,103112,1,8,0:0:0:0:
256,192,103471,1,0,0:0:0:0:
256,192,103831,1,8,0:0:0:0:
256,192,104369,1,0,0:0:0:0:
256,192,104549,1,8,0:0:0:0:
256,192,104908,1,0,0:0:0:0:
256,192,105088,1,0,0:0:0:0:
256,192,105268,1,12,0:0:0:0:
256,192,105447,1,0,0:0:0:0:
256,192,105537,1,0,0:0:0:0:
256,192,105627,1,0,0:0:0:0:
256,192,105807,1,0,0:0:0:0:
256,192,105986,1,12,0:0:0:0:
256,192,106346,1,4,0:0:0:0:
256,192,106525,12,0,112094,0:0:0:0:
