osu file format v14

[General]
AudioFilename: audio.mp3
AudioLeadIn: 0
PreviewTime: 61705
Countdown: 0
SampleSet: Normal
StackLeniency: 0.7
Mode: 1
LetterboxInBreaks: 0
WidescreenStoryboard: 1

[Editor]
DistanceSpacing: 1.2
BeatDivisor: 2
GridSize: 16
TimelineZoom: 1

[Metadata]
Title:Skyclad no Kansokusha (Short Ver.)
TitleUnicode:スカイクラッドの観測者 (Short Ver.)
Artist:Ito Kanako
ArtistUnicode:いとうかなこ
Creator:Yui Funami
Version:Futsuu
Source:STEINS;GATE
Tags:vn [r] ron joltzzz video game pop jpop j-pop japanese Steins Gate visual novel anime ending 23 5pb. Nitroplus opening chaosattractor chaos attractor observer 志倉千代丸 Chiyomaru Shikura 磯江俊道 シュタインズ・ゲート Toshimichi Isoe version op ed itou sky clad
BeatmapID:3602935
BeatmapSetID:1760352

[Difficulty]
HPDrainRate:7
CircleSize:2
OverallDifficulty:4
ApproachRate:10
SliderMultiplier:1.4
SliderTickRate:1

[Events]
//Background and Video events
0,0,"Makise Kurisu.jpg",0,70
//Break Periods
//Storyboard Layer 0 (Background)
//Storyboard Layer 1 (Fail)
//Storyboard Layer 2 (Pass)
//Storyboard Layer 3 (Foreground)
//Storyboard Layer 4 (Overlay)
//Storyboard Sound Samples

[TimingPoints]
25867,359.281437125748,4,1,0,70,1,0
31570,-100,4,1,0,80,0,0
34444,-100,4,1,0,90,0,0
37244,-100,4,1,0,85,0,0
48097,-100,4,1,0,90,0,0
48741,-100,4,1,0,85,0,0
54564,-100,4,1,0,90,0,0
57438,-100,4,1,0,95,0,0
60313,-100,4,1,0,80,0,0
61705,-100,4,1,0,100,0,0
61795,-100,4,1,0,100,0,1
86226,-100,4,1,0,100,0,0
90447,-100,4,1,0,90,0,0

[HitObjects]
256,192,25866,5,8,1:1:0:0:
256,192,26405,1,8,1:1:0:0:
256,192,26765,1,0,0:0:0:0:
256,176,27124,1,8,1:1:0:0:
243,173,27843,1,0,0:0:0:0:
256,176,28741,1,8,1:1:0:0:
240,192,29280,1,0,1:1:0:0:
231,191,29639,1,8,1:1:0:0:
256,176,30178,1,0,1:1:0:0:
240,192,31615,1,12,1:1:0:0:
240,176,31974,1,0,1:1:0:0:
240,176,32154,1,8,1:1:0:0:
251,246,32513,1,0,0:0:0:0:
256,192,32872,1,8,1:1:0:0:
237,191,33232,1,0,0:0:0:0:
256,192,33591,1,0,0:0:0:0:
228,176,33950,1,8,1:1:0:0:
232,180,34130,1,8,1:1:0:0:
272,192,34489,1,12,1:1:0:0:
272,192,35028,1,12,0:0:0:0:
260,191,35387,1,0,0:0:0:0:
282,186,35567,1,0,0:0:0:0:
272,192,35747,1,12,1:1:0:0:
256,208,36825,1,8,0:0:0:0:
248,189,37004,1,0,0:0:0:0:
304,224,37364,1,12,1:1:0:0:
240,176,37723,1,0,1:1:0:0:
304,224,38082,1,8,1:1:0:0:
255,194,38801,1,8,1:1:0:0:
272,208,39160,1,0,1:1:0:0:
304,224,39519,1,8,1:1:0:0:
304,224,39878,1,8,0:0:0:0:
304,224,40238,1,0,1:1:0:0:
322,218,40417,1,0,1:1:0:0:
304,224,40597,1,8,1:1:0:0:
304,224,40956,1,8,1:1:0:0:
272,208,41675,1,8,1:1:0:0:
297,200,42034,1,0,1:1:0:0:
304,224,42393,1,0,1:1:0:0:
292,226,42753,1,8,0:0:0:0:
304,224,43112,1,0,1:1:0:0:
305,204,43292,1,0,1:1:0:0:
304,204,43471,1,8,1:1:0:0:
304,224,43831,1,8,1:1:0:0:
256,192,44549,1,0,1:1:0:0:
256,192,44908,1,0,1:1:0:0:
304,224,45268,1,8,1:1:0:0:
304,224,45627,1,8,0:0:0:0:
304,224,45986,1,0,1:1:0:0:
304,224,46166,1,0,1:1:0:0:
304,224,46346,1,8,1:1:0:0:
307,216,46705,1,8,1:1:0:0:
256,192,47423,1,0,1:1:0:0:
272,188,47603,1,0,1:1:0:0:
283,195,47783,1,8,1:1:0:0:
304,224,48142,1,8,1:1:0:0:
304,224,48861,1,4,1:1:0:0:
304,224,49220,1,0,1:1:0:0:
304,224,49579,1,8,1:1:0:0:
288,208,50298,1,0,1:1:0:0:
272,209,50657,1,0,1:1:0:0:
256,192,51016,1,8,1:1:0:0:
254,193,51375,1,8,0:0:0:0:
304,224,51735,1,0,1:1:0:0:
272,224,51914,1,0,1:1:0:0:
288,224,52094,1,8,1:1:0:0:
304,224,52453,1,8,1:1:0:0:
299,198,53172,1,8,1:1:0:0:
316,195,53531,1,0,1:1:0:0:
304,224,53890,1,8,1:1:0:0:
305,226,54250,1,0,0:0:0:0:
311,238,54429,1,0,0:0:0:0:
304,224,54609,1,8,1:1:0:0:
304,224,54968,1,0,1:1:0:0:
304,224,55687,1,0,0:0:0:0:
304,224,56046,1,8,1:1:0:0:
288,224,56405,1,0,0:0:0:0:
256,192,57124,1,0,1:1:0:0:
304,224,57483,1,12,1:1:0:0:
290,200,58022,1,8,0:0:0:0:
282,221,58561,1,8,0:0:0:0:
304,224,59100,1,0,1:1:0:0:
282,221,59639,1,0,0:0:0:0:
270,190,59998,1,8,1:1:0:0:
256,192,60358,12,0,61435,0:0:0:0:
288,208,61795,5,12,1:1:0:0:
316,189,62513,1,8,0:0:0:0:
330,202,62693,1,0,0:0:0:0:
323,193,62872,1,8,0:0:0:0:
272,192,63232,1,0,1:1:0:0:
272,192,63591,1,8,0:0:0:0:
288,200,63950,1,0,1:1:0:0:
286,198,64130,1,0,1:1:0:0:
288,208,64669,1,8,1:1:0:0:
286,198,65028,1,0,0:0:0:0:
288,192,65387,1,8,1:1:0:0:
288,208,65567,1,0,1:1:0:0:
275,188,65926,1,8,1:1:0:0:
288,208,66286,1,0,1:1:0:0:
288,208,66645,1,8,1:1:0:0:
288,208,67543,1,12,1:1:0:0:
319,214,67902,1,0,0:0:0:0:
288,208,68262,1,8,1:1:0:0:
288,208,68441,1,0,1:1:0:0:
274,203,68801,1,0,1:1:0:0:
317,204,68980,1,0,0:0:0:0:
288,208,69160,1,8,1:1:0:0:
288,208,69519,1,8,1:1:0:0:
288,208,69878,1,0,1:1:0:0:
272,208,70238,1,8,1:1:0:0:
272,208,71136,1,0,0:0:0:0:
272,208,71495,1,8,0:0:0:0:
272,208,71675,1,8,1:1:0:0:
264,214,71855,1,0,1:1:0:0:
272,208,72034,1,8,1:1:0:0:
288,208,72393,5,0,1:1:0:0:
288,208,72573,1,8,1:1:0:0:
316,189,73292,1,4,0:0:0:0:
323,193,73831,1,8,0:0:0:0:
272,208,74190,1,0,1:1:0:0:
285,200,74369,1,0,1:1:0:0:
272,208,74729,1,8,1:1:0:0:
254,210,74908,1,0,1:1:0:0:
272,208,75088,1,8,1:1:0:0:
272,208,75447,1,0,1:1:0:0:
267,198,75627,1,8,0:0:0:0:
244,194,76166,1,8,1:1:0:0:
235,182,76525,1,0,1:1:0:0:
272,208,76884,1,8,1:1:0:0:
272,213,77064,1,0,0:0:0:0:
263,187,77423,1,8,1:1:0:0:
263,187,77783,1,0,1:1:0:0:
263,187,78142,1,8,1:1:0:0:
264,169,79040,1,12,1:1:0:0:
262,159,79399,1,0,1:1:0:0:
268,160,79579,1,8,1:1:0:0:
277,158,79938,1,8,0:0:0:0:
223,172,80298,1,0,0:0:0:0:
237,186,80477,1,8,1:1:0:0:
249,177,80837,1,0,1:1:0:0:
250,177,81016,1,0,1:1:0:0:
237,186,81196,1,8,1:1:0:0:
283,189,81555,1,0,1:1:0:0:
263,193,81914,1,12,1:1:0:0:
263,190,82274,1,0,0:0:0:0:
254,186,82633,1,0,0:0:0:0:
245,196,83352,1,0,1:1:0:0:
245,196,83711,1,8,1:1:0:0:
257,197,84070,1,0,1:1:0:0:
243,208,84250,1,0,1:1:0:0:
245,209,84429,1,8,1:1:0:0:
266,181,84789,1,0,1:1:0:0:
273,183,85148,1,8,0:0:0:0:
266,181,85328,1,0,1:1:0:0:
245,177,85687,1,0,1:1:0:0:
250,181,85866,1,8,1:1:0:0:
266,181,86226,1,12,1:1:0:0:
205,144,87663,1,8,0:0:0:0:
262,164,88022,1,0,0:0:0:0:
268,177,88202,1,8,1:1:0:0:
246,174,88561,1,0,0:0:0:0:
246,171,88741,1,0,1:1:0:0:
239,171,88920,1,12,0:0:0:0:
246,174,89459,1,8,0:0:0:0:
231,192,89819,1,0,0:0:0:0:
252,187,90178,1,8,0:0:0:0:
243,181,90537,1,0,0:0:0:0:
245,205,91256,1,0,0:0:0:0:
241,197,91435,1,8,0:0:0:0:
253,202,91615,1,0,0:0:0:0:
265,196,91974,1,0,0:0:0:0:
243,170,92693,1,8,0:0:0:0:
259,182,93052,1,0,0:0:0:0:
253,195,93411,1,8,0:0:0:0:
243,197,93591,1,0,0:0:0:0:
280,218,93771,1,0,0:0:0:0:
192,157,94489,1,8,0:0:0:0:
244,187,94849,1,0,0:0:0:0:
256,197,95567,1,0,0:0:0:0:
263,206,95926,1,0,0:0:0:0:
259,186,96286,1,8,0:0:0:0:
246,151,97004,1,8,0:0:0:0:
251,184,97723,1,0,0:0:0:0:
245,188,98082,1,8,0:0:0:0:
251,184,98441,1,0,0:0:0:0:
245,205,99160,1,0,0:0:0:0:
253,202,99519,1,8,0:0:0:0:
245,205,99699,1,8,0:0:0:0:
265,196,99878,1,0,0:0:0:0:
243,198,100238,1,8,0:0:0:0:
243,170,100597,1,0,0:0:0:0:
248,184,101316,1,8,0:0:0:0:
235,189,101675,1,8,0:0:0:0:
244,187,102034,5,0,0:0:0:0:
244,187,102753,1,0,0:0:0:0:
247,193,103471,1,8,0:0:0:0:
240,160,103831,1,0,0:0:0:0:
259,186,104190,1,8,0:0:0:0:
254,173,104908,1,0,0:0:0:0:
251,184,105268,1,8,0:0:0:0:
245,188,105627,1,0,0:0:0:0:
241,192,105807,1,0,0:0:0:0:
259,191,105986,1,8,0:0:0:0:
256,192,106346,12,0,112094,1:1:0:0:
