osu file format v14

[General]
AudioFilename: audio.mp3
AudioLeadIn: 0
PreviewTime: 264221
Countdown: 0
SampleSet: Drum
StackLeniency: 0.7
Mode: 2
LetterboxInBreaks: 0
WidescreenStoryboard: 0

[Editor]
Bookmarks: 395,18172,35950,53728,67061,89283,93728,107061,115950,133728,142617,184839,193736,204846,213735,227059,258170,298170,302614,320392,338170,347059,355948,373725
DistanceSpacing: 1
BeatDivisor: 6
GridSize: 16
TimelineZoom: 2.900001

[Metadata]
Title:Sky of Twilight
TitleUnicode:Sky of Twilight
Artist:Ito Kanako
ArtistUnicode:いとうかなこ
Creator:Greaper
Version:Eschatology
Source:エスカ&ロジーのアトリエ ~黄昏の空の錬金術士~
Tags:Shade Atelier series Escha and Logy Alchemist no renkinjutsushi renkin jutsushi Dusk 大和 Yamato tasogare sora video game the metal Japanese itou rock progressive jrock j-rock alchemists of the dusk sky vgm videogame itoh
BeatmapID:3591750
BeatmapSetID:1755137

[Difficulty]
HPDrainRate:5
CircleSize:4.2
OverallDifficulty:9.5
ApproachRate:9.5
SliderMultiplier:1.73
SliderTickRate:2

[Events]
//Background and Video events
0,0,"SkyOfTwilight.jpg",0,0
//Break Periods
2,227267,239876
//Storyboard Layer 0 (Background)
//Storyboard Layer 1 (Fail)
//Storyboard Layer 2 (Pass)
//Storyboard Layer 3 (Foreground)
//Storyboard Layer 4 (Overlay)
//Storyboard Sound Samples

[TimingPoints]
404,277.777777777778,4,2,11,60,1,0
17070,-100,4,3,11,60,0,0
18181,-100,4,3,11,70,0,0
25959,-100,4,3,12,70,0,0
26237,-100,4,3,13,70,0,0
26515,-100,4,3,11,70,0,0
35959,-100,4,3,11,60,0,0
44292,-100,4,3,11,70,0,0
53737,-111.111111111111,4,3,11,60,0,0
66515,-100,4,3,11,65,0,0
67070,-100,4,3,11,75,0,0
71515,-90.9090909090909,4,3,11,80,0,1
88737,-100,4,3,11,80,0,0
89292,-111.111111111111,4,3,11,60,0,0
93737,-100,4,3,11,75,0,0
98181,-90.9090909090909,4,3,11,85,0,1
107070,-111.111111111111,4,3,11,60,0,0
115546,277.777777777778,4,3,11,60,1,0
115962,277.777777777778,4,3,11,70,1,0
133739,-100,4,3,11,65,0,0
142628,-100,4,3,11,75,0,0
151517,-90.9090909090909,4,3,11,85,0,1
168739,-100,4,3,11,80,0,0
169295,-90.9090909090909,4,3,11,85,0,1
175962,-100,4,3,11,80,0,0
178184,-90.9090909090909,4,3,11,85,0,1
184848,277.777777777778,3,3,11,70,1,0
188181,277.777777777778,4,3,11,70,1,0
189292,277.777777777778,3,3,11,70,1,0
192625,277.777777777778,4,3,11,70,1,0
193736,277.777777777778,3,3,11,75,1,0
197069,277.777777777778,4,3,11,75,1,0
198180,277.777777777778,3,3,11,75,1,0
200680,277.777777777778,4,3,11,75,1,0
201791,277.777777777778,3,3,11,75,1,0
202624,277.777777777778,4,3,11,75,1,0
204846,-100,4,3,11,70,0,0
213735,-100,4,3,11,80,0,0
226651,-33.3333333333333,4,3,11,85,0,0
227068,-100,4,3,11,60,0,0
244707,-100,4,3,11,5,0,0
244846,-100,4,3,11,60,0,0
257624,-100,4,3,11,60,0,0
258179,-100,4,3,11,65,0,0
262624,-100,4,3,11,70,0,0
264846,-90.9090909090909,4,3,11,85,0,1
280401,-100,4,3,11,75,0,0
287068,-40,4,3,11,80,0,0
288179,-100,4,3,11,80,0,0
289290,-90.9090909090909,4,3,11,85,0,1
297624,-100,4,3,11,75,0,0
298179,-111.111111111111,4,3,11,60,0,0
302624,-100,4,3,11,70,0,0
307068,-90.9090909090909,4,3,11,85,0,1
311512,-100,4,3,11,70,0,0
315957,-90.9090909090909,4,3,11,85,0,1
320401,-100,4,3,11,75,0,0
338179,-100,4,3,11,80,0,0
347068,-40,4,3,11,60,0,0
347346,-40,4,3,11,5,0,0
347438,-40,4,3,11,60,0,0
347716,-40,4,3,11,5,0,0
347809,-40,4,3,11,60,0,0
348086,-40,4,3,11,5,0,0
348179,-40,4,3,11,60,0,0
348457,-40,4,3,11,5,0,0
348549,-40,4,3,11,60,0,0
348827,-40,4,3,11,5,0,0
348920,-40,4,3,11,60,0,0
349198,-40,4,3,11,5,0,0
349290,-40,4,3,11,60,0,0
349568,-40,4,3,11,5,0,0
349661,-40,4,3,11,60,0,0
349938,-40,4,3,11,5,0,0
350031,-40,4,3,11,60,0,0
350309,-40,4,3,11,5,0,0
350401,-40,4,3,11,60,0,0
350679,-40,4,3,11,5,0,0
350772,-40,4,3,11,60,0,0
351049,-40,4,3,11,5,0,0
351142,-40,4,3,11,60,0,0
351420,-40,4,3,11,5,0,0
351512,-100,4,3,11,80,0,0
355957,-100,4,2,11,60,0,0
370957,-100,4,2,11,50,0,0
371512,-100,4,2,11,40,0,0
373735,-100,4,2,11,5,0,0

[Colours]
Combo1 : 243,75,75
Combo2 : 126,112,207
Combo3 : 222,125,97
Combo4 : 99,220,148

[HitObjects]
336,293,404,5,2,0:0:0:0:
199,231,681,2,0,L|194:134,1,86.5
321,129,959,2,0,L|324:42,1,86.5,2|0,0:0|0:0,0:0:0:0:
237,103,1237,2,0,L|240:16,1,86.5
372,22,1515,6,0,P|429:64|370:123,1,173,2|0,0:0|0:0,0:0:0:0:
197,187,2070,2,0,L|194:274,1,86.5
281,213,2348,2,0,L|278:300,1,86.5
78,212,2626,6,0,P|90:133|171:98,1,173,2|0,0:0|0:0,0:0:0:0:
255,95,3042,1,0,0:0:0:0:
165,190,3181,2,0,L|160:279,1,86.5,2|0,0:0|0:0,0:0:0:0:
157,331,3598,1,0,0:0:0:0:
296,318,3737,6,0,P|340:283|295:182,1,173,2|0,0:0|0:0,0:0:0:0:
133,167,4292,2,0,L|129:76,1,86.5,2|0,0:0|0:0,0:0:0:0:
216,64,4570,2,0,L|302:57,1,86.5
101,232,4848,6,0,P|51:262|115:340,1,173,2|0,0:0|0:0,0:0:0:0:
187,331,5265,1,0,0:0:0:0:
327,332,5404,2,0,L|331:233,1,86.5,2|0,0:0|0:0,0:0:0:0:
156,256,5820,1,0,0:0:0:0:
362,228,5959,6,0,L|368:35,1,173,2|0,0:0|0:0,0:0:0:0:
194,55,6515,1,2,0:0:0:0:
280,57,6654,1,0,0:0:0:0:
366,59,6792,1,0,0:0:0:0:
453,61,6931,1,0,0:0:0:0:
242,127,7070,6,0,P|189:186|241:258,1,173,2|0,0:0|0:0,0:0:0:0:
321,257,7487,1,0,0:0:0:0:
178,339,7626,2,0,L|172:249,1,86.5,2|0,0:0|0:0,0:0:0:0:
334,189,8042,1,0,0:0:0:0:
212,173,8181,6,0,P|207:116|310:52,1,173,2|0,0:0|0:0,0:0:0:0:
463,52,8737,1,2,0:0:0:0:
220,217,9015,2,0,L|124:227,1,86.5,2|0,0:0|0:0,0:0:0:0:
352,321,9292,6,0,P|397:297|346:208,1,173,2|0,0:0|0:0,0:0:0:0:
180,243,9848,1,0,0:0:0:0:
177,184,9987,2,0,L|374:172,1,173
214,356,10404,6,0,P|153:335|212:119,1,346,2|2,0:0|0:0,0:0:0:0:
479,104,11515,6,0,L|285:100,1,173,2|0,0:0|0:0,0:0:0:0:
296,161,11931,1,0,0:0:0:0:
430,182,12070,2,0,L|435:275,1,86.5,2|0,0:0|0:0,0:0:0:0:
348,292,12348,2,0,L|255:301,1,86.5
52,326,12626,6,0,P|145:302|45:154,1,346,2|2,0:0|0:0,0:0:0:0:
405,239,13737,6,0,L|404:38,1,173,2|0,0:0|0:0,0:0:0:0:
317,59,14154,1,0,0:0:0:0:
489,234,14431,2,0,L|491:337,1,86.5
404,338,14709,1,0,0:0:0:0:
169,340,14848,5,2,0:0:0:0:
248,311,14987,1,0,0:0:0:0:
283,234,15126,1,2,0:0:0:0:
254,155,15265,1,0,0:0:0:0:
177,120,15404,1,2,0:0:0:0:
264,119,15542,1,0,0:0:0:0:
350,117,15681,1,0,0:0:0:0:
437,115,15820,1,0,0:0:0:0:
202,56,15959,6,0,L|5:57,1,173,2|0,0:0|0:0,0:0:0:0:
162,120,16376,2,0,L|340:133,1,173,2|0,0:0|0:0,0:0:0:0:
116,315,16792,2,0,P|81:285|129:216,1,129.75,2|0,0:0|0:0,0:0:0:0:
256,208,17070,5,8,0:0:0:0:
300,196,17140,2,0,L|318:142,2,43.25
158,242,17348,2,0,L|163:292,1,43.25,8|0,0:0|0:0,0:0:0:0:
205,302,17487,2,0,L|252:307,1,43.25
381,341,17626,5,8,0:0:0:0:
182,62,17765,1,0,0:0:0:0:
139,62,17834,1,0,0:0:0:0:
108,91,17904,1,0,0:0:0:0:
105,133,17973,1,0,0:0:0:0:
131,167,18042,1,0,0:0:0:0:
172,174,18112,1,0,0:0:0:0:
364,283,18181,6,0,L|361:190,1,86.5,6|0,0:2|0:0,0:0:0:0:
158,231,18459,2,0,L|153:139,1,86.5,8|0,0:0|0:0,0:0:0:0:
284,136,18737,2,0,L|174:127,1,86.5
409,172,19015,2,0,L|414:80,1,86.5,8|0,0:0|0:0,0:0:0:0:
176,275,19292,6,0,L|86:282,1,86.5,6|0,0:0|0:0,0:0:0:0:
291,271,19570,1,8,0:0:0:0:
377,259,19709,2,0,L|463:250,2,86.5
172,131,20126,2,0,L|167:229,1,86.5,8|0,0:0|0:0,0:0:0:0:
434,187,20404,6,0,L|436:95,1,86.5,2|0,0:0|0:0,0:0:0:0:
236,87,20681,2,0,L|145:84,1,86.5,8|0,0:0|0:0,0:0:0:0:
275,154,20959,2,0,L|283:245,1,86.5
82,233,21237,2,0,L|77:326,1,86.5,8|0,0:0|0:0,0:0:0:0:
343,323,21515,6,0,L|435:321,1,86.5,2|0,0:0|0:0,0:0:0:0:
214,315,21792,2,0,L|212:227,1,86.5,8|0,0:0|0:0,0:0:0:0:
310,211,22070,2,0,L|364:205,1,43.25,2|0,0:0|0:0,0:0:0:0:
287,163,22209,2,0,L|240:163,1,43.25
429,156,22348,2,0,L|436:61,1,86.5,8|0,0:0|0:0,0:0:0:0:
180,69,22626,6,0,L|82:66,1,86.5,6|0,0:0|0:0,0:0:0:0:
314,116,22904,2,0,L|319:209,1,86.5,8|0,0:0|0:0,0:0:0:0:
189,238,23181,2,0,L|277:243,1,86.5
485,241,23459,2,0,L|488:136,1,86.5,8|0,0:0|0:0,0:0:0:0:
236,103,23737,6,0,L|145:100,1,86.5
361,67,24015,2,0,L|451:65,1,86.5,8|0,0:0|0:0,0:0:0:0:
357,134,24292,2,0,L|359:180,1,43.25
426,186,24431,2,0,L|430:236,1,43.25
262,231,24570,2,0,L|155:239,1,86.5,8|0,0:0|0:0,0:0:0:0:
439,306,24848,6,0,L|243:325,1,173,6|8,0:0|0:0,0:0:0:0:
386,250,25265,1,0,0:0:0:0:
262,209,25404,2,0,L|259:117,1,86.5
464,152,25681,2,0,L|469:58,1,86.5,8|0,0:0|0:0,0:0:0:0:
217,67,25959,5,8,0:0:0:0:
329,62,26098,1,8,0:0:0:0:
217,67,26237,1,8,0:0:0:0:
329,62,26376,1,8,0:0:0:0:
113,163,26515,2,0,L|315:154,1,173,6|0,0:2|0:0,0:0:0:0:
372,158,26931,2,0,L|376:212,1,43.25
200,248,27070,5,4,0:0:0:0:
297,257,27209,1,0,0:0:0:0:
92,274,27348,2,0,L|87:180,1,86.5,2|0,0:0|0:0,0:0:0:0:
306,101,27626,1,10,0:0:0:0:
199,116,27765,1,0,0:0:0:0:
306,101,27904,1,2,0:0:0:0:
56,54,28042,6,0,L|52:161,1,86.5,0|2,0:0|0:0,0:0:0:0:
261,231,28320,1,0,0:0:0:0:
145,235,28459,1,2,0:0:0:0:
261,231,28598,1,0,0:0:0:0:
53,279,28737,1,10,0:0:0:0:
314,341,28876,2,0,L|502:336,1,173,4|0,0:0|0:0,0:0:0:0:
186,214,29292,6,0,L|184:112,1,86.5,8|0,0:0|0:0,0:0:0:0:
311,122,29570,2,0,L|403:116,1,86.5
175,334,29848,1,8,0:0:0:0:
283,322,29987,1,0,0:0:0:0:
167,310,30126,1,2,0:0:0:0:
422,268,30265,6,0,L|425:177,1,86.5,0|2,0:0|0:0,0:0:0:0:
295,161,30542,1,0,0:0:0:0:
427,144,30681,1,2,0:0:0:0:
295,161,30820,1,0,0:0:0:0:
87,196,30959,1,10,0:0:0:0:
173,187,31098,2,0,P|217:156|162:68,1,173,4|0,0:0|0:0,0:0:0:0:
127,64,31445,1,0,0:0:0:0:
323,64,31515,6,0,L|414:67,1,86.5,12|0,0:0|0:0,0:0:0:0:
415,123,31723,1,0,0:0:0:0:
285,143,31792,2,0,L|283:245,1,86.5,8|0,0:0|0:0,0:0:0:0:
327,237,32001,1,0,0:0:0:0:
479,272,32070,2,0,L|378:281,1,86.5,10|0,0:0|0:0,0:0:0:0:
180,321,32348,2,0,L|278:330,1,86.5,8|0,0:0|0:0,0:0:0:0:
54,296,32626,6,0,L|53:206,1,86.5,8|0,0:0|0:0,0:0:0:0:
99,201,32834,1,0,0:0:0:0:
233,170,32904,2,0,L|323:167,1,86.5,8|0,0:0|0:0,0:0:0:0:
48,96,33181,6,0,L|107:91,1,43.25,8|0,0:0|0:0,0:0:0:0:
285,82,33320,2,0,L|345:78,1,43.25,8|8,0:0|0:0,0:0:0:0:
133,63,33459,2,0,L|86:61,1,43.25,8|0,0:0|0:0,0:0:0:0:
154,39,33598,2,0,L|215:36,1,43.25
358,151,33737,5,12,0:0:0:0:
243,176,33876,1,0,0:0:0:0:
358,151,34015,1,0,0:0:0:0:
137,234,34154,1,8,0:0:0:0:
249,246,34292,1,0,0:0:0:0:
361,263,34431,1,0,0:0:0:0:
98,320,34570,5,12,0:0:0:0:
218,332,34709,1,0,0:0:0:0:
98,320,34848,1,0,0:0:0:0:
316,317,34987,1,8,0:0:0:0:
440,320,35126,1,0,0:0:0:0:
316,317,35265,1,0,0:0:0:0:
54,297,35404,1,12,0:0:0:0:
355,165,35542,2,0,L|130:163,1,216.25,12|0,0:0|0:0,0:0:0:0:
337,310,35959,6,0,P|378:282|323:190,1,173,4|0,0:2|0:0,0:0:0:0:
153,201,36515,2,0,L|350:186,1,173,10|0,0:0|0:0,0:0:0:0:
335,265,36931,1,0,0:0:0:0:
205,284,37070,6,0,P|177:255|209:132,1,173,2|0,0:0|0:0,0:0:0:0:
376,156,37626,1,10,0:0:0:0:
291,151,37765,2,0,L|202:145,2,86.5
496,320,38181,6,0,P|490:257|389:197,1,173,2|0,0:0|0:0,0:0:0:0:
233,204,38737,2,0,L|415:196,1,173,10|0,0:0|0:0,0:0:0:0:
411,120,39154,1,0,0:0:0:0:
279,90,39292,6,0,L|103:100,1,173,2|0,0:0|0:0,0:0:0:0:
103,168,39709,1,0,0:0:0:0:
237,234,39848,2,0,L|244:339,1,86.5,10|0,0:0|0:0,0:0:0:0:
372,319,40126,2,0,L|275:320,1,86.5
67,352,40404,6,0,P|39:307|125:230,1,173,2|0,0:0|0:0,0:0:0:0:
192,227,40820,1,0,0:0:0:0:
332,207,40959,2,0,L|335:113,1,86.5,10|0,0:0|0:0,0:0:0:0:
248,120,41237,2,0,L|247:25,1,86.5
462,39,41515,6,0,P|464:101|368:156,1,173,2|0,0:0|0:0,0:0:0:0:
296,166,41931,1,0,0:0:0:0:
177,198,42070,1,10,0:0:0:0:
295,238,42209,1,0,0:0:0:0:
382,240,42348,1,0,0:0:0:0:
468,243,42487,1,0,0:0:0:0:
251,328,42626,6,0,P|213:297|265:189,1,173,2|0,0:0|0:0,0:0:0:0:
335,176,43042,1,0,0:0:0:0:
205,135,43181,2,0,L|202:34,1,86.5,10|0,0:0|0:0,0:0:0:0:
114,34,43459,2,0,L|28:26,1,86.5
251,190,43737,6,0,L|341:192,1,86.5,2|0,0:0|0:0,0:0:0:0:
204,225,44015,2,0,L|198:318,1,86.5
421,308,44292,2,0,L|425:212,1,86.5,8|0,0:0|0:0,0:0:0:0:
211,144,44570,1,8,0:0:0:0:
429,137,44709,1,8,0:0:0:0:
164,138,44848,6,0,L|62:140,1,86.5,2|0,0:0|0:0,0:0:0:0:
296,193,45126,2,0,L|299:293,1,86.5,8|0,0:0|0:0,0:0:0:0:
180,286,45404,1,2,0:0:0:0:
300,303,45542,1,0,0:0:0:0:
87,316,45681,1,8,0:0:0:0:
352,333,45820,6,0,L|356:240,1,86.5,0|2,0:0|0:0,0:0:0:0:
229,234,46098,1,0,0:0:0:0:
455,224,46237,2,0,L|461:117,1,86.5,8|0,0:0|0:0,0:0:0:0:
253,132,46515,1,2,0:0:0:0:
357,123,46654,2,0,L|464:115,2,86.5,0|8|0,0:0|0:0|0:0,0:0:0:0:
52,95,47070,6,0,L|47:189,1,86.5,2|0,0:0|0:0,0:0:0:0:
266,195,47348,1,8,0:0:0:0:
163,186,47487,1,0,0:0:0:0:
269,238,47626,2,0,L|279:331,1,86.5,2|0,0:0|0:0,0:0:0:0:
58,329,47904,2,0,L|147:330,1,86.5,8|0,0:0|0:0,0:0:0:0:
403,316,48181,6,0,L|415:197,1,86.5,2|0,0:0|0:0,0:0:0:0:
190,207,48459,2,0,L|187:113,1,86.5,8|0,0:0|0:0,0:0:0:0:
448,102,48737,1,2,0:0:0:0:
333,112,48876,1,0,0:0:0:0:
448,102,49015,1,8,0:0:0:0:
333,112,49154,1,0,0:0:0:0:
33,201,49292,6,0,L|27:293,1,86.5,2|0,0:0|0:0,0:0:0:0:
240,290,49570,1,8,0:0:0:0:
134,282,49709,1,0,0:0:0:0:
385,275,49848,2,0,L|388:183,1,86.5,2|0,0:0|0:0,0:0:0:0:
181,180,50126,2,0,L|83:176,1,86.5,8|0,0:0|0:0,0:0:0:0:
395,118,50404,6,0,L|498:114,1,86.5,2|0,0:0|0:0,0:0:0:0:
224,118,50681,2,0,L|316:116,1,86.5,8|0,0:0|0:0,0:0:0:0:
188,213,50959,1,2,0:0:0:0:
154,237,51029,1,0,0:0:0:0:
151,278,51098,1,0,0:0:0:0:
181,308,51167,1,0,0:0:0:0:
330,313,51237,2,0,L|418:319,1,86.5,8|0,0:0|0:0,0:0:0:0:
153,160,51515,6,0,L|152:61,1,86.5,2|0,0:0|0:0,0:0:0:0:
367,71,51792,2,0,L|462:67,1,86.5,8|0,0:0|0:0,0:0:0:0:
231,153,52070,2,0,L|326:149,1,86.5,2|0,0:0|0:0,0:0:0:0:
96,228,52348,2,0,L|89:334,1,86.5,8|0,0:0|0:0,0:0:0:0:
441,265,52626,5,8,0:0:0:0:
319,278,52765,1,8,0:0:0:0:
441,265,52904,1,8,0:0:0:0:
231,286,53042,1,8,0:0:0:0:
496,256,53181,2,0,L|495:152,1,86.5,12|0,0:0|0:0,0:0:0:0:
16,304,53737,6,0,L|13:142,1,155.699995248413,4|0,0:2|0:0,0:0:0:0:
93,155,54154,2,0,L|94:69,1,77.8499976242066,0|8,0:0|0:0,0:0:0:0:
443,69,54570,6,0,P|383:87|423:281,1,311.399990496826
494,272,55265,1,0,0:0:0:0:
375,315,55404,2,0,L|375:142,1,155.699995248413,8|0,0:0|0:0,0:0:0:0:
24,328,55959,6,0,L|32:150,1,155.699995248413
110,174,56376,1,0,0:0:0:0:
226,173,56515,2,0,L|231:86,1,77.8499976242066,8|0,0:0|0:0,0:0:0:0:
30,123,56792,6,0,P|29:68|123:23,1,155.699995248413
178,13,57209,1,0,0:0:0:0:
298,159,57348,1,0,0:0:0:0:
87,194,57626,2,0,L|84:285,1,77.8499976242066,8|0,0:0|0:0,0:0:0:0:
160,287,57904,2,0,L|249:294,1,77.8499976242066
480,304,58181,6,0,L|301:314,2,155.699995248413,0|0|8,0:0|0:0|0:0,0:0:0:0:
485,195,59015,2,0,L|481:104,1,77.8499976242066
188,201,59478,6,0,L|186:135,1,51.8999984161377
379,94,59848,2,0,L|211:94,1,155.699995248413,8|0,0:0|0:0,0:0:0:0:
145,87,60265,1,0,0:0:0:0:
361,277,60404,6,0,P|403:206|352:153,1,155.699995248413
161,146,60959,1,8,0:0:0:0:
370,115,61237,6,0,P|411:78|366:1,1,155.699995248413
289,114,61654,1,0,0:0:0:0:
400,183,61792,1,0,0:0:0:0:
184,210,62070,2,0,L|283:209,1,77.8499976242066,8|8,0:0|0:0,0:0:0:0:
465,320,62348,2,0,L|386:324,1,77.8499976242066,8|8,0:0|0:0,0:0:0:0:
180,148,62626,6,0,L|20:146,1,155.699995248413
120,204,63042,1,0,0:0:0:0:
18,213,63181,1,8,0:0:0:0:
226,253,63459,2,0,L|324:255,1,77.8499976242066
105,311,63737,6,0,L|112:216,1,77.8499976242066
232,193,64015,2,0,L|321:187,1,77.8499976242066
112,125,64292,2,0,L|292:114,1,155.699995248413,8|0,0:0|0:0,0:0:0:0:
389,105,64709,1,0,0:0:0:0:
123,53,64848,6,0,P|123:116|197:180,1,155.699995248413
263,185,65265,1,0,0:0:0:0:
390,191,65404,2,0,L|212:212,1,155.699995248413,8|0,0:0|0:0,0:0:0:0:
231,272,65820,1,0,0:0:0:0:
435,300,65959,6,0,L|432:201,1,77.8499976242066
233,163,66237,2,0,L|102:155,1,116.77499643631
271,105,66515,5,8,0:0:0:0:
154,87,66654,2,0,L|148:25,1,43.25,8|0,0:0|0:0,0:0:0:0:
334,33,66792,2,0,L|388:32,1,43.25,8|8,0:0|0:0,0:0:0:0:
305,30,66931,2,0,L|231:28,1,43.25,8|8,0:0|0:0,0:0:0:0:
86,88,67070,6,0,L|186:92,1,86.5,4|0,0:0|0:0,0:0:0:0:
407,143,67348,2,0,L|417:239,1,86.5,8|0,0:0|0:0,0:0:0:0:
288,239,67626,1,0,0:0:0:0:
496,240,67765,1,8,0:0:0:0:
368,272,67904,1,0,0:0:0:0:
496,240,68042,1,0,0:0:0:0:
100,316,68181,6,0,L|106:212,1,86.5,12|0,0:0|0:0,0:0:0:0:
235,227,68459,1,0,0:0:0:0:
16,224,68598,1,8,0:0:0:0:
280,168,68737,6,0,L|345:159,1,43.25
149,151,68876,2,0,L|104:154,1,43.25
255,109,69015,2,0,L|257:65,1,43.25
198,31,69154,2,0,L|139:29,1,43.25
350,211,69292,5,12,0:0:0:0:
246,219,69431,1,0,0:0:0:0:
350,211,69570,1,0,0:0:0:0:
109,258,69709,1,12,0:0:0:0:
226,271,69848,1,0,0:0:0:0:
343,282,69987,1,0,0:0:0:0:
90,323,70126,5,12,0:0:0:0:
399,169,70542,2,0,L|402:111,1,43.25,8|8,0:0|0:0,0:0:0:0:
223,90,70681,2,0,L|126:87,1,86.5,8|0,0:0|0:0,0:0:0:0:
91,84,70890,1,0,0:0:0:0:
222,36,70959,1,8,0:0:0:0:
119,32,71098,1,8,0:0:0:0:
336,35,71237,1,8,0:0:0:0:
119,32,71376,1,8,0:0:0:0:
488,158,71515,6,0,L|492:261,1,95.1500029037476,6|0,0:2|0:0,0:0:0:0:
278,254,71792,2,0,L|176:259,1,95.1500029037476,10|0,0:0|0:0,0:0:0:0:
414,322,72070,1,2,0:0:0:0:
282,309,72209,1,2,0:0:0:0:
409,285,72348,2,0,L|402:168,1,95.1500029037476,8|2,0:0|0:0,0:0:0:0:
146,175,72626,6,0,L|24:168,1,95.1500029037476,2|0,0:0|0:0,0:0:0:0:
256,160,72904,2,0,L|257:48,1,95.1500029037476,10|0,0:0|0:0,0:0:0:0:
36,46,73181,1,2,0:0:0:0:
152,64,73320,1,0,0:0:0:0:
30,97,73459,2,0,L|25:207,1,95.1500029037476,10|0,0:0|0:0,0:0:0:0:
282,224,73737,6,0,L|171:230,1,95.1500029037476,6|0,0:0|0:0,0:0:0:0:
305,352,74015,2,0,L|306:252,1,95.1500029037476,10|0,0:0|0:0,0:0:0:0:
74,313,74292,1,2,0:0:0:0:
295,186,74431,2,0,L|396:188,2,95.1500029037476,2|8|0,0:0|0:0|0:0,0:0:0:0:
54,83,74848,5,6,0:0:0:0:
171,90,74987,1,0,0:0:0:0:
54,83,75126,1,8,0:0:0:0:
262,54,75265,1,2,0:0:0:0:
47,140,75404,2,0,L|177:150,1,95.1500029037476,2|0,0:0|0:0,0:0:0:0:
271,166,75681,1,10,0:0:0:0:
145,232,75820,1,10,0:0:0:0:
401,253,75959,6,0,L|516:258,1,95.1500029037476,6|0,0:0|0:0,0:0:0:0:
277,315,76237,2,0,L|272:209,1,95.1500029037476,10|0,0:0|0:0,0:0:0:0:
400,188,76515,2,0,L|401:88,1,95.1500029037476,2|0,0:0|0:0,0:0:0:0:
178,98,76792,1,8,0:0:0:0:
451,51,76931,6,0,L|345:48,1,95.1500029037476,2|0,0:0|0:0,0:0:0:0:
225,54,77209,1,2,0:0:0:0:
358,112,77348,2,0,L|362:220,1,95.1500029037476,8|2,0:0|0:0,0:0:0:0:
137,196,77626,2,0,L|31:204,1,95.1500029037476,2|0,0:0|0:0,0:0:0:0:
257,267,77904,2,0,L|158:277,1,95.1500029037476,10|0,0:0|0:0,0:0:0:0:
447,303,78181,5,14,0:0:0:0:
321,291,78320,1,0,0:0:0:0:
447,303,78459,1,0,0:0:0:0:
206,182,78598,1,10,0:0:0:0:
340,186,78737,1,0,0:0:0:0:
206,182,78876,1,0,0:0:0:0:
492,127,79015,5,14,0:0:0:0:
359,118,79154,1,0,0:0:0:0:
226,107,79292,1,0,0:0:0:0:
446,52,79431,2,0,L|333:48,1,95.1500029037476,8|8,0:0|0:0,0:0:0:0:
124,50,79709,1,8,0:0:0:0:
350,171,79848,6,0,L|268:178,1,47.5750014518738,10|8,0:0|0:0,0:0:0:0:
137,185,79987,1,8,0:0:0:0:
343,246,80126,2,0,L|348:361,1,95.1500029037476,10|8,0:0|0:0,0:0:0:0:
54,304,80404,6,0,L|53:197,1,95.1500029037476,6|0,0:2|0:0,0:0:0:0:
264,163,80681,2,0,L|272:59,1,95.1500029037476,10|0,0:0|0:0,0:0:0:0:
51,55,80959,1,2,0:0:0:0:
174,45,81098,1,2,0:0:0:0:
51,55,81237,1,8,0:0:0:0:
331,52,81376,5,2,0:0:0:0:
420,66,81515,2,0,L|421:173,1,95.1500029037476
285,161,81792,2,0,L|178:173,1,95.1500029037476,10|0,0:0|0:0,0:0:0:0:
468,246,82070,2,0,L|473:324,1,47.5750014518738,2|0,0:0|0:0,0:0:0:0:
421,321,82209,2,0,L|366:322,1,47.5750014518738,2|0,0:0|0:0,0:0:0:0:
203,318,82348,2,0,L|84:313,1,95.1500029037476,8|0,0:0|0:0,0:0:0:0:
351,240,82626,6,0,L|350:122,1,95.1500029037476,2|0,0:0|0:0,0:0:0:0:
131,135,82904,2,0,L|12:132,1,95.1500029037476,10|0,0:0|0:0,0:0:0:0:
269,101,83181,1,2,0:0:0:0:
142,95,83320,1,2,0:0:0:0:
272,137,83459,2,0,L|278:240,1,95.1500029037476,8|0,0:0|0:0,0:0:0:0:
16,272,83737,6,0,L|118:277,1,95.1500029037476,2|0,0:0|0:0,0:0:0:0:
243,289,84015,1,8,0:0:0:0:
22,209,84154,1,2,0:0:0:0:
309,177,84292,1,8,0:0:0:0:
245,169,84385,1,8,0:0:0:0:
180,162,84478,1,8,0:0:0:0:
372,120,84570,2,0,L|468:118,1,95.1500029037476,10|2,0:0|0:0,0:0:0:0:
122,117,84848,6,0,L|115:220,1,95.1500029037476,6|0,0:0|0:0,0:0:0:0:
166,225,85056,1,0,0:0:0:0:
326,228,85126,2,0,L|433:235,1,95.1500029037476,10|2,0:0|0:0,0:0:0:0:
119,300,85404,1,4,0:0:0:0:
215,321,85542,2,0,L|217:264,1,47.5750014518738,2|0,0:0|0:0,0:0:0:0:
51,253,85681,2,0,L|45:138,1,95.1500029037476,8|2,0:0|0:0,0:0:0:0:
97,152,85890,1,0,0:0:0:0:
287,135,85959,6,0,L|403:130,1,95.1500029037476,4|0,0:0|0:0,0:0:0:0:
428,133,86167,1,2,0:0:0:0:
280,83,86237,2,0,L|171:88,1,95.1500029037476,8|2,0:0|0:0,0:0:0:0:
416,54,86515,1,10,0:0:0:0:
145,150,86654,2,0,L|139:225,1,47.5750014518738,8|8,0:0|0:0,0:0:0:0:
286,211,86792,2,0,L|402:213,1,95.1500029037476,10|0,0:0|0:0,0:0:0:0:
49,281,87070,6,0,L|41:172,1,95.1500029037476,6|0,0:0|0:0,0:0:0:0:
262,170,87348,1,8,0:0:0:0:
156,143,87487,2,0,L|155:81,1,47.5750014518738
202,66,87626,2,0,L|262:57,1,47.5750014518738
81,39,87765,2,0,L|13:34,1,47.5750014518738,8|8,0:0|0:0,0:0:0:0:
201,235,87904,2,0,L|260:240,1,47.5750014518738
183,287,88042,2,0,L|122:281,1,47.5750014518738
353,286,88181,6,0,L|467:289,1,95.1500029037476,8|8,0:0|0:0,0:0:0:0:
399,226,88390,1,8,0:0:0:0:
230,172,88459,2,0,L|222:107,1,47.5750014518738,8|8,0:0|0:0,0:0:0:0:
396,115,88598,2,0,L|396:59,1,47.5750014518738,8|8,0:0|0:0,0:0:0:0:
192,52,88737,6,0,L|-4:60,1,173,4|0,0:2|0:0,0:0:0:0:
380,338,89292,6,0,L|383:176,1,155.699995248413,4|2,0:0|0:0,0:0:0:0:
304,183,89709,1,0,0:0:0:0:
188,182,89848,2,0,L|180:345,1,155.699995248413,8|0,0:0|0:0,0:0:0:0:
403,340,90404,6,0,L|231:338,1,155.699995248413,2|2,0:0|0:0,0:0:0:0:
170,335,90820,1,0,0:0:0:0:
286,269,90959,2,0,L|454:274,1,155.699995248413,8|0,0:0|0:0,0:0:0:0:
66,261,91515,6,0,P|36:207|60:118,1,155.699995248413,0|2,0:0|0:0,0:0:0:0:
135,114,91931,1,0,0:0:0:0:
334,114,92070,2,0,L|500:109,1,155.699995248413,10|2,0:0|0:0,0:0:0:0:
490,46,92487,1,0,0:0:0:0:
280,145,92626,6,0,L|193:151,1,77.8499976242066,2|0,0:0|0:0,0:0:0:0:
404,185,92904,1,2,0:0:0:0:
45,216,93181,2,0,L|153:224,1,77.8499976242066,8|0,0:0|0:0,0:0:0:0:
397,282,93459,2,0,L|308:279,1,77.8499976242066,8|0,0:0|0:0,0:0:0:0:
16,128,93737,5,14,0:0:0:0:
136,131,93876,1,0,0:0:0:0:
16,128,94015,1,2,0:0:0:0:
147,131,94154,1,0,0:0:0:0:
351,129,94292,1,2,0:0:0:0:
227,123,94431,1,0,0:0:0:0:
458,129,94570,2,0,L|462:29,1,86.5,4|0,0:0|0:0,0:0:0:0:
201,202,94848,5,2,0:0:0:0:
328,215,94987,1,0,0:0:0:0:
201,202,95126,1,8,0:0:0:0:
425,231,95265,1,0,0:0:0:0:
293,260,95404,2,0,L|286:356,1,86.5,2|0,0:0|0:0,0:0:0:0:
284,375,95612,1,0,0:0:0:0:
456,361,95681,2,0,L|365:354,1,86.5,8|0,0:0|0:0,0:0:0:0:
29,326,95959,5,12,0:0:0:0:
148,328,96098,1,0,0:0:0:0:
29,326,96237,1,0,0:0:0:0:
148,328,96376,1,0,0:0:0:0:
368,255,96515,1,8,0:0:0:0:
249,257,96654,1,0,0:0:0:0:
130,255,96792,1,0,0:0:0:0:
249,257,96931,1,0,0:0:0:0:
496,176,97070,5,12,0:0:0:0:
374,176,97209,1,0,0:0:0:0:
155,170,97348,1,0,0:0:0:0:
374,176,97487,1,0,0:0:0:0:
32,128,97626,1,10,0:0:0:0:
133,117,97765,2,0,L|198:113,1,43.25
370,105,97904,2,0,L|418:101,1,43.25,2|0,0:0|0:0,0:0:0:0:
261,78,98042,2,0,L|202:72,1,43.25
459,170,98181,6,0,L|461:270,1,95.1500029037476,6|0,0:2|0:0,0:0:0:0:
236,271,98459,2,0,L|125:274,1,95.1500029037476,10|0,0:0|0:0,0:0:0:0:
383,323,98737,1,10,0:0:0:0:
256,313,98876,1,2,0:0:0:0:
485,307,99015,2,0,L|488:200,1,95.1500029037476,8|2,0:0|0:0,0:0:0:0:
200,144,99292,6,0,L|96:134,1,95.1500029037476,8|0,0:0|0:0,0:0:0:0:
346,114,99570,2,0,L|246:103,1,95.1500029037476,10|0,0:0|0:0,0:0:0:0:
481,87,99848,1,10,0:0:0:0:
246,55,99987,2,0,L|241:2,1,47.5750014518738,2|0,0:0|0:0,0:0:0:0:
414,22,100126,2,0,L|520:17,1,95.1500029037476,8|0,0:0|0:0,0:0:0:0:
211,197,100404,6,0,L|208:302,1,95.1500029037476,6|0,0:0|0:0,0:0:0:0:
447,315,100681,2,0,L|442:200,1,95.1500029037476,10|0,0:0|0:0,0:0:0:0:
178,332,100959,1,6,0:0:0:0:
298,321,101098,1,2,0:0:0:0:
57,274,101237,2,0,L|59:166,1,95.1500029037476,8|0,0:0|0:0,0:0:0:0:
349,126,101515,5,2,0:0:0:0:
227,140,101654,1,0,0:0:0:0:
349,126,101792,1,8,0:0:0:0:
55,133,101931,2,0,L|155:132,1,95.1500029037476,2|0,0:0|0:0,0:0:0:0:
442,207,102209,2,0,L|447:282,1,47.5750014518738,2|2,0:0|0:0,0:0:0:0:
301,264,102348,2,0,L|237:268,1,47.5750014518738,2|0,0:0|0:0,0:0:0:0:
422,307,102487,2,0,L|486:311,1,47.5750014518738
275,329,102626,6,0,L|149:334,1,95.1500029037476,4|0,0:0|0:0,0:0:0:0:
418,162,102904,1,8,0:0:0:0:
282,152,103042,2,0,L|273:37,1,95.1500029037476
412,43,103320,1,0,0:0:0:0:
173,53,103459,1,8,0:0:0:0:
462,181,103598,6,0,L|469:278,1,95.1500029037476
330,278,103876,2,0,L|257:282,1,47.5750014518738
115,299,104015,2,0,L|106:200,1,95.1500029037476,8|0,0:0|0:0,0:0:0:0:
240,186,104292,2,0,L|353:175,1,95.1500029037476
112,121,104570,2,0,L|5:116,1,95.1500029037476,8|0,0:0|0:0,0:0:0:0:
318,67,104848,5,4,0:0:0:0:
202,60,104987,1,0,0:0:0:0:
421,75,105126,2,0,L|431:190,1,95.1500029037476,8|0,0:0|0:0,0:0:0:0:
185,177,105404,1,0,0:0:0:0:
305,181,105542,1,0,0:0:0:0:
83,172,105681,1,8,0:0:0:0:
370,346,105820,6,0,P|412:317|347:211,1,190.300005807495,4|8,0:0|0:0,0:0:0:0:
318,203,106167,1,8,0:0:0:0:
141,241,106237,1,8,0:0:0:0:
257,252,106376,1,2,0:0:0:0:
21,107,106515,1,8,0:0:0:0:
151,116,106654,1,8,0:0:0:0:
21,107,106792,1,8,0:0:0:0:
320,121,106931,1,8,0:0:0:0:
119,158,107070,6,0,L|116:336,1,155.699995248413,2|0,0:2|0:0,0:0:0:0:
196,318,107487,1,2,0:2:0:0:
312,323,107626,2,0,L|313:230,1,77.8499976242066,8|0,0:0|0:0,0:0:0:0:
233,236,107904,2,0,L|230:142,1,77.8499976242066,2|0,0:2|0:0,0:0:0:0:
427,82,108181,6,0,L|424:159,1,77.8499976242066,2|0,0:0|0:0,0:0:0:0:
310,115,108459,2,0,L|307:192,1,77.8499976242066
194,179,108737,2,0,L|22:174,1,155.699995248413,8|0,0:0|0:0,0:0:0:0:
413,40,109292,5,2,0:2:0:0:
490,45,109431,2,0,L|496:141,2,77.8499976242066,2|0|0,0:2|0:0|0:0,0:0:0:0:
277,122,109848,2,0,L|273:219,1,77.8499976242066,10|2,0:2|0:2,0:0:0:0:
353,174,110126,2,0,L|349:271,1,77.8499976242066
153,283,110404,6,0,L|159:191,1,77.8499976242066,2|2,0:2|0:2,0:0:0:0:
267,114,110681,2,0,L|350:106,1,77.8499976242066,0|2,0:0|0:2,0:0:0:0:
148,88,110959,1,8,0:0:0:0:
148,88,111237,2,0,L|145:3,1,77.8499976242066
350,27,111515,6,0,L|428:24,1,77.8499976242066,2|0,0:2|0:0,0:0:0:0:
433,103,111792,1,0,0:0:0:0:
311,111,111931,1,2,0:2:0:0:
232,126,112070,2,0,L|230:223,1,77.8499976242066,8|0,0:0|0:0,0:0:0:0:
352,205,112348,2,0,L|358:291,1,77.8499976242066,2|0,0:2|0:0,0:0:0:0:
160,299,112626,6,0,L|245:303,1,77.8499976242066
358,317,112904,1,0,0:0:0:0:
16,256,113181,2,0,P|30:184|104:157,1,155.699995248413,8|0,0:0|0:0,0:0:0:0:
480,256,113737,6,0,L|488:211,3,38.9249988121033,2|0|2|0,0:2|0:0|0:2|0:0,0:0:0:0:
447,263,114015,1,0,0:0:0:0:
409,255,114084,1,0,0:0:0:0:
381,228,114154,1,0,0:0:0:0:
372,191,114223,1,0,0:0:0:0:
294,145,114292,6,0,L|241:138,1,38.9249988121033,10|0,0:2|0:0,0:0:0:0:
296,104,114431,2,0,L|340:103,1,38.9249988121033,2|0,0:2|0:0,0:0:0:0:
295,78,114570,1,0,0:0:0:0:
256,75,114640,1,0,0:0:0:0:
217,72,114709,1,0,0:0:0:0:
178,69,114779,1,0,0:0:0:0:
257,334,114848,5,0,0:0:0:0:
282,305,114917,1,0,0:0:0:0:
275,269,114987,1,0,0:0:0:0:
242,251,115056,1,0,0:0:0:0:
164,303,115126,1,0,0:0:0:0:
131,283,115195,1,0,0:0:0:0:
127,246,115265,1,0,0:0:0:0:
154,220,115334,1,0,0:0:0:0:
311,196,115404,6,0,L|354:194,1,38.9249988121033,8|8,0:0|0:0,0:0:0:0:
192,186,115546,1,8,0:0:0:0:
181,162,115592,1,8,0:0:0:0:
190,134,115638,1,8,0:0:0:0:
322,122,115684,2,0,L|400:121,1,43.25,8|8,0:0|0:0,0:0:0:0:
181,64,115823,2,0,L|113:58,1,43.25,8|8,0:0|0:0,0:0:0:0:
359,62,115962,6,0,L|472:59,1,86.5,4|0,0:2|0:0,0:0:0:0:
239,157,116239,2,0,L|233:250,1,86.5,8|0,0:0|0:0,0:0:0:0:
354,228,116517,2,0,L|359:325,1,86.5
154,314,116795,2,0,L|57:314,1,86.5,8|0,0:0|0:0,0:0:0:0:
321,346,117073,6,0,L|321:253,1,86.5,4|0,0:0|0:0,0:0:0:0:
109,218,117350,2,0,L|200:214,1,86.5,8|0,0:0|0:0,0:0:0:0:
77,172,117628,2,0,L|72:73,1,86.5
279,70,117906,2,0,L|379:65,1,86.5,8|0,0:0|0:0,0:0:0:0:
112,32,118184,6,0,L|21:30,1,86.5,4|0,0:0|0:0,0:0:0:0:
238,138,118462,2,0,L|239:236,1,86.5,8|0,0:0|0:0,0:0:0:0:
121,247,118739,1,0,0:0:0:0:
241,275,118878,1,0,0:0:0:0:
443,274,119017,2,0,L|446:172,1,86.5,8|0,0:0|0:0,0:0:0:0:
188,154,119295,6,0,L|78:147,1,86.5,4|0,0:0|0:0,0:0:0:0:
341,154,119573,2,0,L|250:146,1,86.5,8|0,0:0|0:0,0:0:0:0:
45,108,119850,6,0,L|43:47,1,43.25,2|0,0:0|0:0,0:0:0:0:
176,38,119989,2,0,L|235:35,1,43.25
372,322,120128,2,0,L|265:317,1,86.5,8|0,0:0|0:0,0:0:0:0:
280,261,120337,1,0,0:0:0:0:
474,261,120406,6,0,L|477:164,1,86.5,4|0,0:0|0:0,0:0:0:0:
270,175,120684,2,0,L|171:172,1,86.5,8|0,0:0|0:0,0:0:0:0:
432,111,120962,2,0,L|333:108,1,86.5,2|0,0:0|0:0,0:0:0:0:
140,163,121239,2,0,L|139:275,1,86.5,8|0,0:0|0:0,0:0:0:0:
399,261,121517,5,4,0:0:0:0:
284,247,121656,1,0,0:0:0:0:
494,238,121795,2,0,L|491:135,1,86.5,8|0,0:0|0:0,0:0:0:0:
374,134,122073,1,0,0:0:0:0:
491,116,122212,2,0,L|429:108,1,43.25
276,100,122350,2,0,L|175:94,1,86.5,8|0,0:0|0:0,0:0:0:0:
476,239,122628,5,6,0:0:0:0:
361,237,122767,2,0,L|355:188,1,43.25,8|8,0:0|0:0,0:0:0:0:
432,262,122906,2,0,L|425:165,1,86.5,8|0,0:0|0:0,0:0:0:0:
313,173,123184,1,0,0:0:0:0:
93,311,123323,5,8,0:0:0:0:
131,281,123392,1,0,0:0:0:0:
142,240,123462,1,0,0:0:0:0:
129,200,123531,1,0,0:0:0:0:
90,174,123600,1,0,0:0:0:0:
204,157,123739,1,0,0:0:0:0:
442,149,123878,6,0,L|445:53,1,86.5,8|0,0:0|0:0,0:0:0:0:
401,49,124087,1,0,0:0:0:0:
357,45,124156,1,0,0:0:0:0:
89,74,124295,2,0,L|278:89,1,173,2|8,0:0|0:0,0:0:0:0:
140,156,124712,1,8,0:0:0:0:
423,261,124850,5,6,0:0:0:0:
306,266,124989,1,2,0:0:0:0:
423,261,125128,1,2,0:0:0:0:
199,262,125267,1,2,0:0:0:0:
460,186,125406,1,2,0:0:0:0:
343,191,125545,1,2,0:0:0:0:
460,186,125684,1,2,0:0:0:0:
241,182,125823,6,0,P|201:155|249:60,1,173,2|2,0:0|0:0,0:0:0:0:
367,56,126239,2,0,L|271:50,1,86.5,2|2,0:0|0:0,0:0:0:0:
72,46,126517,1,12,0:0:0:0:
375,164,126656,2,0,L|126:156,1,216.25,12|0,0:2|0:0,0:0:0:0:
354,325,127073,6,0,L|352:256,1,43.25,10|0,0:0|0:0,0:0:0:0:
310,243,127212,2,0,L|251:238,1,43.25,8|0,0:0|0:0,0:0:0:0:
421,214,127350,2,0,L|479:210,1,43.25,8|0,0:0|0:0,0:0:0:0:
290,189,127489,2,0,L|231:184,1,43.25,8|0,0:0|0:0,0:0:0:0:
401,100,127628,6,0,L|343:95,1,43.25,10|0,0:0|0:0,0:0:0:0:
182,71,127767,2,0,L|111:69,1,43.25,8|0,0:0|0:0,0:0:0:0:
314,103,127906,2,0,L|315:25,1,43.25,8|0,0:0|0:0,0:0:0:0:
99,34,128045,2,0,L|36:33,1,43.25,10|0,0:0|0:0,0:0:0:0:
126,17,128184,2,0,L|183:17,1,43.25,8|0,0:0|0:0,0:0:0:0:
365,172,128323,6,0,L|366:222,1,43.25,10|0,0:0|0:0,0:0:0:0:
210,232,128462,2,0,L|157:234,1,43.25,8|0,0:0|0:0,0:0:0:0:
341,275,128600,2,0,L|393:273,1,43.25,8|0,0:0|0:0,0:0:0:0:
144,310,128739,6,0,L|94:311,1,43.25,10|0,0:0|0:0,0:0:0:0:
319,341,128878,2,0,L|265:338,1,43.25,10|0,0:0|0:0,0:0:0:0:
214,313,129017,2,0,L|211:240,1,43.25,8|0,0:0|0:0,0:0:0:0:
267,266,129156,2,0,L|270:194,1,43.25,8|0,0:0|0:0,0:0:0:0:
32,160,129295,6,0,L|221:178,1,173,10|8,0:0|0:0,0:0:0:0:
87,234,129712,1,2,0:0:0:0:
350,254,129850,1,12,0:0:0:0:
238,240,129989,1,0,0:0:0:0:
453,258,130128,1,8,0:0:0:0:
42,138,130406,5,10,0:0:0:0:
166,143,130545,1,0,0:0:0:0:
377,142,130684,1,10,0:0:0:0:
166,143,130823,1,0,0:0:0:0:
467,99,130962,6,0,L|401:96,1,43.25,8|8,0:0|0:0,0:0:0:0:
206,82,131100,2,0,L|130:79,1,43.25,8|8,0:0|0:0,0:0:0:0:
340,203,131239,2,0,L|341:252,1,43.25,8|8,0:0|0:0,0:0:0:0:
206,260,131378,2,0,L|156:261,1,43.25,8|8,0:0|0:0,0:0:0:0:
387,313,131517,5,12,0:0:0:0:
277,313,131656,1,0,0:0:0:0:
387,313,131795,1,0,0:0:0:0:
122,178,131934,1,10,0:0:0:0:
243,182,132073,1,0,0:0:0:0:
364,186,132212,1,0,0:0:0:0:
55,105,132350,5,12,0:0:0:0:
181,107,132489,1,0,0:0:0:0:
55,105,132628,1,0,0:0:0:0:
321,88,132767,1,10,0:0:0:0:
200,80,132906,1,0,0:0:0:0:
80,70,133045,1,0,0:0:0:0:
382,61,133184,1,10,0:0:0:0:
30,147,133323,2,0,L|25:325,1,173,12|0,0:0|0:0,0:0:0:0:
337,313,133739,6,0,P|333:248|225:192,1,173,4|0,0:0|0:0,0:0:0:0:
46,167,134295,2,0,L|222:174,1,173,2|0,0:0|0:0,0:0:0:0:
304,175,134712,1,0,0:0:0:0:
92,312,134850,6,0,P|51:286|115:197,1,173,2|0,0:0|0:0,0:0:0:0:
279,197,135406,2,0,L|104:197,1,173,10|0,0:0|0:0,0:0:0:0:
100,120,135823,1,0,0:0:0:0:
326,303,135962,6,0,L|323:189,1,86.5,2|0,0:0|0:0,0:0:0:0:
320,156,136170,1,0,0:0:0:0:
255,311,136239,2,0,L|252:197,1,86.5,2|0,0:0|0:0,0:0:0:0:
249,164,136448,1,0,0:0:0:0:
382,212,136517,6,0,L|379:98,1,86.5,10|0,0:0|0:0,0:0:0:0:
376,65,136725,1,0,0:0:0:0:
310,70,136795,2,0,L|216:67,1,86.5,2|0,0:0|0:0,0:0:0:0:
476,323,137073,6,0,L|473:209,1,86.5,2|0,0:0|0:0,0:0:0:0:
470,176,137281,1,0,0:0:0:0:
405,325,137350,2,0,L|402:211,1,86.5,2|0,0:0|0:0,0:0:0:0:
399,178,137559,1,0,0:0:0:0:
268,157,137628,6,0,L|173:151,1,86.5,10|0,0:0|0:0,0:0:0:0:
305,111,137906,1,0,0:0:0:0:
97,141,138045,1,0,0:0:0:0:
356,126,138184,6,0,P|401:95|343:9,1,173,6|0,0:0|0:0,0:0:0:0:
262,12,138600,1,0,0:0:0:0:
43,47,138739,2,0,L|39:140,1,86.5,8|0,0:0|0:0,0:0:0:0:
163,157,139017,2,0,L|42:168,1,86.5
323,223,139295,6,0,L|506:234,1,173,2|0,0:0|0:0,0:0:0:0:
493,314,139712,1,0,0:0:0:0:
277,126,139850,1,8,0:0:0:0:
388,122,139989,2,0,L|486:122,2,86.5
146,219,140406,5,10,0:0:0:0:
268,221,140545,1,8,0:0:0:0:
45,227,140684,2,0,L|38:122,1,86.5,4|0,0:0|0:0,0:0:0:0:
272,114,140962,1,8,0:0:0:0:
148,113,141100,1,8,0:0:0:0:
391,194,141239,2,0,L|484:193,1,86.5,4|0,0:0|0:0,0:0:0:0:
213,290,141517,5,8,0:0:0:0:
334,292,141656,1,8,0:0:0:0:
113,214,141795,2,0,L|217:214,1,86.5,4|0,0:0|0:0,0:0:0:0:
417,225,142073,1,8,0:0:0:0:
161,153,142212,2,0,L|158:87,1,43.25,8|8,0:0|0:0,0:0:0:0:
313,89,142350,2,0,L|373:84,1,43.25,8|8,0:0|0:0,0:0:0:0:
174,72,142489,2,0,L|119:75,1,43.25,8|8,0:0|0:0,0:0:0:0:
309,164,142628,5,6,0:0:0:0:
190,180,142767,1,0,0:0:0:0:
410,203,142906,2,0,L|413:304,1,86.5,10|0,0:0|0:0,0:0:0:0:
173,308,143184,1,2,0:0:0:0:
296,318,143323,1,0,0:0:0:0:
78,303,143462,1,10,0:0:0:0:
344,318,143600,6,0,L|351:217,1,86.5,0|2,0:0|0:0,0:0:0:0:
227,212,143878,1,0,0:0:0:0:
441,199,144017,2,0,L|346:192,1,86.5,10|0,0:0|0:0,0:0:0:0:
100,163,144295,2,0,L|97:97,1,43.25,2|0,0:0|0:0,0:0:0:0:
229,78,144434,2,0,L|294:75,1,43.25
121,68,144573,2,0,L|35:66,1,86.5,10|0,0:0|0:0,0:0:0:0:
339,134,144850,5,2,0:0:0:0:
214,139,144989,1,0,0:0:0:0:
432,168,145128,2,0,L|437:273,1,86.5,10|0,0:0|0:0,0:0:0:0:
218,254,145406,1,2,0:0:0:0:
330,264,145545,1,0,0:0:0:0:
124,250,145684,2,0,L|33:243,1,86.5,10|0,0:0|0:0,0:0:0:0:
303,183,145962,6,0,L|299:132,1,43.25,2|0,0:0|0:0,0:0:0:0:
256,91,146100,2,0,L|182:85,1,43.25
390,57,146239,2,0,L|440:60,1,43.25
371,30,146378,2,0,L|327:27,1,43.25
109,27,146517,6,0,L|52:23,1,43.25,8|8,0:0|0:0,0:0:0:0:
261,29,146656,2,0,L|204:25,1,43.25,8|8,0:0|0:0,0:0:0:0:
46,102,146795,2,0,L|42:156,1,43.25
87,176,146934,2,0,L|156:183,1,43.25
356,250,147073,5,4,0:0:0:0:
253,241,147212,1,0,0:0:0:0:
484,197,147350,2,0,L|487:105,1,86.5,10|0,0:0|0:0,0:0:0:0:
262,108,147628,1,2,0:0:0:0:
382,113,147767,1,0,0:0:0:0:
262,108,147906,1,10,0:0:0:0:
382,113,148045,1,0,0:0:0:0:
113,232,148184,5,4,0:0:0:0:
234,235,148323,1,0,0:0:0:0:
113,232,148462,2,0,L|107:138,1,86.5,10|0,0:0|0:0,0:0:0:0:
332,203,148739,2,0,L|423:198,1,86.5,2|0,0:0|0:0,0:0:0:0:
199,152,149017,1,10,0:0:0:0:
307,157,149156,1,0,0:0:0:0:
50,81,149295,5,12,0:0:0:0:
173,81,149434,1,0,0:0:0:0:
50,81,149573,1,0,0:0:0:0:
302,50,149712,1,12,0:0:0:0:
181,37,149850,1,0,0:0:0:0:
60,31,149989,1,0,0:0:0:0:
365,37,150128,2,0,L|473:39,1,86.5,12|0,0:0|0:0,0:0:0:0:
456,174,150545,5,2,0:0:0:0:
49,217,150823,1,2,0:0:0:0:
281,222,150962,2,0,L|282:170,1,43.25,8|8,0:0|0:0,0:0:0:0:
129,140,151100,2,0,L|70:136,1,43.25,8|8,0:0|0:0,0:0:0:0:
266,119,151239,2,0,L|315:120,1,43.25,8|8,0:0|0:0,0:0:0:0:
129,140,151378,2,0,L|63:135,1,43.25,8|8,0:0|0:0,0:0:0:0:
367,159,151517,6,0,L|371:262,1,95.1500029037476,4|0,0:2|0:0,0:0:0:0:
157,255,151795,2,0,L|55:260,1,95.1500029037476,10|0,0:0|0:0,0:0:0:0:
303,328,152073,1,2,0:0:0:0:
171,315,152212,1,2,0:0:0:0:
305,292,152350,2,0,L|311:180,1,95.1500029037476,8|2,0:0|0:0,0:0:0:0:
26,176,152628,6,0,L|125:171,1,95.1500029037476,4|0,0:0|0:0,0:0:0:0:
357,156,152906,2,0,L|358:44,1,95.1500029037476,10|0,0:0|0:0,0:0:0:0:
137,42,153184,1,2,0:0:0:0:
253,60,153323,1,0,0:0:0:0:
131,93,153462,2,0,L|126:203,1,95.1500029037476,10|0,0:0|0:0,0:0:0:0:
421,214,153739,6,0,L|310:220,1,95.1500029037476,6|0,0:0|0:0,0:0:0:0:
195,282,154017,2,0,L|196:182,1,95.1500029037476,10|0,0:0|0:0,0:0:0:0:
437,107,154295,1,2,0:0:0:0:
207,89,154434,2,0,L|97:85,2,95.1500029037476,2|8|0,0:0|0:0|0:0,0:0:0:0:
458,301,154850,5,6,0:0:0:0:
341,294,154989,1,0,0:0:0:0:
458,301,155128,1,8,0:0:0:0:
247,284,155267,1,2,0:0:0:0:
485,229,155406,2,0,L|482:130,1,95.1500029037476
350,115,155684,1,10,0:0:0:0:
481,90,155823,1,2,0:0:0:0:
193,153,155962,6,0,L|78:148,1,95.1500029037476,6|0,0:0|0:0,0:0:0:0:
317,158,156239,2,0,L|322:264,1,95.1500029037476,10|0,0:0|0:0,0:0:0:0:
188,206,156517,2,0,L|187:306,1,95.1500029037476,2|0,0:0|0:0,0:0:0:0:
410,296,156795,1,10,0:0:0:0:
165,335,156934,6,0,L|271:338,1,95.1500029037476,2|0,0:0|0:0,0:0:0:0:
391,332,157212,1,2,0:0:0:0:
151,190,157350,2,0,L|147:82,1,95.1500029037476,10|0,0:0|0:0,0:0:0:0:
370,185,157628,2,0,L|238:175,1,95.1500029037476,2|0,0:0|0:0,0:0:0:0:
496,112,157906,2,0,L|364:102,1,95.1500029037476,10|0,0:0|0:0,0:0:0:0:
112,81,158184,5,14,0:0:0:0:
238,93,158323,1,0,0:0:0:0:
112,81,158462,1,0,0:0:0:0:
353,202,158600,1,10,0:0:0:0:
219,198,158739,1,0,0:0:0:0:
353,202,158878,1,0,0:0:0:0:
67,257,159017,5,14,0:0:0:0:
200,266,159156,1,0,0:0:0:0:
333,277,159295,1,0,0:0:0:0:
66,332,159434,2,0,L|179:336,1,95.1500029037476,8|8,0:0|0:0,0:0:0:0:
388,334,159712,1,8,0:0:0:0:
162,213,159850,6,0,L|244:206,1,47.5750014518738,10|8,0:0|0:0,0:0:0:0:
375,199,159989,2,0,L|430:195,1,47.5750014518738,8|8,0:0|0:0,0:0:0:0:
252,155,160128,2,0,L|250:101,1,47.5750014518738,10|8,0:0|0:0,0:0:0:0:
322,94,160267,2,0,L|323:37,1,47.5750014518738,8|8,0:0|0:0,0:0:0:0:
142,140,160406,6,0,L|39:140,1,95.1500029037476,4|0,0:2|0:0,0:0:0:0:
264,221,160684,2,0,L|272:325,1,95.1500029037476,10|0,0:0|0:0,0:0:0:0:
51,329,160962,1,2,0:0:0:0:
177,338,161100,1,2,0:0:0:0:
51,329,161239,1,8,0:0:0:0:
331,332,161378,5,2,0:0:0:0:
235,303,161517,2,0,L|234:196,1,95.1500029037476
473,295,161795,2,0,L|474:187,1,95.1500029037476,10|0,0:0|0:0,0:0:0:0:
184,169,162073,2,0,L|187:92,1,47.5750014518738,6|0,0:0|0:0,0:0:0:0:
236,88,162212,2,0,L|291:83,1,47.5750014518738,2|0,0:0|0:0,0:0:0:0:
473,81,162350,2,0,L|354:86,1,95.1500029037476,8|0,0:0|0:0,0:0:0:0:
94,145,162628,6,0,L|95:263,1,95.1500029037476,4|0,0:0|0:0,0:0:0:0:
314,250,162906,2,0,L|433:253,1,95.1500029037476,10|0,0:0|0:0,0:0:0:0:
176,284,163184,1,2,0:0:0:0:
303,290,163323,1,2,0:0:0:0:
173,248,163462,2,0,L|167:145,1,95.1500029037476,8|0,0:0|0:0,0:0:0:0:
429,113,163739,6,0,L|327:108,1,95.1500029037476,6|0,0:0|0:0,0:0:0:0:
202,96,164017,1,8,0:0:0:0:
423,176,164156,1,2,0:0:0:0:
136,208,164295,1,2,0:0:0:0:
200,216,164387,1,2,0:0:0:0:
265,223,164480,1,2,0:0:0:0:
71,224,164573,2,0,L|64:335,1,95.1500029037476,2|2,0:0|0:0,0:0:0:0:
390,267,164850,6,0,L|397:164,1,95.1500029037476,14|0,0:0|0:0,0:0:0:0:
346,159,165059,1,0,0:0:0:0:
186,156,165128,2,0,L|79:149,1,95.1500029037476,10|2,0:0|0:0,0:0:0:0:
393,84,165406,1,8,0:0:0:0:
272,65,165545,1,2,0:0:0:0:
387,38,165684,1,8,0:0:0:0:
148,63,165823,2,0,L|84:57,1,47.5750014518738,2|0,0:0|0:0,0:0:0:0:
315,180,165962,6,0,L|431:185,1,95.1500029037476,8|2,0:0|0:0,0:0:0:0:
411,247,166170,1,0,0:0:0:0:
263,297,166239,2,0,L|154:292,1,95.1500029037476,8|2,0:0|0:0,0:0:0:0:
399,326,166517,1,10,0:0:0:0:
128,230,166656,2,0,L|122:155,1,47.5750014518738,8|8,0:0|0:0,0:0:0:0:
269,169,166795,2,0,L|385:167,1,95.1500029037476,10|0,0:0|0:0,0:0:0:0:
32,99,167073,6,0,L|24:208,1,95.1500029037476,10|8,0:0|0:0,0:0:0:0:
245,210,167350,1,0,0:0:0:0:
139,237,167489,1,8,0:0:0:0:
370,217,167628,2,0,L|379:325,1,95.1500029037476,8|8,0:0|0:0,0:0:0:0:
330,324,167837,1,0,0:0:0:0:
136,174,167906,2,0,L|77:169,1,47.5750014518738,8|0,0:0|0:0,0:0:0:0:
154,122,168045,2,0,L|215:128,1,47.5750014518738,8|0,0:0|0:0,0:0:0:0:
439,98,168184,6,0,L|500:99,1,47.5750014518738,8|8,0:0|0:0,0:0:0:0:
295,89,168323,2,0,L|231:92,1,47.5750014518738,8|8,0:0|0:0,0:0:0:0:
418,169,168462,2,0,L|426:234,1,47.5750014518738,8|8,0:0|0:0,0:0:0:0:
233,247,168600,2,0,L|172:250,1,47.5750014518738,8|8,0:0|0:0,0:0:0:0:
406,341,168739,6,0,P|471:301|396:165,1,259.5,4|0,0:2|0:0,0:0:0:0:
70,164,169295,6,0,L|61:59,1,95.1500029037476,4|0,0:0|0:0,0:0:0:0:
112,55,169503,1,0,0:0:0:0:
260,58,169573,1,2,0:0:0:0:
137,83,169712,2,0,L|131:190,1,95.1500029037476,10|0,0:0|0:0,0:0:0:0:
411,144,169989,2,0,L|415:250,1,95.1500029037476,10|0,0:0|0:0,0:0:0:0:
37,223,170267,6,0,L|249:237,1,190.300005807495,6|0,0:0|0:0,0:0:0:0:
276,238,170614,1,0,0:0:0:0:
83,153,170684,2,0,L|78:50,1,95.1500029037476,10|0,0:0|0:0,0:0:0:0:
126,41,170892,1,0,0:0:0:0:
292,36,170962,1,2,0:0:0:0:
179,48,171100,2,0,P|123:132|179:181,1,190.300005807495,2|0,0:0|0:0,0:0:0:0:
480,208,171517,5,10,0:0:0:0:
476,145,171610,1,0,0:0:0:0:
412,137,171702,1,0,0:0:0:0:
170,274,171795,1,10,0:0:0:0:
235,275,171887,1,0,0:0:0:0:
299,277,171980,1,0,0:0:0:0:
92,251,172073,5,10,0:0:0:0:
348,219,172212,2,0,P|378:192|335:65,1,190.300005807495,2|0,0:0|0:0,0:0:0:0:
291,64,172559,1,0,0:0:0:0:
99,55,172628,6,0,L|299:62,1,190.300005807495,2|0,0:0|0:0,0:0:0:0:
32,112,173045,2,0,L|30:220,1,95.1500029037476,4|0,0:0|0:0,0:0:0:0:
437,249,173462,2,0,L|506:253,1,47.5750014518738,2|0,0:0|0:0,0:0:0:0:
339,287,173600,2,0,L|270:291,1,47.5750014518738,2|0,0:0|0:0,0:0:0:0:
144,288,173739,5,4,0:0:0:0:
247,264,173878,1,0,0:0:0:0:
25,260,174017,2,0,L|23:162,1,95.1500029037476,8|0,0:0|0:0,0:0:0:0:
357,147,174295,1,4,0:0:0:0:
236,140,174434,1,0,0:0:0:0:
462,157,174573,2,0,L|470:47,1,95.1500029037476,8|0,0:0|0:0,0:0:0:0:
231,57,174850,6,0,L|115:51,1,95.1500029037476,6|0,0:0|0:0,0:0:0:0:
405,184,175128,2,0,L|411:280,1,95.1500029037476,10|0,0:0|0:0,0:0:0:0:
180,270,175406,2,0,L|123:275,2,47.5750014518738,2|0|0,0:0|0:0|0:0,0:0:0:0:
422,330,175684,2,0,L|292:329,1,95.1500029037476,10|0,0:0|0:0,0:0:0:0:
23,192,175962,5,12,0:0:0:0:
140,203,176100,1,0,0:0:0:0:
23,192,176239,1,0,0:0:0:0:
273,151,176378,1,8,0:0:0:0:
147,137,176517,1,0,0:0:0:0:
21,120,176656,1,0,0:0:0:0:
427,69,176795,5,12,0:0:0:0:
289,73,176934,1,0,0:0:0:0:
427,69,177073,1,0,0:0:0:0:
114,174,177212,1,8,0:0:0:0:
317,182,177350,1,8,0:0:0:0:
114,174,177489,1,8,0:0:0:0:
375,307,177628,2,0,L|381:198,1,86.5,10|0,0:0|0:0,0:0:0:0:
170,265,177906,2,0,L|70:258,1,86.5,10|0,0:0|0:0,0:0:0:0:
399,257,178184,6,0,L|499:260,1,95.1500029037476,6|0,0:2|0:0,0:0:0:0:
278,130,178462,2,0,L|176:125,1,95.1500029037476,10|0,0:0|0:0,0:0:0:0:
414,62,178739,1,2,0:0:0:0:
282,75,178878,1,2,0:0:0:0:
409,99,179017,2,0,L|402:216,1,95.1500029037476,8|2,0:0|0:0,0:0:0:0:
146,209,179295,6,0,L|24:216,1,95.1500029037476
256,224,179573,2,0,L|257:336,1,95.1500029037476,10|0,0:0|0:0,0:0:0:0:
36,338,179850,1,2,0:0:0:0:
260,356,179989,2,0,L|199:353,1,47.5750014518738,2|0,0:0|0:0,0:0:0:0:
30,287,180128,2,0,L|25:177,1,95.1500029037476,8|0,0:0|0:0,0:0:0:0:
282,160,180406,6,0,L|171:154,1,95.1500029037476,6|0,0:0|0:0,0:0:0:0:
305,32,180684,2,0,L|306:132,1,95.1500029037476,10|0,0:0|0:0,0:0:0:0:
74,71,180962,1,2,0:0:0:0:
329,196,181100,2,0,L|430:194,2,95.1500029037476,2|8|0,0:0|0:0|0:0,0:0:0:0:
54,301,181517,5,6,0:0:0:0:
171,294,181656,1,0,0:0:0:0:
54,301,181795,1,8,0:0:0:0:
262,330,181934,1,2,0:0:0:0:
47,244,182073,1,0,0:0:0:0:
271,122,182212,2,0,L|274:186,1,47.5750014518738
126,137,182350,2,0,L|21:142,1,95.1500029037476,2|2,0:0|0:0,0:0:0:0:
365,93,182628,6,0,L|368:203,1,95.1500029037476,12|0,0:0|0:0,0:0:0:0:
316,198,182837,1,0,0:0:0:0:
169,236,182906,2,0,L|66:242,1,95.1500029037476,10|2,0:0|0:0,0:0:0:0:
123,296,183114,1,0,0:0:0:0:
282,336,183184,2,0,L|287:229,1,95.1500029037476,8|2,0:0|0:0,0:0:0:0:
240,230,183392,1,0,0:0:0:0:
50,167,183462,2,0,L|154:162,1,95.1500029037476,8|2,0:0|0:0,0:0:0:0:
195,159,183670,1,0,0:0:0:0:
396,152,183739,6,0,L|501:146,1,95.1500029037476,8|2,0:0|0:0,0:0:0:0:
493,85,183948,1,0,0:0:0:0:
299,78,184017,1,8,0:0:0:0:
401,67,184156,2,0,L|404:5,1,47.5750014518738,2|0,0:0|0:0,0:0:0:0:
186,24,184295,1,10,0:0:0:0:
297,23,184434,1,8,0:0:0:0:
50,212,184573,2,0,L|98:211,1,47.5750014518738
244,239,184712,2,0,L|307:236,1,47.5750014518738
71,138,184848,6,0,L|68:37,1,86.5,6|0,0:2|0:0,0:0:0:0:
182,49,185125,1,0,0:0:0:0:
71,44,185264,1,8,0:0:0:0:
294,57,185403,1,2,0:0:0:0:
182,49,185542,1,8,0:0:0:0:
431,67,185681,6,0,L|438:158,1,86.5,2|0,0:0|0:0,0:0:0:0:
226,171,185959,1,0,0:0:0:0:
437,209,186098,1,8,0:0:0:0:
333,203,186236,1,2,0:0:0:0:
99,212,186375,6,0,L|96:304,1,86.5,8|2,0:0|0:0,0:0:0:0:
216,305,186653,1,0,0:0:0:0:
96,340,186792,1,0,0:0:0:0:
315,253,186931,2,0,L|407:248,1,86.5,8|2,0:0|0:0,0:0:0:0:
158,228,187209,6,0,L|154:133,1,86.5,8|2,0:0|0:0,0:0:0:0:
272,134,187486,2,0,L|178:129,1,86.5
404,117,187764,2,0,L|304:111,1,86.5,8|2,0:0|0:0,0:0:0:0:
80,62,188042,5,8,0:0:0:0:
185,62,188181,1,2,0:0:0:0:
80,62,188319,1,0,0:0:0:0:
295,58,188458,2,0,L|401:51,1,86.5,8|0,0:0|0:0,0:0:0:0:
127,157,188736,2,0,L|181:154,1,43.25,10|8,0:0|0:0,0:0:0:0:
367,155,188875,2,0,L|313:157,1,43.25,8|8,0:0|0:0,0:0:0:0:
106,235,189014,2,0,L|265:228,1,129.75,8|0,0:0|0:0,0:0:0:0:
477,227,189292,6,0,L|481:132,1,86.5,6|0,0:2|0:0,0:0:0:0:
366,113,189569,1,0,0:0:0:0:
156,105,189708,1,8,0:0:0:0:
263,103,189847,1,2,0:0:0:0:
44,117,189986,6,0,L|40:209,1,86.5,8|2,0:0|0:0,0:0:0:0:
163,211,190264,1,0,0:0:0:0:
40,262,190403,1,0,0:0:0:0:
261,269,190542,2,0,L|348:268,1,86.5,8|2,0:0|0:0,0:0:0:0:
109,171,190819,6,0,L|107:79,1,86.5,8|2,0:0|0:0,0:0:0:0:
222,74,191097,1,0,0:0:0:0:
336,63,191236,1,0,0:0:0:0:
127,229,191375,2,0,L|33:236,1,86.5,8|2,0:0|0:0,0:0:0:0:
278,231,191653,6,0,L|283:137,1,86.5,8|2,0:0|0:0,0:0:0:0:
166,124,191930,1,0,0:0:0:0:
381,128,192069,1,0,0:0:0:0:
163,66,192208,2,0,L|74:63,1,86.5,8|2,0:0|0:0,0:0:0:0:
321,224,192486,5,8,0:0:0:0:
209,237,192625,2,0,L|204:336,1,86.5,2|0,0:0|0:0,0:0:0:0:
421,308,192902,2,0,L|333:312,1,86.5,8|0,0:0|0:0,0:0:0:0:
111,319,193180,1,10,0:0:0:0:
240,322,193319,1,8,0:0:0:0:
16,192,193458,2,0,L|20:135,1,43.25,10|8,0:0|0:0,0:0:0:0:
195,121,193597,2,0,L|257:118,1,43.25,8|8,0:0|0:0,0:0:0:0:
64,115,193736,6,0,L|62:23,1,86.5,4|0,0:2|0:0,0:0:0:0:
175,24,194013,1,0,0:0:0:0:
393,22,194152,1,8,0:0:0:0:
166,162,194291,1,2,0:0:0:0:
230,168,194384,1,2,0:0:0:0:
293,170,194476,1,2,0:0:0:0:
95,264,194569,6,0,L|101:187,1,57.6666666666667,2|0,0:0|0:0,0:0:0:0:
160,206,194754,1,0,0:0:0:0:
323,260,194847,2,0,L|386:254,1,43.25,2|0,0:0|0:0,0:0:0:0:
214,100,194986,2,0,L|150:100,2,57.6666666666667,10|0|0,0:0|0:0|0:0,0:0:0:0:
364,96,195263,1,10,0:0:0:0:
118,246,195402,6,0,L|121:312,1,57.6666666666667,2|0,0:0|0:0,0:0:0:0:
205,315,195587,1,0,0:0:0:0:
408,171,195680,2,0,L|473:168,2,57.6666666666667,2|8|0,0:0|0:0|0:0,0:0:0:0:
216,155,195958,1,2,0:0:0:0:
450,121,196097,6,0,L|454:33,1,86.5,8|0,0:0|0:0,0:0:0:0:
367,28,196374,1,0,0:0:0:0:
242,29,196513,2,0,L|197:29,1,43.25,2|2,0:0|0:0,0:0:0:0:
334,101,196652,2,0,L|426:102,1,86.5,10|2,0:0|0:0,0:0:0:0:
116,108,196930,6,0,L|113:198,1,86.5,10|0,0:0|0:0,0:0:0:0:
225,205,197207,1,0,0:0:0:0:
460,192,197346,2,0,L|455:292,1,86.5,10|2,0:0|0:0,0:0:0:0:
235,301,197624,1,10,0:0:0:0:
452,331,197763,1,10,0:0:0:0:
343,313,197902,2,0,L|254:305,1,86.5,2|0,0:0|0:0,0:0:0:0:
16,224,198180,6,0,L|120:234,2,86.5,10|0|0,0:0|0:0|0:0,0:0:0:0:
231,215,198596,1,8,0:0:0:0:
142,173,198735,2,0,L|140:120,1,43.25,2|0,0:0|0:0,0:0:0:0:
297,106,198874,2,0,L|345:102,1,43.25,10|0,0:0|0:0,0:0:0:0:
140,69,199013,6,0,L|84:75,1,43.25,2|0,0:0|0:0,0:0:0:0:
51,111,199152,2,0,L|48:160,1,43.25,2|0,0:0|0:0,0:0:0:0:
245,233,199291,2,0,L|289:237,1,43.25,2|0,0:0|0:0,0:0:0:0:
113,269,199430,2,0,L|157:273,1,43.25,10|0,0:0|0:0,0:0:0:0:
308,316,199568,2,0,L|311:270,1,43.25,2|0,0:0|0:0,0:0:0:0:
112,195,199707,6,0,L|63:192,1,43.25,10|0,0:0|0:0,0:0:0:0:
243,168,199846,2,0,L|190:163,1,43.25,2|0,0:0|0:0,0:0:0:0:
47,126,199985,2,0,L|45:80,1,43.25,2|0,0:0|0:0,0:0:0:0:
264,70,200124,2,0,L|331:72,1,43.25,2|0,0:0|0:0,0:0:0:0:
133,46,200263,2,0,L|82:43,1,43.25,10|0,0:0|0:0,0:0:0:0:
311,52,200402,2,0,L|318:1,1,43.25,2|0,0:0|0:0,0:0:0:0:
142,12,200541,2,0,L|192:14,1,43.25,10|0,0:0|0:0,0:0:0:0:
383,158,200680,6,0,L|387:216,1,43.25,4|0,0:0|0:0,0:0:0:0:
323,212,200818,2,0,L|319:259,1,43.25,2|0,0:0|0:0,0:0:0:0:
496,256,200957,2,0,L|445:259,1,43.25,10|0,0:0|0:0,0:0:0:0:
396,270,201096,2,0,L|345:273,1,43.25,2|0,0:0|0:0,0:0:0:0:
181,282,201235,1,10,0:0:0:0:
332,310,201305,2,0,L|388:314,2,43.25,2|0|0,0:0|0:0|0:0,0:0:0:0:
105,133,201513,2,0,L|33:127,1,43.25,10|0,0:0|0:0,0:0:0:0:
214,91,201652,2,0,L|216:38,1,43.25,2|0,0:0|0:0,0:0:0:0:
23,65,201791,6,0,L|26:19,1,43.25,10|0,0:0|0:0,0:0:0:0:
74,9,201929,2,0,L|133:7,1,43.25,2|0,0:0|0:0,0:0:0:0:
314,130,202068,2,0,L|360:129,1,43.25,10|0,0:0|0:0,0:0:0:0:
202,139,202207,2,0,L|157:141,1,43.25,2|0,0:0|0:0,0:0:0:0:
332,205,202346,2,0,L|279:212,1,43.25,10|0,0:0|0:0,0:0:0:0:
244,248,202485,2,0,L|243:303,1,43.25,2|0,0:0|0:0,0:0:0:0:
439,321,202624,5,4,0:0:0:0:
344,323,202762,2,0,L|251:320,2,86.5
120,162,203179,1,10,0:0:0:0:
215,164,203318,2,0,L|308:161,2,86.5
456,154,203735,6,0,L|465:81,2,57.6666666666667,10|0|0,0:0|0:0|0:0,0:0:0:0:
373,63,204012,1,0,0:0:0:0:
430,59,204105,1,0,0:0:0:0:
488,56,204198,1,0,0:0:0:0:
256,88,204290,2,0,L|75:82,1,173,4|0,0:0|0:0,0:0:0:0:
16,80,204707,1,0,0:0:0:0:
389,244,204846,6,0,L|199:261,1,173,4|8,0:2|0:0,0:0:0:0:
426,188,205401,2,0,L|427:100,1,86.5,2|0,0:0|0:0,0:0:0:0:
170,97,205679,6,0,L|80:92,2,86.5,6|0|0,0:0|0:0|0:0,0:0:0:0:
383,172,206235,2,0,L|389:251,1,57.6666666666667,10|2,0:0|0:0,0:0:0:0:
329,247,206420,1,2,0:0:0:0:
174,260,206512,2,0,P|178:204|294:147,1,173,2|10,0:0|0:0,0:0:0:0:
328,137,206883,1,2,0:0:0:0:
387,135,206975,1,2,0:0:0:0:
192,79,207068,6,0,L|15:71,1,173,6|10,0:0|0:0,0:0:0:0:
25,144,207438,1,0,0:0:0:0:
80,156,207531,1,0,0:0:0:0:
245,235,207624,1,2,0:0:0:0:
188,245,207716,1,2,0:0:0:0:
129,259,207809,1,2,0:0:0:0:
284,279,207901,5,14,0:0:0:0:
341,280,207994,1,0,0:0:0:0:
399,281,208086,1,0,0:0:0:0:
223,210,208179,1,2,0:0:0:0:
191,183,208249,1,2,0:0:0:0:
192,141,208318,1,2,0:0:0:0:
226,116,208387,1,2,0:0:0:0:
354,97,208457,6,0,L|469:100,1,86.5,14|0,0:0|0:0,0:0:0:0:
397,39,208665,1,0,0:0:0:0:
234,59,208735,2,0,L|224:175,1,86.5,2|2,0:0|0:0,0:0:0:0:
271,157,208943,1,0,0:0:0:0:
437,201,209012,2,0,L|512:204,2,57.6666666666667,14|2|2,0:0|0:0|0:0,0:0:0:0:
184,276,209290,5,6,0:0:0:0:
126,276,209383,1,0,0:0:0:0:
68,276,209475,1,0,0:0:0:0:
238,216,209568,2,0,L|43:213,1,173,10|2,0:0|0:0,0:0:0:0:
60,145,209985,1,0,0:0:0:0:
496,192,210124,6,0,P|492:131|391:77,1,173,12|2,0:0|0:0,0:0:0:0:
317,75,210540,1,2,0:0:0:0:
111,119,210679,2,0,L|217:133,1,86.5,10|0,0:0|0:0,0:0:0:0:
241,136,210887,1,0,0:0:0:0:
370,119,210957,1,2,0:0:0:0:
402,147,211026,1,2,0:0:0:0:
414,188,211096,1,2,0:0:0:0:
403,230,211165,1,2,0:0:0:0:
273,232,211235,6,0,L|376:236,1,86.5,14|0,0:0|0:0,0:0:0:0:
257,178,211512,1,2,0:0:0:0:
366,173,211651,1,2,0:0:0:0:
123,98,211790,2,0,L|59:98,2,57.6666666666667,10|8|8,0:0|0:0|0:0,0:0:0:0:
302,119,212068,1,0,0:0:0:0:
366,173,212161,2,0,L|370:253,1,57.6666666666667,2|2,0:0|0:0,0:0:0:0:
106,176,212346,1,2,0:0:0:0:
72,200,212415,1,0,0:0:0:0:
71,241,212485,1,0,0:0:0:0:
103,268,212554,1,0,0:0:0:0:
238,280,212624,5,12,0:0:0:0:
296,283,212716,1,8,0:0:0:0:
354,287,212809,1,8,0:0:0:0:
159,147,212901,1,8,0:0:0:0:
328,147,212994,1,2,0:0:0:0:
496,144,213086,1,2,0:0:0:0:
233,81,213179,2,0,L|166:76,2,57.6666666666667,2|0|0,0:0|0:0|0:0,0:0:0:0:
439,149,213457,2,0,L|446:257,1,86.5,2|0,0:0|0:0,0:0:0:0:
228,285,213735,5,4,0:2:0:0:
171,287,213827,1,0,0:0:0:0:
113,290,213920,1,0,0:0:0:0:
279,208,214012,2,0,L|283:145,1,57.6666666666667,12|0,0:0|0:0,0:0:0:0:
224,138,214198,1,0,0:0:0:0:
41,112,214290,1,12,0:0:0:0:
85,109,214360,1,0,0:0:0:0:
128,106,214429,1,0,0:0:0:0:
385,99,214568,2,0,L|477:92,1,86.5,12|0,0:0|0:0,0:0:0:0:
471,36,214776,1,0,0:0:0:0:
248,34,214846,6,0,L|148:40,1,86.5,12|0,0:0|0:0,0:0:0:0:
382,137,215124,2,0,L|384:199,1,43.25,8|0,0:0|0:0,0:0:0:0:
337,195,215262,1,0,0:0:0:0:
131,218,215401,1,8,0:0:0:0:
175,222,215471,1,0,0:0:0:0:
218,226,215540,1,0,0:0:0:0:
16,192,215679,2,0,L|22:115,1,43.25,12|0,0:0|0:0,0:0:0:0:
63,100,215818,2,0,L|120:98,1,43.25
322,78,215957,6,0,L|326:133,1,43.25,12|0,0:0|0:0,0:0:0:0:
252,133,216096,2,0,L|248:183,1,43.25
429,182,216235,2,0,L|481:187,1,43.25,8|0,0:0|0:0,0:0:0:0:
396,237,216374,2,0,L|334:234,1,43.25
173,244,216512,2,0,L|94:246,2,57.6666666666667,12|0|0,0:0|0:0|0:0,0:0:0:0:
381,322,216790,2,0,L|321:327,1,43.25,8|0,0:0|0:0,0:0:0:0:
155,335,216929,2,0,L|95:340,1,43.25
333,162,217068,6,0,L|337:106,1,43.25,8|0,0:0|0:0,0:0:0:0:
292,107,217207,1,0,0:0:0:0:
97,108,217346,2,0,L|165:114,1,43.25,8|0,0:0|0:0,0:0:0:0:
192,153,217485,2,0,L|195:209,1,43.25
16,208,217624,2,0,L|19:270,1,43.25,8|0,0:0|0:0,0:0:0:0:
65,255,217762,1,0,0:0:0:0:
306,255,217901,1,12,0:0:0:0:
245,279,217994,2,0,L|240:378,1,57.6666666666667
480,323,218179,5,12,0:0:0:0:
363,332,218318,2,0,L|315:334,1,43.25,8|8,0:0|0:0,0:0:0:0:
480,323,218457,1,8,0:0:0:0:
363,332,218596,1,8,0:0:0:0:
117,323,218735,1,8,0:0:0:0:
217,277,218874,2,0,L|223:224,1,43.25,8|8,0:0|0:0,0:0:0:0:
50,199,219012,2,0,L|93:203,1,43.25,8|0,0:0|0:0,0:0:0:0:
227,173,219151,2,0,L|283:169,1,43.25,8|8,0:0|0:0,0:0:0:0:
467,137,219290,6,0,L|470:91,1,28.8333333333333,12|0,0:0|0:0,0:0:0:0:
397,90,219429,1,0,0:0:0:0:
143,90,219568,2,0,L|142:37,1,43.25,8|0,0:0|0:0,0:0:0:0:
224,35,219707,2,0,L|282:31,1,43.25
91,20,219846,2,0,L|150:15,1,43.25,8|0,0:0|0:0,0:0:0:0:
334,138,219985,2,0,L|396:136,1,43.25
158,186,220124,2,0,L|223:188,1,43.25,8|0,0:0|0:0,0:0:0:0:
330,232,220262,2,0,L|333:288,1,43.25
154,290,220401,6,0,L|95:297,2,57.6666666666667,8|0|0,0:0|0:0|0:0,0:0:0:0:
363,97,220679,2,0,L|370:48,1,43.25,8|0,0:0|0:0,0:0:0:0:
213,97,220818,2,0,L|206:48,1,43.25,8|0,0:0|0:0,0:0:0:0:
378,169,220957,2,0,L|440:169,1,43.25,8|0,0:0|0:0,0:0:0:0:
275,228,221096,2,0,L|222:230,1,43.25,8|0,0:0|0:0,0:0:0:0:
70,208,221235,2,0,L|71:157,1,43.25,8|0,0:0|0:0,0:0:0:0:
125,127,221374,2,0,L|174:122,1,43.25,8|0,0:0|0:0,0:0:0:0:
337,90,221512,6,0,L|391:87,1,43.25,8|8,0:0|0:0,0:0:0:0:
398,57,221651,1,8,0:0:0:0:
386,22,221721,1,8,0:0:0:0:
235,20,221790,2,0,L|175:20,1,43.25,8|8,0:0|0:0,0:0:0:0:
368,134,221929,2,0,L|374:181,1,43.25,8|8,0:0|0:0,0:0:0:0:
223,194,222068,2,0,L|165:197,1,43.25,8|8,0:0|0:0,0:0:0:0:
380,262,222207,2,0,L|385:311,1,43.25,8|8,0:0|0:0,0:0:0:0:
170,297,222346,2,0,L|41:300,1,129.75,8|0,0:0|0:0,0:0:0:0:
257,269,222624,6,0,L|254:223,1,43.25,4|0,0:2|0:0,0:0:0:0:
191,160,222762,2,0,L|148:154,1,43.25
76,130,222901,2,0,L|72:71,1,43.25
139,51,223040,2,0,L|194:52,1,43.25
399,157,223179,2,0,L|402:225,1,43.25,4|0,0:0|0:0,0:0:0:0:
337,221,223318,2,0,L|279:226,1,43.25
138,274,223457,2,0,L|84:279,1,43.25
273,306,223596,2,0,L|327:311,1,43.25
96,224,223735,6,0,L|100:169,1,43.25,12|0,0:0|0:0,0:0:0:0:
167,167,223874,2,0,L|170:120,1,43.25
16,96,224012,2,0,L|68:93,1,43.25
260,100,224151,2,0,L|312:97,1,43.25
105,370,224290,2,0,L|157:373,1,43.25,12|0,0:0|0:0,0:0:0:0:
215,334,224429,2,0,L|220:283,1,43.25
16,288,224568,2,0,L|14:244,1,43.25
73,219,224707,2,0,L|126:219,1,43.25
375,113,224846,6,0,L|314:111,1,43.25,12|0,0:0|0:0,0:0:0:0:
267,145,224985,2,0,L|261:195,1,43.25
436,210,225124,2,0,L|324:216,1,86.5,8|0,0:0|0:0,0:0:0:0:
302,221,225332,1,0,0:0:0:0:
126,278,225401,2,0,L|74:279,1,43.25,12|0,0:0|0:0,0:0:0:0:
239,323,225540,2,0,L|286:320,1,43.25
83,342,225679,2,0,L|78:288,1,43.25,8|0,0:0|0:0,0:0:0:0:
214,250,225818,2,0,L|264:246,1,43.25
407,238,225957,5,0,0:0:0:0:
16,192,226235,1,12,0:0:0:0:
227,182,226374,2,0,L|229:82,1,86.5,12|0,0:0|0:0,0:0:0:0:
16,64,226651,6,0,B|276:65|276:65|331:153|282:316|282:316|142:84,1,778.500029697419,12|0,0:2|0:0,0:0:0:0:
256,192,240401,12,0,244707,0:0:0:0:
351,184,244846,6,0,P|400:114|340:50,1,173,2|0,0:0|0:0,0:0:0:0:
267,46,245262,1,0,0:0:0:0:
154,48,245401,2,0,L|146:225,1,173,8|0,0:0|0:0,0:0:0:0:
388,129,245957,6,0,P|438:173|381:270,1,173
316,272,246374,1,0,0:0:0:0:
203,340,246512,2,0,L|382:345,1,173,10|0,0:0|0:0,0:0:0:0:
148,267,247068,6,0,P|109:227|168:137,1,173,2|0,0:0|0:0,0:0:0:0:
336,90,247624,2,0,L|153:84,1,173,10|0,0:0|0:0,0:0:0:0:
74,75,248040,1,0,0:0:0:0:
188,158,248179,6,0,P|197:214|105:277,1,173,2|0,0:0|0:0,0:0:0:0:
281,281,248735,2,0,L|464:273,1,173,10|0,0:0|0:0,0:0:0:0:
110,263,249290,6,0,P|67:192|242:63,1,346,2|8,0:0|0:0,0:0:0:0:
481,143,250124,2,0,L|481:233,1,86.5,2|2,0:0|0:0,0:0:0:0:
369,246,250401,6,0,L|188:253,1,173,2|0,0:0|0:0,0:0:0:0:
356,193,250957,2,0,P|397:167|340:69,1,173,10|0,0:0|0:0,0:0:0:0:
16,32,251512,6,0,L|290:41,1,259.5,2|2,0:0|0:0,0:0:0:0:
188,128,252068,2,0,L|290:133,1,86.5,8|0,0:0|0:0,0:0:0:0:
387,168,252346,1,2,0:0:0:0:
40,295,252624,6,0,P|59:207|220:301,1,346,2|8,0:0|0:0,0:0:0:0:
46,331,253457,1,0,0:0:0:0:
408,195,253735,6,0,P|335:159|414:205,1,519,2|0,0:0|0:0,0:0:0:0:
170,226,254846,6,0,L|163:44,1,173,2|0,0:0|0:0,0:0:0:0:
403,228,255401,1,8,0:0:0:0:
16,288,255957,6,0,L|208:279,1,173,2|0,0:0|0:0,0:0:0:0:
369,250,256512,2,0,L|360:57,1,173,10|0,0:0|0:0,0:0:0:0:
276,65,256929,1,0,0:0:0:0:
147,60,257068,6,0,P|92:85|140:160,1,173,2|0,0:0|0:0,0:0:0:0:
496,192,257624,1,8,0:0:0:0:
367,197,257762,1,8,0:0:0:0:
496,192,257901,1,8,0:0:0:0:
367,197,258040,1,8,0:0:0:0:
145,197,258179,5,2,0:0:0:0:
496,192,258457,2,0,L|486:94,1,86.5,12|0,0:0|0:0,0:0:0:0:
370,103,258735,1,0,0:0:0:0:
171,93,258874,1,12,0:0:0:0:
281,95,259012,1,0,0:0:0:0:
77,135,259151,5,2,0:0:0:0:
282,164,259290,2,0,L|292:263,1,86.5,8|0,0:0|0:0,0:0:0:0:
179,261,259568,1,0,0:0:0:0:
396,271,259707,1,12,0:0:0:0:
286,297,259846,1,0,0:0:0:0:
396,271,259985,1,0,0:0:0:0:
195,204,260124,2,0,L|129:200,2,57.6666666666667,2|0|0,0:0|0:0|0:0,0:0:0:0:
398,161,260401,5,12,0:0:0:0:
295,173,260540,1,0,0:0:0:0:
398,161,260679,1,0,0:0:0:0:
117,81,260818,1,12,0:0:0:0:
220,93,260957,1,0,0:0:0:0:
117,81,261096,1,0,0:0:0:0:
460,91,261235,5,14,0:0:0:0:
99,256,262068,1,8,0:0:0:0:
208,240,262161,2,0,L|213:161,1,57.6666666666667
104,161,262346,2,0,L|18:156,2,57.6666666666667
308,118,262624,5,8,0:0:0:0:
131,127,262832,1,8,0:0:0:0:
434,186,262971,1,8,0:0:0:0:
316,197,263110,1,8,0:0:0:0:
199,207,263249,1,8,0:0:0:0:
496,96,263387,5,8,0:0:0:0:
368,78,263526,1,8,0:0:0:0:
496,96,263665,1,8,0:0:0:0:
242,62,263804,1,8,0:0:0:0:
376,51,263943,1,8,0:0:0:0:
165,62,264082,1,8,0:0:0:0:
402,355,264221,1,8,0:0:0:0:
445,346,264290,2,0,L|443:200,1,144.166666666667
40,113,264846,6,0,L|36:216,1,95.1500029037476,6|0,0:2|0:0,0:0:0:0:
276,94,265124,2,0,L|378:99,1,95.1500029037476,10|0,0:0|0:0,0:0:0:0:
130,167,265401,1,2,0:0:0:0:
262,154,265540,1,2,0:0:0:0:
130,167,265679,1,8,0:0:0:0:
373,230,265818,1,2,0:0:0:0:
81,326,265957,6,0,L|79:222,1,95.1500029037476,4|0,0:0|0:0,0:0:0:0:
310,317,266235,2,0,L|415:307,1,95.1500029037476,8|0,0:0|0:0,0:0:0:0:
272,260,266512,1,2,0:0:0:0:
405,307,266651,1,0,0:0:0:0:
161,299,266790,2,0,L|155:191,1,95.1500029037476,10|0,0:0|0:0,0:0:0:0:
440,132,267068,6,0,L|329:138,1,95.1500029037476,6|0,0:0|0:0,0:0:0:0:
482,296,267346,2,0,L|487:197,1,95.1500029037476,10|0,0:0|0:0,0:0:0:0:
248,188,267624,1,2,0:0:0:0:
496,64,267762,2,0,L|388:58,2,95.1500029037476,2|8|0,0:0|0:0|0:0,0:0:0:0:
209,149,268179,5,6,0:0:0:0:
326,142,268318,1,0,0:0:0:0:
100,152,268457,1,8,0:0:0:0:
385,273,268596,1,2,0:0:0:0:
159,283,268735,2,0,L|156:185,1,95.1500029037476
299,176,269012,1,10,0:0:0:0:
154,142,269151,1,2,0:0:0:0:
446,137,269290,6,0,L|332:128,1,95.1500029037476,6|0,0:0|0:0,0:0:0:0:
108,229,269568,2,0,L|103:123,1,95.1500029037476,10|0,0:0|0:0,0:0:0:0:
247,203,269846,2,0,L|253:100,1,95.1500029037476,2|0,0:0|0:0,0:0:0:0:
20,102,270124,1,8,0:0:0:0:
271,45,270262,6,0,L|278:154,1,95.1500029037476,2|0,0:0|0:0,0:0:0:0:
141,150,270540,1,2,0:0:0:0:
374,138,270679,1,8,0:0:0:0:
230,190,270818,1,2,0:0:0:0:
367,215,270957,2,0,L|235:225,1,95.1500029037476,2|0,0:0|0:0,0:0:0:0:
496,272,271235,2,0,L|364:282,1,95.1500029037476,10|0,0:0|0:0,0:0:0:0:
112,303,271512,5,14,0:0:0:0:
238,291,271651,1,0,0:0:0:0:
112,303,271790,1,0,0:0:0:0:
375,222,271929,1,10,0:0:0:0:
241,226,272068,1,0,0:0:0:0:
375,222,272207,1,0,0:0:0:0:
42,161,272346,5,6,0:0:0:0:
186,159,272485,1,0,0:0:0:0:
329,145,272624,1,0,0:0:0:0:
89,78,272762,1,8,0:0:0:0:
228,71,272901,1,8,0:0:0:0:
89,78,273040,1,8,0:0:0:0:
352,78,273179,6,0,L|358:140,1,47.5750014518738,2|0,0:0|0:0,0:0:0:0:
292,161,273318,2,0,L|233:168,1,47.5750014518738
390,205,273457,1,10,0:0:0:0:
165,245,273596,2,0,L|102:253,1,47.5750014518738
333,330,273735,6,0,L|434:323,1,95.1500029037476,6|0,0:0|0:0,0:0:0:0:
195,240,274012,2,0,L|191:135,1,95.1500029037476,10|0,0:0|0:0,0:0:0:0:
419,133,274290,1,2,0:0:0:0:
293,124,274429,1,2,0:0:0:0:
419,133,274568,1,8,0:0:0:0:
172,231,274707,5,2,0:0:0:0:
410,291,274846,2,0,L|416:190,1,95.1500029037476,4|0,0:0|0:0,0:0:0:0:
284,178,275124,2,0,L|395:168,1,95.1500029037476,10|0,0:0|0:0,0:0:0:0:
122,103,275401,2,0,L|72:101,1,47.5750014518738,2|0,0:0|0:0,0:0:0:0:
297,99,275540,2,0,L|356:94,1,47.5750014518738,2|0,0:0|0:0,0:0:0:0:
199,297,275679,2,0,L|318:302,1,95.1500029037476,8|0,0:0|0:0,0:0:0:0:
299,243,275887,1,0,0:0:0:0:
130,266,275957,6,0,L|128:150,1,95.1500029037476,6|0,0:0|0:0,0:0:0:0:
350,138,276235,2,0,L|472:130,1,95.1500029037476,10|0,0:0|0:0,0:0:0:0:
204,206,276512,1,2,0:0:0:0:
331,212,276651,1,2,0:0:0:0:
201,170,276790,2,0,L|195:67,1,95.1500029037476,8|0,0:0|0:0,0:0:0:0:
480,32,277068,5,6,0:0:0:0:
348,46,277207,1,0,0:0:0:0:
480,32,277346,1,8,0:0:0:0:
217,297,277485,1,2,0:0:0:0:
455,217,277624,1,0,0:0:0:0:
280,294,277716,2,0,L|207:297,1,63.4333352691651
381,169,277901,1,10,0:0:0:0:
393,121,277971,1,0,0:0:0:0:
387,74,278040,1,2,0:0:0:0:
99,148,278179,6,0,L|212:155,1,95.1500029037476,14|0,0:0|0:0,0:0:0:0:
241,159,278387,1,0,0:0:0:0:
96,224,278457,2,0,L|91:334,1,95.1500029037476,10|2,0:0|0:0,0:0:0:0:
330,264,278735,1,8,0:0:0:0:
209,245,278874,1,2,0:0:0:0:
441,252,279012,1,8,0:0:0:0:
205,202,279151,2,0,L|201:155,1,47.5750014518738,2|0,0:0|0:0,0:0:0:0:
349,193,279290,6,0,L|465:188,1,95.1500029037476,12|2,0:0|0:0,0:0:0:0:
396,136,279499,1,0,0:0:0:0:
248,146,279568,2,0,L|242:49,1,95.1500029037476,8|2,0:0|0:0,0:0:0:0:
378,47,279846,2,0,L|316:50,1,47.5750014518738,10|0,0:0|0:0,0:0:0:0:
140,43,279985,2,0,L|78:42,1,47.5750014518738,8|0,0:0|0:0,0:0:0:0:
284,56,280124,2,0,L|401:44,1,95.1500029037476,10|0,0:0|0:0,0:0:0:0:
16,32,280401,6,0,L|20:135,1,86.5,6|0,0:2|0:0,0:0:0:0:
228,137,280679,2,0,L|335:141,1,86.5,8|0,0:0|0:0,0:0:0:0:
198,179,280957,1,0,0:0:0:0:
316,177,281096,1,0,0:0:0:0:
109,201,281235,1,8,0:0:0:0:
322,239,281374,6,0,L|428:248,2,86.5
277,228,281721,1,0,0:0:0:0:
129,162,281790,2,0,L|124:61,1,86.5,8|0,0:0|0:0,0:0:0:0:
259,117,282068,2,0,L|261:59,1,43.25
196,65,282207,2,0,L|195:20,1,43.25
322,33,282346,2,0,L|428:26,1,86.5,8|0,0:0|0:0,0:0:0:0:
143,166,282624,6,0,L|246:156,1,86.5,12|0,0:0|0:0,0:0:0:0:
245,207,282832,1,0,0:0:0:0:
236,249,282901,1,0,0:0:0:0:
32,275,283040,2,0,L|31:176,1,86.5,8|0,0:0|0:0,0:0:0:0:
79,181,283249,1,0,0:0:0:0:
123,174,283318,1,0,0:0:0:0:
367,160,283457,2,0,L|469:156,1,86.5,8|0,0:0|0:0,0:0:0:0:
459,105,283665,1,0,0:0:0:0:
416,82,283735,1,0,0:0:0:0:
154,79,283874,5,8,0:0:0:0:
249,109,284012,2,0,L|254:171,2,43.25,8|0|0,0:0|0:0|0:0,0:0:0:0:
16,160,284290,2,0,L|18:220,1,43.25,8|0,0:0|0:0,0:0:0:0:
149,228,284429,2,0,L|210:232,1,43.25,8|0,0:0|0:0,0:0:0:0:
61,279,284568,2,0,L|16:281,1,43.25,8|0,0:0|0:0,0:0:0:0:
80,323,284707,2,0,L|126:319,1,43.25
276,309,284846,6,0,L|386:296,1,86.5,4|0,0:0|0:0,0:0:0:0:
98,183,285124,2,0,L|102:80,1,86.5,8|0,0:0|0:0,0:0:0:0:
146,88,285332,1,0,0:0:0:0:
297,163,285401,2,0,L|306:60,1,86.5,8|2,0:0|0:0,0:0:0:0:
262,68,285610,1,0,0:0:0:0:
217,63,285679,1,0,0:0:0:0:
330,37,285818,1,2,0:0:0:0:
77,32,285957,6,0,L|75:139,1,86.5,12|0,0:0|0:0,0:0:0:0:
302,161,286235,1,8,0:0:0:0:
170,169,286374,1,8,0:0:0:0:
379,156,286512,1,8,0:0:0:0:
170,169,286651,1,8,0:0:0:0:
407,208,286790,2,0,L|409:326,1,86.5,0|8,0:0|0:0,0:0:0:0:
40,310,287068,6,0,B|256:304|256:304|274:81,1,432.5,12|0,0:0|0:0,0:0:0:0:
40,310,287485,2,0,B|256:304|256:304|274:81,1,432.5,12|0,0:0|0:0,0:0:0:0:
40,310,287901,6,0,L|496:300,1,432.5,12|0,0:0|0:0,0:0:0:0:
480,238,288249,1,0,0:0:0:0:
325,209,288318,2,0,L|266:203,1,43.25,8|0,0:0|0:0,0:0:0:0:
433,166,288457,2,0,L|434:101,1,43.25,8|0,0:0|0:0,0:0:0:0:
303,91,288596,2,0,L|246:90,1,43.25,8|0,0:0|0:0,0:0:0:0:
62,96,288735,6,0,L|125:96,1,43.25,8|0,0:0|0:0,0:0:0:0:
259,80,288874,2,0,L|326:79,1,43.25,8|0,0:0|0:0,0:0:0:0:
110,44,289012,2,0,L|217:42,1,86.5,8|0,0:0|0:0,0:0:0:0:
242,39,289221,1,0,0:0:0:0:
34,140,289290,6,0,L|28:242,1,95.1500029037476,6|0,0:2|0:0,0:0:0:0:
269,236,289568,2,0,L|372:236,1,95.1500029037476,10|0,0:0|0:0,0:0:0:0:
118,296,289846,1,2,0:0:0:0:
257,299,289985,1,2,0:0:0:0:
32,288,290124,2,0,L|37:185,1,95.1500029037476,8|2,0:0|0:0,0:0:0:0:
321,158,290401,6,0,L|215:157,1,95.1500029037476,4|0,0:0|0:0,0:0:0:0:
446,199,290679,2,0,L|451:310,1,95.1500029037476,8|0,0:0|0:0,0:0:0:0:
164,256,290957,2,0,L|111:262,1,47.5750014518738,2|0,0:0|0:0,0:0:0:0:
287,261,291096,2,0,L|340:267,1,47.5750014518738
142,324,291235,2,0,L|44:338,1,95.1500029037476,10|0,0:0|0:0,0:0:0:0:
369,134,291512,5,14,0:0:0:0:
243,149,291651,2,0,L|229:207,2,47.5750014518738
482,113,291929,1,10,0:0:0:0:
347,69,292068,2,0,L|345:16,1,47.5750014518738
394,14,292207,1,0,0:0:0:0:
139,24,292346,2,0,L|28:29,1,95.1500029037476,10|0,0:0|0:0,0:0:0:0:
32,86,292554,1,0,0:0:0:0:
42,134,292624,1,0,0:0:0:0:
89,138,292693,1,0,0:0:0:0:
233,177,292762,6,0,L|123:185,1,95.1500029037476,12|0,0:0|0:0,0:0:0:0:
142,248,292971,1,0,0:0:0:0:
212,254,293040,2,0,L|215:306,1,47.5750014518738
48,320,293179,2,0,L|110:316,1,47.5750014518738,8|8,0:0|0:0,0:0:0:0:
288,304,293318,2,0,L|348:300,1,47.5750014518738,2|0,0:0|0:0,0:0:0:0:
120,115,293457,2,0,L|124:62,1,47.5750014518738,2|0,0:0|0:0,0:0:0:0:
318,69,293596,2,0,L|368:62,1,47.5750014518738,2|0,0:0|0:0,0:0:0:0:
124,186,293735,6,0,L|240:177,1,95.1500029037476,14|0,0:0|0:0,0:0:0:0:
270,173,293943,1,0,0:0:0:0:
131,128,294012,1,10,0:0:0:0:
250,118,294151,1,2,0:0:0:0:
16,160,294290,2,0,L|18:265,1,95.1500029037476,10|0,0:0|0:0,0:0:0:0:
70,263,294499,1,0,0:0:0:0:
231,269,294568,2,0,L|330:276,1,95.1500029037476,10|0,0:0|0:0,0:0:0:0:
58,338,294846,5,12,0:0:0:0:
184,325,294985,2,0,L|191:226,1,95.1500029037476,2|8,0:0|0:0,0:0:0:0:
52,214,295262,1,2,0:0:0:0:
314,156,295401,2,0,L|386:154,1,47.5750014518738,10|0,0:0|0:0,0:0:0:0:
198,156,295540,2,0,L|126:154,1,47.5750014518738,8|0,0:0|0:0,0:0:0:0:
314,156,295679,2,0,L|210:157,1,95.1500029037476,10|0,0:0|0:0,0:0:0:0:
496,208,295957,6,0,L|492:142,1,47.5750014518738,4|0,0:0|0:0,0:0:0:0:
325,91,296096,2,0,L|267:89,1,47.5750014518738,8|0,0:0|0:0,0:0:0:0:
351,48,296235,2,0,L|413:44,1,47.5750014518738
182,204,296374,2,0,L|179:258,1,47.5750014518738,8|0,0:0|0:0,0:0:0:0:
253,268,296512,2,0,L|305:274,1,47.5750014518738
112,316,296651,2,0,L|55:316,1,47.5750014518738,8|0,0:0|0:0,0:0:0:0:
259,189,296790,2,0,L|261:127,1,47.5750014518738
89,130,296929,5,8,0:0:0:0:
42,112,296999,1,0,0:0:0:0:
37,66,297068,1,0,0:0:0:0:
80,41,297137,1,0,0:0:0:0:
269,90,297207,2,0,L|274:32,1,47.5750014518738,8|0,0:0|0:0,0:0:0:0:
207,70,297346,2,0,L|202:12,1,47.5750014518738
351,33,297485,1,8,0:0:0:0:
16,16,297624,6,0,P|27:165|16:288,1,259.5,6|0,0:0|0:0,0:0:0:0:
323,334,298179,6,0,L|156:333,1,155.699995248413,4|2,0:0|0:0,0:0:0:0:
246,268,298596,1,0,0:0:0:0:
137,271,298735,2,0,L|130:99,1,155.699995248413,8|0,0:0|0:0,0:0:0:0:
363,90,299290,6,0,L|202:88,1,155.699995248413,2|2,0:0|0:0,0:0:0:0:
130,79,299707,1,0,0:0:0:0:
244,261,299846,2,0,P|281:184|236:116,1,155.699995248413,8|0,0:0|0:0,0:0:0:0:
16,32,300401,6,0,L|193:32,1,155.699995248413,0|2,0:0|0:0,0:0:0:0:
249,34,300818,1,0,0:0:0:0:
133,110,300957,2,0,L|126:298,1,155.699995248413,10|2,0:0|0:0,0:0:0:0:
208,293,301374,1,0,0:0:0:0:
404,315,301512,6,0,L|312:308,1,77.8499976242066,2|0,0:0|0:0,0:0:0:0:
439,264,301790,1,2,0:0:0:0:
98,152,302068,2,0,L|10:147,1,77.8499976242066,10|0,0:0|0:0,0:0:0:0:
229,156,302346,2,0,L|327:156,1,77.8499976242066,10|0,0:0|0:0,0:0:0:0:
32,48,302624,5,14,0:0:0:0:
158,52,302762,1,0,0:0:0:0:
32,48,302901,1,2,0:0:0:0:
166,51,303040,1,0,0:0:0:0:
395,74,303179,1,2,0:0:0:0:
266,78,303318,1,0,0:0:0:0:
395,74,303457,2,0,L|397:173,1,86.5,2|0,0:0|0:0,0:0:0:0:
142,186,303735,5,6,0:0:0:0:
270,197,303874,1,0,0:0:0:0:
142,186,304012,1,8,0:0:0:0:
367,236,304151,1,0,0:0:0:0:
123,248,304290,2,0,L|25:241,1,86.5,6|0,0:0|0:0,0:0:0:0:
257,122,304568,1,8,0:0:0:0:
137,113,304707,1,0,0:0:0:0:
392,112,304846,6,0,L|473:109,1,57.6666666666667,6|0,0:0|0:0,0:0:0:0:
231,47,305031,2,0,L|227:124,1,57.6666666666667,2|0,0:0|0:0,0:0:0:0:
292,113,305216,1,2,0:0:0:0:
356,114,305309,1,0,0:0:0:0:
131,226,305401,2,0,L|73:228,1,57.6666666666667,4|0,0:0|0:0,0:0:0:0:
284,250,305586,2,0,L|358:260,1,57.6666666666667,8|0,0:0|0:0,0:0:0:0:
255,299,305772,2,0,L|180:289,1,57.6666666666667
398,211,305957,5,4,0:0:0:0:
234,161,306049,2,0,L|167:150,2,57.6666666666667,2|0|0,0:0|0:0|0:0,0:0:0:0:
401,156,306327,2,0,L|406:81,1,57.6666666666667,2|0,0:0|0:0,0:0:0:0:
203,75,306512,2,0,L|72:62,1,115.333333333333,2|0,0:0|0:0,0:0:0:0:
290,103,306790,1,2,0:0:0:0:
124,187,306883,2,0,L|118:250,1,57.6666666666667
374,297,307068,6,0,L|422:302,1,47.5750014518738,6|0,0:0|0:0,0:0:0:0:
347,331,307207,2,0,L|292:324,1,47.5750014518738
159,257,307346,2,0,L|158:199,1,47.5750014518738,10|0,0:0|0:0,0:0:0:0:
230,206,307485,2,0,L|232:159,1,47.5750014518738
43,130,307624,2,0,L|102:129,1,47.5750014518738,10|0,0:0|0:0,0:0:0:0:
243,116,307762,2,0,L|296:116,1,47.5750014518738,2|0,0:0|0:0,0:0:0:0:
226,62,307901,2,0,L|173:62,1,47.5750014518738,10|0,0:0|0:0,0:0:0:0:
35,80,308040,2,0,L|32:24,1,47.5750014518738,2|0,0:0|0:0,0:0:0:0:
275,326,308179,6,0,L|330:327,1,47.5750014518738,10|0,0:0|0:0,0:0:0:0:
250,268,308318,2,0,L|188:263,1,47.5750014518738
396,236,308457,2,0,L|396:180,1,47.5750014518738,10|0,0:0|0:0,0:0:0:0:
320,166,308596,2,0,L|259:160,1,47.5750014518738
443,137,308735,2,0,L|504:140,1,47.5750014518738,10|0,0:0|0:0,0:0:0:0:
271,97,308874,2,0,L|214:92,1,47.5750014518738,2|0,0:0|0:0,0:0:0:0:
413,56,309012,2,0,L|356:51,1,47.5750014518738,8|0,0:0|0:0,0:0:0:0:
172,37,309151,2,0,L|115:32,1,47.5750014518738,8|0,0:0|0:0,0:0:0:0:
343,203,309290,6,0,L|345:312,1,95.1500029037476,14|0,0:0|0:0,0:0:0:0:
294,305,309499,1,0,0:0:0:0:
103,306,309568,2,0,L|232:317,1,95.1500029037476,10|0,0:0|0:0,0:0:0:0:
246,322,309776,1,0,0:0:0:0:
16,192,309846,2,0,L|69:192,1,47.5750014518738,10|0,0:0|0:0,0:0:0:0:
280,151,309985,2,0,L|225:151,1,47.5750014518738,2|0,0:0|0:0,0:0:0:0:
50,119,310124,2,0,L|48:57,1,47.5750014518738,8|0,0:0|0:0,0:0:0:0:
113,49,310262,2,0,L|175:47,1,47.5750014518738
400,64,310401,6,0,L|453:64,1,47.5750014518738,14|0,0:0|0:0,0:0:0:0:
253,86,310540,2,0,L|199:86,1,47.5750014518738
400,64,310679,2,0,L|454:64,1,47.5750014518738,2|0,0:0|0:0,0:0:0:0:
205,86,310818,2,0,L|201:160,1,47.5750014518738
398,169,310957,1,10,0:0:0:0:
107,207,311096,2,0,L|42:209,1,47.5750014518738,8|8,0:0|0:0,0:0:0:0:
303,288,311235,2,0,L|368:290,1,47.5750014518738,10|0,0:0|0:0,0:0:0:0:
107,207,311374,2,0,L|42:209,1,47.5750014518738,2|0,0:0|0:0,0:0:0:0:
350,289,311512,6,0,P|395:265|338:179,1,173,4|0,0:0|0:0,0:0:0:0:
218,173,311929,2,0,L|216:67,1,86.5,0|8,0:0|0:0,0:0:0:0:
86,150,312207,2,0,L|84:44,1,86.5
319,60,312485,6,0,P|322:101|215:194,1,173,2|0,0:0|0:0,0:0:0:0:
153,198,312901,1,0,0:0:0:0:
286,238,313040,1,0,0:0:0:0:
165,244,313179,2,0,L|158:339,1,86.5,8|0,0:0|0:0,0:0:0:0:
285,342,313457,2,0,L|376:349,1,86.5
130,346,313735,6,0,P|79:289|137:224,1,173,4|8,0:0|0:0,0:0:0:0:
357,213,314290,2,0,L|163:213,1,173,8|0,0:0|0:0,0:0:0:0:
432,176,314707,6,0,P|431:105|343:52,1,173,4|8,0:0|0:0,0:0:0:0:
222,65,315124,2,0,L|156:62,2,43.25
431,230,315401,2,0,L|497:227,2,43.25,8|0|0,0:0|0:0|0:0,0:0:0:0:
386,236,315610,1,0,0:0:0:0:
236,253,315679,1,8,0:0:0:0:
436,280,315818,2,0,L|440:333,1,43.25,8|0,0:0|0:0,0:0:0:0:
244,178,315957,6,0,L|132:181,1,95.1500029037476,14|0,0:0|0:0,0:0:0:0:
387,158,316235,1,10,0:0:0:0:
266,146,316374,2,0,L|258:51,1,95.1500029037476,2|0,0:0|0:0,0:0:0:0:
496,32,316651,1,2,0:0:0:0:
364,30,316790,1,8,0:0:0:0:
496,32,316929,1,2,0:0:0:0:
251,45,317068,6,0,L|142:39,1,95.1500029037476,4|2,0:0|0:0,0:0:0:0:
293,111,317346,1,8,0:0:0:0:
56,117,317485,2,0,L|47:224,1,95.1500029037476,2|0,0:0|0:0,0:0:0:0:
290,234,317762,1,2,0:0:0:0:
149,248,317901,2,0,L|83:252,1,47.5750014518738,8|0,0:0|0:0,0:0:0:0:
290,234,318040,2,0,L|356:238,1,47.5750014518738
119,338,318179,6,0,L|229:333,1,95.1500029037476,14|0,0:0|0:0,0:0:0:0:
263,330,318387,1,0,0:0:0:0:
312,330,318457,1,0,0:0:0:0:
48,213,318596,1,10,0:0:0:0:
306,183,318735,2,0,L|306:134,1,47.5750014518738
136,123,318874,2,0,L|70:118,1,47.5750014518738
258,139,319012,2,0,L|324:134,1,47.5750014518738,8|0,0:0|0:0,0:0:0:0:
90,69,319151,6,0,L|38:64,1,47.5750014518738,2|0,0:0|0:0,0:0:0:0:
113,37,319290,2,0,L|162:42,1,47.5750014518738
358,186,319429,2,0,L|411:191,1,47.5750014518738,8|8,0:0|0:0,0:0:0:0:
339,236,319568,2,0,L|276:231,1,47.5750014518738
226,264,319707,2,0,L|224:335,1,47.5750014518738
411,322,319846,6,0,L|350:320,1,47.5750014518738,10|8,0:0|0:0,0:0:0:0:
194,332,319985,2,0,L|133:330,1,47.5750014518738,8|8,0:0|0:0,0:0:0:0:
339,325,320124,2,0,L|278:323,1,47.5750014518738,8|8,0:0|0:0,0:0:0:0:
122,335,320262,2,0,L|61:333,1,47.5750014518738,8|8,0:0|0:0,0:0:0:0:
226,110,320401,6,0,L|339:107,1,86.5,6|0,0:2|0:0,0:0:0:0:
98,146,320679,2,0,L|92:239,1,86.5,8|0,0:0|0:0,0:0:0:0:
213,179,320957,2,0,L|218:276,1,86.5
435,216,321235,2,0,L|443:109,1,86.5,8|2,0:0|0:0,0:0:0:0:
188,118,321512,6,0,L|74:106,1,86.5,2|0,0:0|0:0,0:0:0:0:
313,309,321790,2,0,L|313:209,1,86.5,8|0,0:0|0:0,0:0:0:0:
190,332,322068,2,0,L|82:325,1,86.5
310,365,322346,2,0,L|410:360,1,86.5,8|0,0:0|0:0,0:0:0:0:
157,171,322624,6,0,L|64:163,1,86.5,2|0,0:0|0:0,0:0:0:0:
274,171,322901,2,0,L|277:67,1,86.5,8|0,0:0|0:0,0:0:0:0:
146,58,323179,2,0,L|249:55,1,86.5
441,135,323457,2,0,L|444:33,1,86.5,8|0,0:0|0:0,0:0:0:0:
177,182,323735,6,0,L|70:177,1,86.5,2|0,0:0|0:0,0:0:0:0:
209,236,324012,1,8,0:0:0:0:
90,246,324151,1,0,0:0:0:0:
335,312,324290,5,2,0:0:0:0:
235,320,324429,2,0,L|233:272,1,43.25
366,197,324568,2,0,L|428:193,1,43.25,8|0,0:0|0:0,0:0:0:0:
338,161,324707,2,0,L|276:157,1,43.25
124,150,324846,6,0,L|221:146,1,86.5,6|0,0:0|0:0,0:0:0:0:
425,114,325124,2,0,L|428:18,1,86.5,8|0,0:0|0:0,0:0:0:0:
307,48,325401,2,0,L|204:42,1,86.5
434,301,325679,2,0,L|430:189,1,86.5,8|0,0:0|0:0,0:0:0:0:
387,205,325887,1,0,0:0:0:0:
254,199,325957,6,0,L|159:192,1,86.5
387,205,326235,2,0,L|392:98,1,86.5,8|0,0:0|0:0,0:0:0:0:
272,109,326512,2,0,L|372:109,1,86.5
133,93,326790,2,0,L|27:83,1,86.5,8|0,0:0|0:0,0:0:0:0:
92,148,326999,1,0,0:0:0:0:
264,196,327068,6,0,L|266:293,1,86.5,6|0,0:0|0:0,0:0:0:0:
58,278,327346,2,0,L|52:179,1,86.5,10|0,0:0|0:0,0:0:0:0:
271,162,327624,1,2,0:0:0:0:
152,156,327762,1,2,0:0:0:0:
364,159,327901,2,0,L|368:54,1,86.5,8|0,0:0|0:0,0:0:0:0:
126,56,328179,6,0,L|23:52,1,86.5,2|0,0:0|0:0,0:0:0:0:
262,49,328457,2,0,L|266:154,1,86.5,10|0,0:0|0:0,0:0:0:0:
16,160,328735,1,2,0:0:0:0:
223,184,328874,2,0,L|320:191,2,86.5,2|8|0,0:0|0:0|0:0,0:0:0:0:
496,272,329290,6,0,L|490:176,1,86.5,2|2,0:0|0:0,0:0:0:0:
358,177,329568,1,8,0:0:0:0:
490,185,329707,1,0,0:0:0:0:
246,136,329846,2,0,L|148:128,1,86.5,2|2,0:0|0:0,0:0:0:0:
289,113,330124,1,10,0:0:0:0:
60,167,330262,6,0,L|55:70,1,86.5,2|0,0:0|0:0,0:0:0:0:
278,51,330540,1,2,0:0:0:0:
151,46,330679,1,10,0:0:0:0:
278,51,330818,1,2,0:0:0:0:
49,32,330957,1,2,0:0:0:0:
315,137,331096,2,0,L|415:144,2,86.5,2|8|0,0:0|0:0|0:0,0:0:0:0:
87,165,331512,6,0,L|80:265,1,86.5,2|2,0:0|0:0,0:0:0:0:
297,261,331790,1,8,0:0:0:0:
177,261,331929,1,0,0:0:0:0:
414,262,332068,2,0,L|311:263,1,86.5,2|2,0:0|0:0,0:0:0:0:
455,204,332346,1,10,0:0:0:0:
206,188,332485,6,0,L|200:86,1,86.5,2|0,0:0|0:0,0:0:0:0:
481,72,332762,1,2,0:0:0:0:
349,64,332901,1,10,0:0:0:0:
481,72,333040,1,2,0:0:0:0:
247,57,333179,1,2,0:0:0:0:
496,192,333318,1,0,0:0:0:0:
366,186,333457,1,8,0:0:0:0:
236,176,333596,1,0,0:0:0:0:
496,288,333735,5,2,0:0:0:0:
373,279,333874,1,2,0:0:0:0:
141,257,334012,1,10,0:0:0:0:
366,106,334151,1,2,0:0:0:0:
235,101,334290,1,0,0:0:0:0:
366,106,334429,1,0,0:0:0:0:
128,91,334568,2,0,L|34:83,1,86.5,8|0,0:0|0:0,0:0:0:0:
307,199,334846,5,2,0:0:0:0:
91,202,334985,1,0,0:0:0:0:
210,215,335124,1,8,0:0:0:0:
91,202,335262,1,0,0:0:0:0:
347,254,335401,1,2,0:0:0:0:
220,262,335540,1,0,0:0:0:0:
474,246,335679,1,8,0:0:0:0:
347,254,335818,1,0,0:0:0:0:
79,126,335957,5,10,0:0:0:0:
292,122,336096,1,0,0:0:0:0:
32,128,336235,2,0,L|27:74,1,43.25,8|0,0:0|0:0,0:0:0:0:
181,66,336374,1,8,0:0:0:0:
440,133,336512,2,0,L|445:79,1,43.25,8|0,0:0|0:0,0:0:0:0:
291,71,336651,1,8,0:0:0:0:
32,46,336790,2,0,L|112:39,1,43.25,8|0,0:0|0:0,0:0:0:0:
230,34,336929,1,8,0:0:0:0:
496,224,337068,6,0,L|492:285,1,43.25,8|0,0:0|0:0,0:0:0:0:
362,281,337207,1,8,0:0:0:0:
107,291,337346,2,0,L|168:285,1,43.25,8|0,0:0|0:0,0:0:0:0:
286,275,337485,1,8,0:0:0:0:
16,208,337624,2,0,L|84:205,1,43.25,8|0,0:0|0:0,0:0:0:0:
273,191,337762,2,0,L|341:188,1,43.25,8|0,0:0|0:0,0:0:0:0:
98,204,337901,2,0,L|166:201,1,43.25,8|8,0:0|0:0,0:0:0:0:
355,187,338040,2,0,L|423:184,1,43.25,8|8,0:0|0:0,0:0:0:0:
132,123,338179,6,0,L|129:27,1,86.5,4|0,0:0|0:0,0:0:0:0:
173,21,338387,1,0,0:0:0:0:
368,15,338457,1,8,0:0:0:0:
255,17,338596,1,0,0:0:0:0:
496,48,338735,2,0,L|495:152,1,86.5,10|0,0:0|0:0,0:0:0:0:
371,138,339012,1,8,0:0:0:0:
493,185,339151,1,0,0:0:0:0:
231,178,339290,6,0,L|120:173,1,86.5,10|0,0:0|0:0,0:0:0:0:
372,168,339568,1,8,0:0:0:0:
244,157,339707,1,0,0:0:0:0:
372,168,339846,2,0,L|376:72,1,86.5,8|0,0:0|0:0,0:0:0:0:
156,78,340124,2,0,L|55:66,1,86.5,8|0,0:0|0:0,0:0:0:0:
114,137,340332,1,0,0:0:0:0:
288,221,340401,6,0,L|293:327,1,86.5,8|0,0:0|0:0,0:0:0:0:
91,308,340679,2,0,L|196:320,1,86.5,8|0,0:0|0:0,0:0:0:0:
403,194,340957,2,0,L|417:144,2,43.25,10|0|0,0:0|0:0|0:0,0:0:0:0:
191,207,341235,1,8,0:0:0:0:
301,216,341374,1,0,0:0:0:0:
34,196,341512,6,0,L|28:78,1,86.5,10|0,0:0|0:0,0:0:0:0:
248,94,341790,2,0,L|355:92,1,86.5,8|0,0:0|0:0,0:0:0:0:
113,168,342068,2,0,L|109:225,1,43.25,10|0,0:0|0:0,0:0:0:0:
175,243,342207,2,0,L|223:252,1,43.25,8|0,0:0|0:0,0:0:0:0:
62,275,342346,2,0,L|11:279,1,43.25,8|0,0:0|0:0,0:0:0:0:
82,321,342485,2,0,L|128:323,1,43.25,8|0,0:0|0:0,0:0:0:0:
340,332,342624,6,0,L|440:335,1,86.5,12|0,0:0|0:0,0:0:0:0:
214,206,342901,2,0,L|212:96,1,86.5,8|0,0:0|0:0,0:0:0:0:
455,116,343179,2,0,L|380:106,1,43.25,10|0,0:0|0:0,0:0:0:0:
349,147,343318,2,0,L|342:207,1,43.25
495,173,343457,2,0,L|489:215,1,43.25,8|0,0:0|0:0,0:0:0:0:
426,252,343596,2,0,L|383:246,1,43.25
210,240,343735,6,0,L|286:248,1,43.25,10|0,0:0|0:0,0:0:0:0:
407,310,343874,2,0,L|453:315,1,43.25
298,127,344012,2,0,L|297:75,1,43.25,8|0,0:0|0:0,0:0:0:0:
362,85,344151,2,0,L|363:33,1,43.25
224,43,344290,2,0,L|162:39,1,43.25,10|0,0:0|0:0,0:0:0:0:
245,21,344429,2,0,L|307:17,1,43.25
130,93,344568,2,0,L|34:90,1,86.5,8|0,0:0|0:0,0:0:0:0:
87,148,344776,1,0,0:0:0:0:
262,168,344846,6,0,L|330:173,1,43.25,14|0,0:0|0:0,0:0:0:0:
168,221,344985,2,0,L|166:277,1,43.25
326,279,345124,2,0,L|387:281,1,43.25,2|0,0:0|0:0,0:0:0:0:
305,319,345262,2,0,L|253:316,1,43.25,2|0,0:0|0:0,0:0:0:0:
410,217,345401,2,0,L|503:220,1,86.5,10|0,0:0|0:0,0:0:0:0:
281,132,345679,1,8,0:0:0:0:
400,130,345818,1,8,0:0:0:0:
157,121,345957,6,0,L|59:115,1,86.5,12|0,0:0|0:0,0:0:0:0:
290,193,346235,1,8,0:0:0:0:
168,206,346374,1,8,0:0:0:0:
432,273,346512,2,0,L|322:277,1,86.5,10|0,0:0|0:0,0:0:0:0:
300,279,346721,1,0,0:0:0:0:
452,206,346790,2,0,L|456:136,1,43.25,8|0,0:0|0:0,0:0:0:0:
322,133,346929,2,0,L|272:127,1,43.25,8|0,0:0|0:0,0:0:0:0:
116,80,347068,6,0,B|333:69|333:69|356:283,1,432.5,4|0,0:2|0:0,0:0:0:0:
116,80,347438,2,0,B|333:69|333:69|356:286,1,432.5,4|0,0:0|0:0,0:0:0:0:
192,79,347809,2,0,B|409:68|409:68|432:282,1,432.5,4|0,0:0|0:0,0:0:0:0:
263,134,348179,6,0,B|47:123|47:123|23:337,1,432.5,4|0,0:0|0:0,0:0:0:0:
193,348,348549,2,0,B|414:343|414:343|450:223|418:133,1,432.5,4|0,0:0|0:0,0:0:0:0:
145,127,348920,2,0,B|362:116|362:116|385:330,1,432.5,4|0,0:0|0:0,0:0:0:0:
83,79,349290,6,0,B|300:68|300:68|323:282,1,432.5,4|0,0:0|0:0,0:0:0:0:
83,79,349661,2,0,B|300:68|300:68|323:285,1,432.5,4|0,0:0|0:0,0:0:0:0:
159,78,350031,2,0,B|376:67|376:67|399:281,1,432.5,4|0,0:0|0:0,0:0:0:0:
120,42,350401,6,0,B|336:31|336:31|434:239,1,432.5,4|0,0:0|0:0,0:0:0:0:
261,255,350772,2,0,B|40:250|40:250|4:130|36:40,1,432.5,4|0,0:0|0:0,0:0:0:0:
309,34,351142,2,0,B|92:23|92:23|69:237,1,432.5,4|0,0:0|0:0,0:0:0:0:
274,118,351512,6,0,L|340:112,1,43.25,4|0,0:2|0:0,0:0:0:0:
253,64,351651,2,0,L|200:63,1,43.25
26,56,351790,2,0,L|92:49,1,43.25,8|8,0:0|0:0,0:0:0:0:
129,28,351929,2,0,L|174:23,1,43.25
37,195,352068,2,0,L|33:260,1,43.25
226,248,352207,2,0,L|285:256,1,43.25,8|8,0:0|0:0,0:0:0:0:
204,291,352346,2,0,L|156:295,1,43.25
102,248,352485,2,0,L|99:197,1,43.25
298,180,352624,6,0,L|360:172,1,43.25,8|8,0:0|0:0,0:0:0:0:
206,143,352762,2,0,L|111:141,1,86.5
418,122,353040,2,0,L|426:51,1,43.25,8|8,0:0|0:0,0:0:0:0:
269,63,353179,2,0,L|390:51,1,86.5
106,72,353457,2,0,L|46:74,1,43.25,8|8,0:0|0:0,0:0:0:0:
238,128,353596,2,0,L|298:130,1,43.25,8|8,0:0|0:0,0:0:0:0:
62,213,353735,5,2,0:0:0:0:
328,232,353874,2,0,L|382:226,1,43.25,8|8,0:0|0:0,0:0:0:0:
245,280,354012,2,0,L|134:290,1,86.5,2|2,0:0|0:0,0:0:0:0:
434,193,354290,2,0,L|441:121,1,43.25,8|8,0:0|0:0,0:0:0:0:
304,325,354429,2,0,L|193:335,1,86.5,2|2,0:0|0:0,0:0:0:0:
496,80,354707,2,0,L|432:79,1,43.25,8|8,0:0|0:0,0:0:0:0:
279,77,354846,6,0,L|283:180,1,86.5,2|0,0:0|0:0,0:0:0:0:
329,171,355054,1,0,0:0:0:0:
172,226,355124,2,0,L|119:231,1,43.25,8|8,0:0|0:0,0:0:0:0:
192,268,355262,2,0,L|249:264,1,43.25
84,129,355401,2,0,L|35:131,1,43.25,8|0,0:0|0:0,0:0:0:0:
105,178,355540,2,0,L|154:180,1,43.25,8|8,0:0|0:0,0:0:0:0:
344,237,355679,2,0,L|410:240,1,43.25,8|8,0:0|0:0,0:0:0:0:
169,327,355818,2,0,L|103:330,1,43.25,8|8,0:0|0:0,0:0:0:0:
368,329,355957,6,0,P|428:296|347:91,1,346,2|2,0:0|0:0,0:0:0:0:
71,104,357068,5,2,0:0:0:0:
421,65,357624,2,0,L|427:270,1,173,2|0,0:0|0:0,0:0:0:0:
334,245,358040,1,0,0:0:0:0:
125,347,358179,6,0,L|327:332,1,173,2|0,0:0|0:0,0:0:0:0:
294,244,358596,1,0,0:0:0:0:
159,240,358735,2,0,L|169:66,1,173,2|2,0:0|0:0,0:0:0:0:
254,63,359151,1,0,0:0:0:0:
480,320,359290,6,0,P|376:292|348:75,1,346,2|2,0:0|0:0,0:0:0:0:
496,64,360124,1,2,0:0:0:0:
114,67,360401,6,0,P|38:122|143:316,1,346,2|2,0:0|0:0,0:0:0:0:
409,336,361512,2,0,L|54:321,1,346,2|2,0:0|0:0,0:0:0:0:
400,256,362624,6,0,L|215:239,1,173,2|0,0:0|0:0,0:0:0:0:
224,169,363040,1,0,0:0:0:0:
367,165,363179,2,0,L|370:63,1,86.5,2|0,0:0|0:0,0:0:0:0:
188,76,363596,1,2,0:0:0:0:
330,66,363735,6,0,L|520:81,1,173,2|0,0:0|0:0,0:0:0:0:
221,131,364290,2,0,P|152:156|218:299,1,259.5,2|2,0:0|0:0,0:0:0:0:
339,315,364846,6,0,L|350:128,1,173,2|0,0:0|0:0,0:0:0:0:
263,121,365262,1,0,0:0:0:0:
133,111,365401,1,2,0:0:0:0:
62,153,365540,1,0,0:0:0:0:
68,235,365679,1,0,0:0:0:0:
143,269,365818,1,0,0:0:0:0:
284,292,365957,6,0,L|280:102,1,173,2|0,0:0|0:0,0:0:0:0:
93,227,366512,2,0,L|83:42,1,173,2|0,0:0|0:0,0:0:0:0:
436,65,367068,6,0,L|420:239,1,173,2|0,0:0|0:0,0:0:0:0:
331,240,367485,1,0,0:0:0:0:
172,240,367624,2,0,L|166:114,1,86.5,2|0,0:0|0:0,0:0:0:0:
329,145,368040,1,2,0:0:0:0:
126,94,368179,6,0,P|46:135|142:334,1,346,2|2,0:0|0:0,0:0:0:0:
288,336,369012,2,0,L|291:232,1,86.5
88,206,369290,6,0,P|89:160|260:53,2,259.5,2|0|0,0:0|0:0|0:0,0:0:0:0:
166,242,370262,1,0,0:0:0:0:
376,259,370401,5,2,0:0:0:0:
450,223,370540,1,0,0:0:0:0:
453,141,370679,1,2,0:0:0:0:
381,100,370818,1,0,0:0:0:0:
174,102,370957,2,0,L|171:201,1,86.5,2|0,0:0|0:0,0:0:0:0:
297,176,371235,2,0,L|300:275,1,86.5,2|0,0:0|0:0,0:0:0:0:
256,192,371512,12,0,373735,0:0:0:0:
