osu file format v14

[General]
AudioFilename: audio.mp3
AudioLeadIn: 0
PreviewTime: 72271
Countdown: 0
SampleSet: Soft
StackLeniency: 0.4
Mode: 0
LetterboxInBreaks: 0
WidescreenStoryboard: 1

[Editor]
Bookmarks: 12459,18459,30459,43959,55959,67959,85959,97959
DistanceSpacing: 1
BeatDivisor: 4
GridSize: 32
TimelineZoom: 1.2

[Metadata]
Title:Side Effect
TitleUnicode:Side Effect
Artist:Ito Kanako
ArtistUnicode:いとうかなこ
Creator:celerih
Version:defiance's Normal
Source:ひぐらしのなく頃に粋
Tags:thicc bish KKipalt Ultima Fox osuskrub defiance quanhitter39 07th Expansion Visual Novel Opening Higurashi no Naku Koro ni Sui When They Cry Nintendo Switch PSVita Playstation
BeatmapID:1939639
BeatmapSetID:928648

[Difficulty]
HPDrainRate:4
CircleSize:3.4
OverallDifficulty:4
ApproachRate:5.4
SliderMultiplier:1.22
SliderTickRate:1

[Events]
//Background and Video events
0,0,"Side Effect BG.jpg",0,0
//Break Periods
2,98159,102070
//Storyboard Layer 0 (Background)
//Storyboard Layer 1 (Fail)
//Storyboard Layer 2 (Pass)
//Storyboard Layer 3 (Foreground)
//Storyboard Sound Samples

[TimingPoints]
459,375,4,2,1,50,1,0
459,-100,4,2,1,50,0,0
6459,-100,4,2,1,50,0,0
30459,-100,4,2,1,50,0,0
43396,-100,4,2,1,50,0,0
43959,-100,4,2,1,50,0,0
55209,-100,4,2,1,50,0,0
67959,-100,4,2,1,50,0,0
70959,-100,4,2,1,50,0,0
72271,-100,4,2,1,50,0,0
72459,-100,4,2,1,50,0,0
73021,-100,4,2,1,50,0,0
73771,-100,4,2,1,50,0,0

[Colours]
Combo1 : 132,107,182
Combo2 : 214,126,124
Combo3 : 159,125,215
Combo4 : 140,172,225

[HitObjects]
113,45,12459,5,0,3:0:0:0:
200,88,12834,2,0,P|184:164|291:197,1,183,0|0,3:0|3:0,0:0:0:0:
309,185,13584,1,2,0:0:0:0:
377,254,13959,1,0,3:0:0:0:
321,334,14334,1,2,0:0:0:0:
232,292,14709,2,0,L|98:311,1,122,4|8,0:3|0:0,0:0:0:0:
33,249,15459,5,8,0:3:0:0:
100,178,15834,2,0,P|109:117|88:42,1,122,0|0,0:0|0:0,0:0:0:0:
183,14,16584,1,0,3:0:0:0:
258,75,16959,1,8,0:0:0:0:
258,75,17146,2,0,L|237:154,1,61,0|8,3:0|0:0,0:0:0:0:
297,215,17709,1,0,3:0:0:0:
379,267,18084,1,0,3:0:0:0:
473,243,18459,5,4,3:2:0:0:
384,95,19959,1,0,0:0:0:0:
60,202,21271,1,0,3:0:0:0:
60,202,21459,5,2,3:2:0:0:
146,357,22584,2,0,L|159:282,1,61,0|0,0:0|0:0,0:0:0:0:
190,261,22959,1,2,3:2:0:0:
403,143,23896,1,0,0:0:0:0:
403,143,24084,2,0,L|314:129,1,61,0|0,0:0|0:0,0:0:0:0:
294,127,24459,6,0,L|319:290,1,122,0|0,0:0|3:0,0:0:0:0:
149,355,25584,1,0,3:0:0:0:
245,375,25959,2,0,P|305:373|350:323,1,122,0|0,0:0|3:0,0:0:0:0:
295,142,27084,1,0,3:0:0:0:
391,153,27459,6,0,P|401:94|377:3,1,122,0|0,0:0|3:0,0:0:0:0:
196,8,28584,1,0,3:0:0:0:
132,81,28959,1,8,0:0:0:0:
132,81,29146,1,8,0:0:0:0:
248,169,29709,2,0,L|215:298,1,122,8|0,0:0|3:0,0:0:0:0:
172,305,30271,1,0,3:0:0:0:
123,298,30459,5,4,3:2:0:0:
56,224,30834,2,0,L|37:88,1,122,8|0,0:0|0:0,0:0:0:0:
38,54,31396,2,0,L|178:41,1,122,0|0,3:0|0:0,0:0:0:0:
208,47,31959,1,0,3:0:0:0:
272,121,32334,2,0,L|246:268,1,122,8|0,0:0|0:0,0:0:0:0:
286,274,32896,2,0,L|438:293,1,122,0|0,3:0|0:0,0:0:0:0:
448,263,33459,6,0,P|460:201|451:130,1,122,0|8,3:0|0:0,0:0:0:0:
390,68,34209,2,0,P|325:80|254:44,1,122,0|8,0:0|0:0,0:0:0:0:
235,31,34771,1,4,3:2:0:0:
156,88,35146,1,0,3:0:0:0:
156,88,35334,2,0,L|133:210,1,122,8|8,0:0|0:0,0:0:0:0:
183,291,36084,1,8,0:0:0:0:
183,291,36271,6,0,P|101:305|38:320,1,122,4|0,3:2|3:0,0:0:0:0:
26,345,36834,1,8,0:0:0:0:
6,249,37209,1,2,3:0:0:0:
6,249,37396,2,0,L|25:175,1,61,0|8,3:0|0:0,0:0:0:0:
53,152,37771,2,0,L|192:136,1,122,4|0,3:2|3:0,0:0:0:0:
209,104,38334,1,8,0:0:0:0:
293,152,38709,2,0,P|264:208|267:286,1,122,2|8,3:0|0:0,0:0:0:0:
339,325,39459,6,0,L|480:328,1,122,4|8,3:2|0:0,0:0:0:0:
495,236,40209,2,0,L|507:174,2,61,0|0|8,0:0|3:0|0:0,0:0:0:0:
446,237,40771,2,0,P|363:230|248:225,1,183,4|8,3:2|0:0,0:0:0:0:
203,147,41709,1,8,0:0:0:0:
203,147,41896,2,0,L|210:75,2,61,8|4|0,0:3|0:3|3:0,0:0:0:0:
167,180,42459,5,0,3:0:0:0:
167,180,42646,1,0,3:0:0:0:
483,51,43959,5,2,3:0:0:0:
409,115,44334,1,2,0:0:0:0:
490,169,44709,2,0,L|500:239,1,61,0|0,0:0|3:0,0:0:0:0:
469,268,45084,1,2,0:0:0:0:
469,268,45271,2,0,L|276:257,1,183,0|2,0:0|0:0,0:0:0:0:
232,176,46209,1,0,0:0:0:0:
7,218,46959,5,0,3:0:0:0:
57,301,47334,1,2,0:0:0:0:
57,301,47521,2,0,L|204:316,1,122,0|0,3:0|3:0,0:0:0:0:
227,309,48084,2,0,L|220:241,1,61,2|0,0:0|0:0,0:0:0:0:
340,50,49584,1,2,0:3:0:0:
417,108,49959,6,0,P|422:189|418:260,2,122,2|2|0,3:2|0:0|0:0,0:0:0:0:
345,40,51084,1,2,0:0:0:0:
264,94,51459,2,0,L|112:114,1,122,2|2,3:2|0:0,0:0:0:0:
60,161,52209,1,2,0:0:0:0:
32,254,52584,1,2,0:0:0:0:
91,331,52959,6,0,P|144:342|218:292,2,122,0|2|0,3:0|0:0|0:0,0:0:0:0:
36,249,54084,1,2,0:0:0:0:
36,249,54271,2,0,L|21:46,1,183,0|2,0:0|0:0,0:0:0:0:
111,106,55209,1,8,0:0:0:0:
192,51,55584,2,0,L|265:64,1,61,4|0,0:3|3:3,0:0:0:0:
297,42,55959,5,4,3:2:0:0:
382,88,56334,1,8,0:0:0:0:
382,88,56521,2,0,P|357:165|354:234,1,122,0|0,3:0|3:0,0:0:0:0:
387,256,57084,1,8,0:0:0:0:
365,376,57459,2,0,L|236:352,2,122,0|8|0,3:2|0:0|3:0,0:0:0:0:
476,325,58584,1,8,0:0:0:0:
404,227,58959,6,0,P|392:154|415:82,1,122,4|8,3:2|0:0,0:0:0:0:
379,55,59521,1,0,3:0:0:0:
296,107,59896,1,0,3:0:0:0:
249,123,60084,1,8,0:0:0:0:
205,100,60271,2,0,P|133:79|26:156,1,183,4|8,3:2|0:0,0:0:0:0:
4,218,61209,1,8,0:0:0:0:
4,218,61396,2,0,L|10:294,1,61,8|4,0:3|0:3,0:0:0:0:
50,303,61771,6,0,P|151:301|227:291,1,122,4|0,3:2|3:0,0:0:0:0:
214,275,62334,2,0,L|198:204,1,61,8|0,0:0|0:0,0:0:0:0:
268,145,62896,2,0,L|290:73,1,61,8|8,0:0|0:0,0:0:0:0:
300,40,63271,2,0,B|364:62|360:12|459:40,1,122,4|0,3:2|3:0,0:0:0:0:
464,52,63834,1,8,0:0:0:0:
415,136,64209,1,8,0:0:0:0:
415,136,64396,2,0,L|429:230,1,61,8|4,0:3|0:3,0:0:0:0:
397,237,64771,6,0,P|340:233|266:336,1,183,4|8,3:2|0:0,0:0:0:0:
348,375,65709,1,4,0:3:0:0:
444,357,66084,1,8,0:0:0:0:
505,281,66459,1,4,0:3:0:0:
461,186,66834,2,0,P|385:198|320:211,2,122,8|4|8,0:0|0:3|0:0,0:0:0:0:
504,98,67959,5,12,0:0:0:0:
372,33,68521,1,8,0:0:0:0:
261,128,69084,1,8,0:0:0:0:
144,40,69646,5,8,0:0:0:0:
39,143,70209,1,8,0:0:0:0:
75,233,70584,1,4,3:3:0:0:
284,367,72459,5,10,0:0:0:0:
228,286,72834,2,0,L|236:219,1,61,0|8,3:0|0:0,0:0:0:0:
298,150,73396,1,0,3:0:0:0:
242,69,73771,6,0,P|172:97|85:36,1,183,4|8,3:2|0:0,0:0:0:0:
29,121,74709,2,0,P|37:192|28:254,1,122,0|8,3:0|0:0,0:0:0:0:
68,273,75271,2,0,P|134:274|205:280,1,122,0|0,0:0|0:0,0:0:0:0:
242,246,75834,1,8,0:0:0:0:
176,143,76209,1,0,3:0:0:0:
270,65,76584,1,8,0:0:0:0:
325,173,76959,6,0,P|393:178|481:191,1,122,0|8,3:0|0:0,0:0:0:0:
498,74,77709,2,0,P|424:77|357:89,1,122,0|8,3:0|0:0,0:0:0:0:
324,53,78271,2,0,P|292:132|319:203,1,122,0|0,0:0|3:0,0:0:0:0:
327,219,78834,1,8,0:0:0:0:
222,281,79209,1,8,0:0:0:0:
222,281,79396,1,0,3:0:0:0:
222,281,79584,2,0,L|115:298,1,61,8|4,0:0|0:3,0:0:0:0:
109,259,79959,6,0,L|123:95,2,122,4|8|0,3:2|0:0|3:0,0:0:0:0:
182,356,81084,1,8,0:0:0:0:
182,356,81271,2,0,P|264:339|335:333,1,122,0|0,0:0|0:0,0:0:0:0:
363,341,81834,2,0,P|353:277|354:212,1,122,8|0,0:0|3:0,0:0:0:0:
399,106,82584,1,8,0:0:0:0:
467,207,82959,5,12,0:0:0:0:
467,207,83146,2,0,L|481:271,1,61,0|0,3:0|3:0,0:0:0:0:
442,315,83521,2,0,P|373:302|309:341,1,122,8|0,0:0|3:0,0:0:0:0:
286,367,84084,1,8,0:0:0:0:
286,367,84271,1,0,3:0:0:0:
306,246,84646,1,12,0:0:0:0:
306,246,84834,2,0,P|308:194|303:156,1,61,0|0,3:0|3:0,0:0:0:0:
277,131,85209,2,0,P|200:136|139:137,1,122,8|8,0:0|0:0,0:0:0:0:
72,47,85959,5,4,0:0:0:0:
54,167,86334,1,12,0:0:0:0:
128,263,86709,2,0,P|189:258|256:246,1,122,0|8,3:0|0:0,0:0:0:0:
297,211,87271,2,0,P|293:135|306:77,1,122
322,32,87834,1,8,0:0:0:0:
436,73,88209,1,0,3:0:0:0:
495,179,88584,1,8,0:0:0:0:
406,263,88959,6,0,P|352:281|278:254,1,122,0|8,3:0|0:0,0:0:0:0:
187,198,89709,2,0,P|195:258|187:321,1,122,0|8,3:0|0:0,0:0:0:0:
65,316,90459,1,0,3:0:0:0:
65,316,90646,2,0,L|78:243,1,61,0|8,3:0|0:0,0:0:0:0:
91,196,91021,1,0,3:0:0:0:
91,196,91209,1,12,0:0:0:0:
179,111,91584,1,4,3:2:0:0:
297,80,91959,5,4,3:2:0:0:
340,193,92334,1,8,0:0:0:0:
236,256,92709,2,0,L|173:264,1,61,0|0,3:0|3:0,0:0:0:0:
119,239,93084,1,8,0:0:0:0:
119,239,93271,2,0,L|159:101,1,122,0|0,0:0|0:0,0:0:0:0:
167,62,93834,2,0,L|245:46,1,61,8|0,0:0|0:0,0:0:0:0:
279,81,94209,1,0,3:0:0:0:
381,146,94584,1,8,0:0:0:0:
306,242,94959,5,4,3:2:0:0:
399,320,95334,1,8,0:0:0:0:
286,368,95709,2,0,L|211:361,1,61,0|2,0:0|3:0,0:0:0:0:
187,340,96084,1,8,0:0:0:0:
187,340,96271,2,0,P|178:270|189:186,1,122,4|0,3:2|3:0,0:0:0:0:
214,167,96834,1,8,0:0:0:0:
214,167,97021,2,0,L|60:181,1,122,0|4,0:0|0:3,0:0:0:0:
45,138,97584,1,4,0:3:0:0:
138,59,97959,5,6,3:2:0:0:
503,350,103209,5,10,3:2:0:0:
503,350,103396,1,10,3:2:0:0:
