osu file format v14

[General]
AudioFilename: audio.mp3
AudioLeadIn: 0
PreviewTime: 72271
Countdown: 0
SampleSet: Soft
StackLeniency: 0.4
Mode: 0
LetterboxInBreaks: 0
WidescreenStoryboard: 0

[Editor]
Bookmarks: 12459,18459,30459,43959,55959,67959,85959,97959
DistanceSpacing: 0.6
BeatDivisor: 4
GridSize: 32
TimelineZoom: 1.8

[Metadata]
Title:Side Effect
TitleUnicode:Side Effect
Artist:Ito Kanako
ArtistUnicode:いとうかなこ
Creator:celerih
Version:Shattered
Source:ひぐらしのなく頃に粋
Tags:thicc bish KKipalt Ultima Fox osuskrub defiance quanhitter39 07th Expansion Visual Novel Opening Higurashi no Naku Koro ni Sui When They Cry Nintendo Switch PSVita Playstation
BeatmapID:1939642
BeatmapSetID:928648

[Difficulty]
HPDrainRate:5.7
CircleSize:4.2
OverallDifficulty:8.2
ApproachRate:9.1
SliderMultiplier:1.92
SliderTickRate:1

[Events]
//Background and Video events
0,0,"Side Effect BG.jpg",0,0
//Break Periods
//Storyboard Layer 0 (Background)
//Storyboard Layer 1 (Fail)
//Storyboard Layer 2 (Pass)
//Storyboard Layer 3 (Foreground)
//Storyboard Sound Samples

[TimingPoints]
459,375,4,2,1,50,1,0
459,-166.666666666667,4,2,1,50,0,0
6459,-125,4,2,1,50,0,0
30459,-100,4,2,1,50,0,0
43396,-125,4,2,1,50,0,0
43959,-166.666666666667,4,2,1,50,0,0
55209,-125,4,2,1,50,0,0
67959,-100,4,2,1,50,0,0
70959,-142.857142857143,4,2,1,50,0,0
72271,-100,4,2,1,50,0,0
72459,-83.3333333333333,4,2,1,50,0,0
73021,-166.666666666667,4,2,1,50,0,0
73771,-83.3333333333333,4,2,1,50,0,1
97959,-125,4,2,1,50,0,0

[Colours]
Combo1 : 132,107,182
Combo2 : 214,126,124
Combo3 : 159,125,215
Combo4 : 140,172,225

[HitObjects]
185,215,459,6,0,P|191:178|200:145,2,57.5999982421876,2|0|0,0:0|0:0|0:0,0:0:0:0:
170,137,1021,1,2,0:0:0:0:
157,115,1209,1,0,0:0:0:0:
136,101,1396,1,0,0:0:0:0:
250,47,1584,6,0,P|276:53|327:70,2,57.5999982421876,2|0|0,0:0|0:0|0:0,0:0:0:0:
320,47,2146,1,2,0:0:0:0:
339,65,2333,1,0,0:0:0:0:
363,73,2521,1,0,0:0:0:0:
413,189,2709,6,0,P|419:159|429:125,1,57.5999982421876,2|0,0:0|0:0,0:0:0:0:
512,258,3084,2,0,P|499:229|483:198,1,57.5999982421876,2|0,0:0|0:0,0:0:0:0:
441,351,3459,6,0,P|419:336|371:314,2,57.5999982421876,2|0|0,0:0|0:0|0:0,0:0:0:0:
371,342,4021,1,2,0:0:0:0:
350,359,4209,1,0,0:0:0:0:
326,367,4396,1,0,0:0:0:0:
217,286,4584,6,0,P|211:258|198:223,2,57.5999982421876,2|0|0,0:0|0:0|0:0,0:0:0:0:
177,226,5146,1,2,0:0:0:0:
159,247,5334,1,0,0:0:0:0:
95,283,5521,1,0,0:0:0:0:
82,284,5615,1,0,0:0:0:0:
69,292,5709,6,0,P|70:320|74:353,1,57.5999982421876,2|0,0:0|0:0,0:0:0:0:
5,244,6084,1,2,0:0:0:0:
210,147,6271,1,0,0:0:0:0:
185,112,6365,1,0,0:0:0:0:
147,92,6459,6,0,P|138:132|129:194,2,76.8,2|0|0,0:0|0:0|0:0,0:0:0:0:
113,178,7021,1,2,0:0:0:0:
83,162,7209,1,0,0:0:0:0:
48,160,7396,1,0,0:0:0:0:
194,24,7584,6,0,P|223:44|276:66,2,76.8,2|0|0,0:0|0:0|0:0,0:0:0:0:
274,85,8146,1,2,0:0:0:0:
299,61,8334,1,0,0:0:0:0:
308,27,8521,1,0,0:0:0:0:
457,163,8709,6,0,P|478:133|506:102,1,76.8,2|0,0:0|0:0,0:0:0:0:
386,17,9084,2,0,P|404:51|419:85,1,76.8,2|0,0:0|0:0,0:0:0:0:
340,247,9459,6,0,P|350:290|357:340,2,76.8,2|0|0,0:0|0:0|0:0,0:0:0:0:
379,326,10021,1,2,0:0:0:0:
406,304,10209,1,0,0:0:0:0:
441,296,10396,1,0,0:0:0:0:
372,150,10584,6,0,P|332:142|294:131,2,76.8,2|0|0,0:0|0:0|0:0,0:0:0:0:
283,109,11146,1,2,0:0:0:0:
260,135,11334,1,0,0:0:0:0:
190,125,11521,1,0,0:0:0:0:
177,113,11615,1,0,0:0:0:0:
160,104,11709,6,0,P|142:144|130:180,1,76.8,2|0,0:0|0:0,0:0:0:0:
66,207,11990,1,0,0:0:0:0:
54,200,12084,1,2,0:0:0:0:
80,307,12271,1,0,0:0:0:0:
37,100,12459,6,0,P|29:63|12:14,1,76.8,0|0,3:0|3:0,0:0:0:0:
120,74,12834,1,0,3:0:0:0:
119,152,13021,1,2,0:0:0:0:
189,178,13209,1,0,0:0:0:0:
202,253,13396,1,2,3:0:0:0:
196,263,13459,1,2,0:0:0:0:
191,275,13521,1,2,0:0:0:0:
189,286,13584,2,0,P|227:274|263:266,1,76.8,2|0,0:0|0:0,0:0:0:0:
425,355,13959,6,0,L|447:267,1,76.8,0|2,3:0|0:0,0:0:0:0:
388,234,14334,1,2,0:0:0:0:
372,162,14521,1,4,0:3:0:0:
391,146,14615,1,4,0:3:0:0:
403,125,14709,2,0,P|366:130|321:139,1,76.8,4|4,0:3|0:3,0:0:0:0:
292,67,14990,1,8,0:0:0:0:
274,61,15084,2,0,P|294:98|341:97,1,76.8,8|0,0:0|0:0,0:0:0:0:
201,220,15459,5,8,0:3:0:0:
97,98,15740,1,4,0:3:0:0:
81,104,15834,2,0,P|100:62|122:26,1,76.8,0|0,0:0|3:0,0:0:0:0:
83,247,16209,1,0,0:0:0:0:
153,214,16396,1,0,3:0:0:0:
16,39,16584,6,0,B|51:73|51:73|32:208,1,153.6,0|8,3:0|0:0,0:0:0:0:
77,241,17052,1,8,0:0:0:0:
59,260,17146,1,0,3:0:0:0:
34,267,17240,1,0,0:0:0:0:
0,260,17334,1,8,0:0:0:0:
128,132,17521,1,0,0:0:0:0:
150,152,17615,1,8,0:0:0:0:
179,159,17709,6,0,P|212:139|256:121,1,76.8,0|8,3:0|0:3,0:0:0:0:
243,33,17990,1,0,3:0:0:0:
232,49,18084,1,0,3:0:0:0:
304,265,18271,1,0,3:0:0:0:
272,346,18459,5,4,3:2:0:0:
128,104,21271,1,0,3:0:0:0:
304,242,21459,5,2,3:2:0:0:
257,58,22209,1,0,0:0:0:0:
325,93,22584,1,0,0:0:0:0:
337,78,22771,1,0,0:0:0:0:
428,269,22959,5,2,3:2:0:0:
138,361,23896,2,0,P|141:340|145:317,1,38.4,0|0,0:0|0:0,0:0:0:0:
20,282,24084,2,0,P|24:307|28:335,1,38.4,0|0,0:0|0:0,0:0:0:0:
41,336,24271,2,0,P|48:315|57:295,2,38.4,0|0|0,0:0|0:0|0:0,0:0:0:0:
11,201,24834,5,0,3:0:0:0:
86,152,25584,1,0,3:0:0:0:
161,199,26334,1,0,3:0:0:0:
247,128,27084,1,0,3:0:0:0:
349,198,27834,1,0,3:0:0:0:
498,129,28584,2,0,P|460:117|400:103,1,76.8,0|0,3:0|0:0,0:0:0:0:
490,49,28959,5,8,0:0:0:0:
340,350,29146,1,8,0:0:0:0:
409,311,29521,2,0,L|424:265,1,38.4,0|8,3:0|0:3,0:0:0:0:
377,208,29709,1,8,0:0:0:0:
471,357,29896,1,0,3:0:0:0:
233,207,30084,1,8,0:0:0:0:
228,184,30177,1,8,0:0:0:0:
237,161,30271,2,0,L|263:189,1,38.4,0|0,3:0|0:0,0:0:0:0:
155,74,30459,5,4,3:2:0:0:
138,53,30646,1,0,0:0:0:0:
267,86,30834,2,0,P|275:40|287:-10,1,96,8|0,0:0|3:0,0:0:0:0:
370,183,31209,1,0,0:0:0:0:
452,154,31396,2,0,B|465:106|465:106|414:60|414:60|404:-17,1,192,0|0,3:0|0:0,0:0:0:0:
399,268,31959,5,0,3:0:0:0:
427,248,32146,1,0,0:0:0:0:
289,294,32334,2,0,P|301:248|316:202,1,96,8|0,0:0|3:0,0:0:0:0:
170,362,32709,1,0,0:0:0:0:
115,304,32896,2,0,P|79:341|37:368,2,96,0|8|0,3:0|0:0|0:0,0:0:0:0:
257,210,33459,6,0,P|232:251|213:295,1,96,0|0,3:0|0:0,0:0:0:0:
149,108,33834,1,8,0:0:0:0:
47,159,34021,2,0,P|40:131|25:99,1,48,0|0,3:0|0:0,0:0:0:0:
69,87,34209,2,0,B|83:145|83:145|54:192|54:192|45:286,1,192,0|8,0:0|0:0,0:0:0:0:
236,355,34771,6,0,P|273:319|311:291,1,96,4|0,3:2|0:0,0:0:0:0:
237,242,35146,1,0,3:0:0:0:
444,350,35334,1,8,0:0:0:0:
480,277,35521,1,0,3:0:0:0:
320,138,35709,2,0,P|332:174|348:241,1,96,8|0,0:0|3:0,0:0:0:0:
475,24,36084,1,8,0:0:0:0:
506,91,36271,6,0,B|459:109|459:109|384:67|384:67|299:62,1,192,4|0,3:2|3:0,0:0:0:0:
174,121,36834,2,0,P|188:80|198:21,1,96,8|0,0:0|0:0,0:0:0:0:
47,13,37209,1,2,3:0:0:0:
53,34,37396,1,0,3:0:0:0:
112,178,37584,1,8,0:0:0:0:
188,54,37771,6,0,B|159:108|159:108|191:150|191:150|175:246,1,192,4|0,3:2|3:0,0:0:0:0:
298,155,38334,2,0,P|327:112|366:78,1,96,8|0,0:0|0:0,0:0:0:0:
273,275,38709,1,2,3:0:0:0:
197,231,38896,1,0,3:0:0:0:
106,370,39084,2,0,P|99:328|86:276,1,96,8|0,0:0|0:0,0:0:0:0:
323,338,39459,6,0,P|373:343|437:356,1,96,4|0,3:2|0:0,0:0:0:0:
293,171,39834,1,8,0:0:0:0:
345,234,40021,1,0,3:0:0:0:
448,92,40209,1,0,0:0:0:0:
438,116,40396,1,0,3:0:0:0:
312,62,40584,1,8,0:0:0:0:
463,283,40771,6,0,B|481:220|481:220|451:160|451:160|479:82,1,192,4|0,3:2|3:0,0:0:0:0:
361,267,41334,2,0,P|349:311|339:360,1,96,8|0,0:0|3:0,0:0:0:0:
202,131,41709,1,8,0:0:0:0:
146,377,41896,5,8,0:3:0:0:
225,249,42084,1,4,0:3:0:0:
142,269,42271,1,0,3:0:0:0:
158,293,42459,5,0,3:0:0:0:
10,81,42646,1,0,3:0:0:0:
10,155,43396,2,0,P|33:149|59:139,2,38.4,0|0|0,0:0|0:0|0:0,0:0:0:0:
112,257,43959,6,0,P|167:240|234:228,1,115.199996484375,2|2,3:0|0:0,0:0:0:0:
200,137,44521,1,0,3:0:0:0:
220,133,44709,2,0,P|226:98|233:59,1,57.5999982421876,0|0,0:0|3:0,0:0:0:0:
139,187,45084,2,0,P|126:160|103:123,1,57.5999982421876,2|0,0:0|0:0,0:0:0:0:
283,260,45459,6,0,P|309:245|343:232,2,57.5999982421876,0|0|2,3:0|0:0|0:0,0:0:0:0:
409,239,46021,2,0,B|377:236|342:224|363:215|323:201|289:200,1,115.199996484375,0|0,3:0|3:0,0:0:0:0:
238,131,46584,1,2,0:0:0:0:
247,153,46771,1,0,0:0:0:0:
394,143,46959,6,0,P|401:89|417:22,1,115.199996484375,0|2,3:0|0:0,0:0:0:0:
504,80,47521,2,0,P|482:107|404:94,1,115.199996484375,0|0,3:0|3:0,0:0:0:0:
342,145,48084,2,0,P|311:133|274:125,1,57.5999982421876,2|0,0:0|0:0,0:0:0:0:
195,27,48459,6,0,P|178:50|156:88,2,57.5999982421876,0|0|2,3:0|0:0|0:0,0:0:0:0:
105,21,49021,2,0,P|124:81|140:140,1,115.199996484375,0|0,3:0|3:0,0:0:0:0:
94,200,49584,1,2,0:3:0:0:
246,346,49959,6,0,P|262:298|271:226,1,115.199996484375,2|2,3:2|0:0,0:0:0:0:
224,174,50521,2,0,P|199:190|154:213,1,57.5999982421876,0|0,3:0|0:0,0:0:0:0:
296,140,50896,1,0,3:0:0:0:
345,194,51084,2,0,P|349:162|358:124,1,57.5999982421876,2|0,0:0|0:0,0:0:0:0:
429,84,51459,6,0,P|434:151|445:221,1,115.199996484375,2|2,3:2|0:0,0:0:0:0:
394,256,52021,2,0,P|370:241|329:221,1,57.5999982421876,0|2,3:0|0:0,0:0:0:0:
416,328,52396,2,0,P|440:313|481:293,1,57.5999982421876,0|2,3:0|0:0,0:0:0:0:
474,223,52771,1,0,0:0:0:0:
309,371,52959,6,0,P|263:351|194:330,1,115.199996484375,0|2,3:0|0:0,0:0:0:0:
152,197,53521,1,0,3:0:0:0:
166,186,53709,2,0,P|169:226|172:269,1,57.5999982421876,0|0,0:0|3:0,0:0:0:0:
27,346,54084,1,2,0:0:0:0:
9,325,54271,1,0,0:0:0:0:
82,183,54459,5,0,3:0:0:0:
53,105,54646,1,0,3:0:0:0:
150,0,54834,2,0,P|143:33|140:63,1,57.5999982421876,2|0,0:0|3:0,0:0:0:0:
305,231,55209,6,0,P|322:186|344:140,1,76.8,8|8,0:0|0:3,0:0:0:0:
285,101,55584,1,4,0:3:0:0:
415,273,55771,1,0,3:3:0:0:
496,41,55959,6,0,P|490:90|389:88,1,153.6,4|8,3:2|0:0,0:0:0:0:
299,153,56521,2,0,B|333:132|333:132|388:151|388:151|442:137,1,153.6,0|0,3:0|3:0,0:0:0:0:
332,59,57084,1,8,0:0:0:0:
344,36,57271,1,0,0:0:0:0:
242,227,57459,6,0,P|227:174|198:114,1,115.2,0|0,3:2|0:0,0:0:0:0:
190,102,57834,2,0,P|166:138|139:169,1,76.8,8|0,0:0|3:0,0:0:0:0:
38,117,58209,1,0,0:0:0:0:
18,100,58396,1,0,3:0:0:0:
124,10,58584,2,0,P|115:51|106:103,1,76.8,8|0,0:0|0:0,0:0:0:0:
177,137,58865,1,8,0:3:0:0:
168,120,58959,5,4,3:2:0:0:
139,357,59240,1,0,3:0:0:0:
153,344,59334,1,8,0:0:0:0:
270,276,59521,2,0,B|213:274|213:274|182:241|182:241|116:227,1,153.6,0|0,3:0|3:0,0:0:0:0:
323,173,60084,1,8,0:0:0:0:
417,344,60271,6,0,P|371:345|377:250,1,153.6,4|0,3:2|3:0,0:0:0:0:
453,273,60834,1,8,0:0:0:0:
336,180,61021,1,0,3:0:0:0:
346,193,61115,1,0,3:0:0:0:
354,210,61209,1,8,0:0:0:0:
438,150,61396,1,8,0:3:0:0:
250,324,61584,1,4,0:3:0:0:
307,74,61771,6,0,P|325:152|342:248,1,153.6,4|0,3:2|3:0,0:0:0:0:
400,37,62334,1,8,0:0:0:0:
154,125,62615,1,8,0:0:0:0:
168,132,62709,1,2,3:0:0:0:
125,232,62896,1,8,0:0:0:0:
116,219,62990,1,8,0:0:0:0:
102,207,63084,1,8,0:0:0:0:
46,22,63271,6,0,B|54:62|54:62|29:107|29:107|33:175,1,153.6,4|0,3:2|3:0,0:0:0:0:
191,61,63834,1,8,0:0:0:0:
155,176,64021,1,0,3:0:0:0:
310,237,64209,1,8,0:0:0:0:
265,117,64396,1,8,3:3:0:0:
257,133,64490,1,0,3:0:0:0:
251,150,64584,1,4,0:3:0:0:
408,32,64771,6,0,B|358:52|358:52|319:35|319:35|238:51,1,153.6,4|0,3:2|3:0,0:0:0:0:
512,238,65334,1,8,0:0:0:0:
458,172,65521,1,4,0:3:0:0:
448,185,65615,1,4,0:3:0:0:
439,202,65709,1,4,0:3:0:0:
453,97,65896,1,0,3:0:0:0:
493,328,66084,5,8,0:0:0:0:
411,305,66271,1,4,0:3:0:0:
400,318,66365,1,4,0:3:0:0:
384,330,66459,1,4,0:3:0:0:
303,293,66646,1,0,3:0:0:0:
206,108,66834,6,0,P|168:117|113:138,1,76.8,8|4,0:0|0:3,0:0:0:0:
65,70,67115,1,4,0:3:0:0:
72,83,67209,1,4,0:3:0:0:
136,33,67396,1,0,3:0:0:0:
66,275,67584,1,8,0:0:0:0:
207,173,67771,1,8,0:3:0:0:
218,185,67865,1,8,0:3:0:0:
227,197,67959,5,12,0:0:0:0:
274,127,68146,1,0,3:0:0:0:
258,107,68334,1,0,3:0:0:0:
376,360,68521,5,8,0:0:0:0:
435,301,68709,1,0,3:0:0:0:
415,285,68896,1,0,3:0:0:0:
62,356,69084,5,8,0:0:0:0:
32,269,69271,1,0,3:0:0:0:
24,287,69459,1,0,3:0:0:0:
317,119,69646,5,8,0:0:0:0:
277,205,69834,1,0,3:0:0:0:
260,188,70021,1,0,3:0:0:0:
468,6,70209,6,0,B|431:44|431:44|442:160,1,144,8|0,0:0|0:0,0:0:0:0:
429,163,70584,2,0,L|417:60,1,96,4|0,3:3|0:0,0:0:0:0:
159,203,70959,6,0,P|127:191|74:177,1,67.1999979492188,0|0,3:0|0:0,0:0:0:0:
60,113,71240,1,0,0:0:0:0:
66,101,71334,1,0,3:0:0:0:
126,156,71521,1,0,0:0:0:0:
116,241,71709,1,0,3:0:0:0:
131,251,71896,1,0,0:0:0:0:
142,264,72084,1,0,3:0:0:0:
152,277,72271,2,0,P|120:291|90:308,1,48,0|0,3:0|3:0,0:0:0:0:
362,207,72459,6,0,P|348:248|329:325,1,115.199996484375,10|0,0:0|0:0,0:0:0:0:
165,141,72834,2,0,P|190:123|213:111,1,57.5999982421876,0|0,3:0|3:0,0:0:0:0:
41,152,73021,2,0,B|38:122|45:84|59:111|65:73|66:29,1,115.199996484375,8|0,0:0|3:0,0:0:0:0:
48,26,73771,6,0,B|43:101|61:171|86:122|99:191|94:246,1,230.39999296875,4|0,3:2|3:0,0:0:0:0:
363,56,74334,2,0,P|293:86|188:114,1,172.799994726563,8|0,0:0|0:0,0:0:0:0:
202,134,74709,1,0,3:0:0:0:
254,24,74896,1,0,3:0:0:0:
353,193,75084,1,8,0:0:0:0:
288,300,75271,2,0,P|281:262|269:222,1,57.5999982421876,0|0,0:0|0:0,0:0:0:0:
402,139,75459,6,0,P|384:199|372:250,1,115.199996484375,0|0,3:0|0:0,0:0:0:0:
113,262,75834,1,8,0:0:0:0:
212,328,76021,1,0,0:0:0:0:
361,138,76209,1,0,3:0:0:0:
422,292,76396,1,0,3:0:0:0:
241,206,76584,2,0,P|253:119|275:12,1,172.799994726563,8|0,0:0|0:0,0:0:0:0:
246,36,76959,6,0,P|247:72|318:101,1,115.199996484375,0|0,3:0|0:0,0:0:0:0:
165,329,77334,2,0,P|143:254|-1:234,1,230.39999296875,8|0,0:0|3:0,0:0:0:0:
197,136,77896,1,0,3:0:0:0:
136,33,78084,2,0,P|119:96|105:167,1,115.199996484375,8|0,0:0|0:0,0:0:0:0:
167,219,78459,5,0,3:0:0:0:
335,96,78646,1,0,3:0:0:0:
300,216,78834,1,8,0:0:0:0:
266,137,79021,1,0,3:0:0:0:
390,20,79209,5,8,0:0:0:0:
147,141,79396,1,0,3:0:0:0:
339,162,79584,1,8,0:0:0:0:
328,135,79677,1,8,0:3:0:0:
307,114,79771,1,4,0:3:0:0:
281,99,79865,1,0,3:0:0:0:
252,92,79959,6,0,B|300:61|384:47|339:91|424:78|497:39,1,230.39999296875,4|8,3:2|0:0,0:0:0:0:
432,178,80521,1,0,0:0:0:0:
328,38,80709,1,0,3:0:0:0:
350,18,80896,1,0,3:0:0:0:
231,172,81084,1,8,0:0:0:0:
172,107,81271,2,0,P|144:95|106:86,1,57.5999982421876,0|0,0:0|0:0,0:0:0:0:
125,235,81459,6,0,P|228:202|352:175,1,230.39999296875,4|8,3:2|0:0,0:0:0:0:
186,106,82021,1,0,0:0:0:0:
270,280,82209,1,0,3:0:0:0:
280,256,82396,1,0,3:0:0:0:
169,360,82584,2,0,P|153:302|132:242,1,115.199996484375,8|0,0:0|0:0,0:0:0:0:
341,33,82959,5,12,0:0:0:0:
237,103,83146,1,0,3:0:0:0:
248,70,83334,1,0,3:0:0:0:
472,301,83521,5,8,0:0:0:0:
501,161,83709,1,0,3:0:0:0:
423,216,83896,1,0,3:0:0:0:
146,273,84084,5,8,0:0:0:0:
298,365,84271,1,0,3:0:0:0:
264,239,84459,1,0,3:0:0:0:
377,35,84646,5,12,0:0:0:0:
280,217,84834,1,0,3:0:0:0:
176,25,85021,1,0,3:0:0:0:
189,36,85115,1,0,3:0:0:0:
198,50,85209,1,8,0:0:0:0:
347,183,85396,5,0,3:0:0:0:
376,165,85490,1,0,3:0:0:0:
409,157,85584,5,8,0:0:0:0:
363,133,85677,1,8,0:0:0:0:
311,134,85771,1,8,0:0:0:0:
264,157,85865,1,8,0:0:0:0:
236,200,85959,6,0,P|266:108|277:21,1,172.799994726563,4|0,0:0|0:0,0:0:0:0:
253,13,86334,2,0,P|307:25|331:76,1,115.199996484375,12|0,0:0|0:0,0:0:0:0:
107,161,86709,1,0,3:0:0:0:
132,67,86896,1,0,3:0:0:0:
277,268,87084,1,8,0:0:0:0:
210,222,87271,2,0,P|182:232|135:245,1,57.5999982421876,0|0,0:0|0:0,0:0:0:0:
274,115,87459,6,0,P|355:106|405:234,1,230.39999296875,0|8,3:0|0:0,0:0:0:0:
479,120,88021,1,0,0:0:0:0:
339,317,88209,1,0,3:0:0:0:
427,238,88396,1,0,3:0:0:0:
450,254,88490,1,0,3:0:0:0:
477,262,88584,1,8,0:0:0:0:
349,123,88771,5,0,0:0:0:0:
332,153,88865,1,0,0:0:0:0:
305,174,88959,1,0,3:0:0:0:
271,182,89052,1,0,0:0:0:0:
236,178,89146,1,0,0:0:0:0:
207,158,89240,1,0,0:0:0:0:
192,126,89334,5,8,0:0:0:0:
163,131,89427,1,0,0:0:0:0:
143,143,89521,1,0,0:0:0:0:
131,155,89615,1,0,0:0:0:0:
126,165,89709,1,0,3:0:0:0:
89,86,89896,1,0,3:0:0:0:
189,289,90084,2,0,P|202:225|220:152,1,115.199996484375,8|0,0:0|0:0,0:0:0:0:
75,10,90459,5,0,3:0:0:0:
218,77,90646,1,0,3:0:0:0:
50,244,90834,1,8,0:0:0:0:
112,177,91021,2,0,P|115:142|121:111,1,57.5999982421876,0|8,3:0|0:0,0:0:0:0:
268,47,91209,6,0,P|300:141|360:127,1,172.799994726563,12|0,0:0|0:0,0:0:0:0:
325,222,91584,2,0,P|388:153|468:138,1,172.799994726563,4|0,3:2|0:0,0:0:0:0:
508,214,91959,6,0,P|458:191|386:169,1,115.199996484375,4|0,3:2|0:0,0:0:0:0:
249,329,92334,2,0,P|140:315|164:220,1,230.39999296875,8|0,0:0|3:0,0:0:0:0:
36,360,92896,1,0,3:0:0:0:
102,303,93084,2,0,P|88:247|66:179,1,115.199996484375,8|0,0:0|0:0,0:0:0:0:
239,267,93459,6,0,P|325:243|447:220,1,172.799994726563,4|0,3:2|0:0,0:0:0:0:
393,203,93834,1,8,0:0:0:0:
332,317,94021,1,0,0:0:0:0:
247,134,94209,1,0,3:0:0:0:
258,111,94396,1,0,3:0:0:0:
426,155,94584,1,8,0:0:0:0:
266,32,94771,1,0,0:0:0:0:
204,268,94959,6,0,P|189:211|169:152,1,115.199996484375,4|8,3:2|0:0,0:0:0:0:
214,78,95240,1,8,0:0:0:0:
220,98,95334,1,8,0:0:0:0:
46,254,95521,2,0,B|92:247|182:267|136:294|214:309|283:304,1,230.39999296875,2|2,3:0|3:0,0:0:0:0:
114,351,96084,1,8,0:0:0:0:
416,159,96271,6,0,P|410:73|290:86,1,230.39999296875,4|0,3:2|3:0,0:0:0:0:
311,344,96834,1,8,0:0:0:0:
381,250,97021,1,0,0:0:0:0:
375,231,97115,1,0,3:0:0:0:
364,215,97209,5,8,0:0:0:0:
397,222,97302,1,8,0:3:0:0:
417,250,97396,1,4,0:3:0:0:
421,284,97490,1,0,0:0:0:0:
408,316,97584,5,4,0:3:0:0:
385,334,97677,1,0,0:0:0:0:
362,336,97771,1,4,0:3:0:0:
345,329,97865,1,0,0:0:0:0:
323,301,97959,6,0,P|314:343|302:385,2,76.8,6|0|0,3:2|0:0|3:0,0:0:0:0:
190,260,98521,2,0,P|208:296|228:343,1,76.8
269,233,98896,1,0,0:0:0:0:
80,306,99084,6,0,P|47:293|-4:280,1,76.8,0|0,3:0|0:0,0:0:0:0:
18,196,99459,1,0,3:0:0:0:
169,201,99646,2,0,P|136:214|85:227,1,76.8,0|0,3:0|0:0,0:0:0:0:
59,309,100021,1,0,0:0:0:0:
195,363,100209,6,0,P|217:337|257:323,1,76.8,0|0,3:0|0:0,0:0:0:0:
300,259,100584,1,10,0:0:0:0:
213,136,100771,1,2,0:0:0:0:
277,97,100959,6,0,P|287:62|300:21,2,76.8,6|0|0,3:2|0:0|3:0,0:0:0:0:
116,67,101521,2,0,P|131:104|147:160,1,76.8,0|8,0:0|0:0,0:0:0:0:
202,61,101896,1,8,0:0:0:0:
394,189,102084,6,0,P|431:167|466:157,2,76.8,0|0|0,3:0|3:0|0:0,0:0:0:0:
387,62,102646,1,0,0:0:0:0:
398,47,102834,1,0,0:0:0:0:
468,129,103021,1,0,0:0:0:0:
400,307,103209,5,10,3:2:0:0:
281,0,103396,1,10,3:2:0:0:
