osu file format v14

[General]
AudioFilename: audio.mp3
AudioLeadIn: 0
PreviewTime: 72271
Countdown: 0
SampleSet: Soft
StackLeniency: 0.4
Mode: 0
LetterboxInBreaks: 0
WidescreenStoryboard: 1

[Editor]
Bookmarks: 12459,18459,30459,43959,55959,67959,85959,97959
DistanceSpacing: 0.9
BeatDivisor: 2
GridSize: 32
TimelineZoom: 1

[Metadata]
Title:Side Effect
TitleUnicode:Side Effect
Artist:Ito Kanako
ArtistUnicode:いとうかなこ
Creator:celerih
Version:Normal
Source:ひぐらしのなく頃に粋
Tags:thicc bish KKipalt Ultima Fox osuskrub defiance quanhitter39 07th Expansion Visual Novel Opening Higurashi no Naku Koro ni Sui When They Cry Nintendo Switch PSVita Playstation
BeatmapID:1939640
BeatmapSetID:928648

[Difficulty]
HPDrainRate:2
CircleSize:2.5
OverallDifficulty:2.8
ApproachRate:4.5
SliderMultiplier:1.02
SliderTickRate:1

[Events]
//Background and Video events
0,0,"Side Effect BG.jpg",0,0
//Break Periods
//Storyboard Layer 0 (Background)
//Storyboard Layer 1 (Fail)
//Storyboard Layer 2 (Pass)
//Storyboard Layer 3 (Foreground)
//Storyboard Sound Samples

[TimingPoints]
459,375,4,2,1,50,1,0
73771,-100,4,2,1,50,0,1
97959,-100,4,2,1,50,0,0

[Colours]
Combo1 : 132,107,182
Combo2 : 214,126,124
Combo3 : 159,125,215
Combo4 : 140,172,225

[HitObjects]
24,216,459,5,2,0:0:0:0:
142,286,1021,1,2,0:0:0:0:
258,212,1584,1,2,0:0:0:0:
351,313,2146,1,2,0:0:0:0:
453,221,2709,2,0,P|482:228|517:233,2,51,2|0|2,0:0|0:0|0:0,0:0:0:0:
433,131,3459,5,2,0:0:0:0:
327,218,4021,1,2,0:0:0:0:
237,114,4584,1,2,0:0:0:0:
116,179,5146,1,2,0:0:0:0:
32,69,5709,2,0,P|106:36|183:17,1,153,2|0,0:0|0:0,0:0:0:0:
218,35,6459,5,2,0:0:0:0:
335,105,7021,1,2,0:0:0:0:
250,213,7584,1,2,0:0:0:0:
377,264,8146,1,2,0:0:0:0:
268,348,8709,2,0,P|239:352|199:359,2,51,2|0|2,0:0|0:0|0:0,0:0:0:0:
241,259,9459,5,2,0:0:0:0:
104,238,10021,1,2,0:0:0:0:
90,100,10584,1,2,0:0:0:0:
211,36,11146,1,2,0:0:0:0:
309,131,11709,2,0,P|395:155|464:182,1,153,2|0,0:0|0:0,0:0:0:0:
479,141,12459,6,0,P|456:96|420:38,1,102,0|0,3:0|3:0,0:0:0:0:
343,20,13209,1,0,0:0:0:0:
259,57,13584,1,2,0:0:0:0:
168,43,13959,5,0,3:0:0:0:
140,130,14334,2,0,P|158:177|174:238,1,102,2|4,0:0|0:3,0:0:0:0:
250,274,15084,1,8,0:0:0:0:
222,361,15459,6,0,P|180:278|78:278,1,204,8|0,0:3|0:0,0:0:0:0:
25,202,16584,2,0,P|108:172|223:157,1,204,0|8,3:0|0:0,0:0:0:0:
294,100,17709,1,0,3:0:0:0:
225,39,18084,1,0,3:0:0:0:
137,66,18459,5,4,3:2:0:0:
290,256,21271,6,0,L|345:249,1,51,0|2,3:0|3:2,0:0:0:0:
110,341,22959,5,2,3:2:0:0:
0,137,24834,5,0,3:0:0:0:
121,241,25584,1,0,3:0:0:0:
216,131,26334,1,0,3:0:0:0:
326,216,27084,1,0,3:0:0:0:
409,106,27834,1,0,3:0:0:0:
507,203,28584,1,0,3:0:0:0:
433,257,28959,6,0,P|409:242|380:228,1,51,8|8,0:0|0:0,0:0:0:0:
175,351,30084,1,8,0:0:0:0:
237,283,30459,5,4,3:2:0:0:
172,218,30834,1,8,0:0:0:0:
231,148,31209,2,0,P|242:96|260:37,1,102,0|8,0:0|0:0,0:0:0:0:
167,24,31959,6,0,P|120:11|57:0,1,102,0|8,3:0|0:0,0:0:0:0:
1,65,32709,1,0,0:0:0:0:
61,134,33084,1,8,0:0:0:0:
19,216,33459,6,0,P|39:264|55:315,1,102,0|8,3:0|0:0,0:0:0:0:
140,341,34209,1,0,0:0:0:0:
219,295,34584,2,0,P|227:270|243:239,1,51,8|4,0:0|3:2,0:0:0:0:
375,236,35334,6,0,P|425:166|475:112,1,153,8|0,0:0|3:0,0:0:0:0:
435,31,36271,2,0,P|391:54|322:81,1,102,4|0,3:2|3:0,0:0:0:0:
262,29,37021,1,2,0:0:0:0:
202,99,37396,1,0,3:0:0:0:
229,186,37771,6,0,P|179:259|48:231,1,204,4|0,3:2|0:0,0:0:0:0:
2,135,39084,1,8,0:0:0:0:
55,60,39459,2,0,P|109:76|167:81,1,102,4|8,3:2|0:0,0:0:0:0:
228,134,40209,1,0,0:0:0:0:
311,95,40584,6,0,P|336:102|360:112,1,51,8|4,0:0|0:0,0:0:0:0:
360,249,41334,2,0,P|372:307|378:356,1,102,8|8,0:0|0:0,0:0:0:0:
467,367,42084,1,4,0:3:0:0:
512,287,42459,2,0,P|499:264|475:231,1,51,0|0,3:0|3:0,0:0:0:0:
243,346,43959,6,0,P|167:322|33:297,1,204,2|0,3:0|0:0,0:0:0:0:
77,212,45084,1,2,0:0:0:0:
168,203,45459,2,0,P|188:155|214:113,1,102,0|2,3:0|0:0,0:0:0:0:
154,42,46209,1,0,0:0:0:0:
89,107,46584,1,2,0:0:0:0:
118,193,46959,6,0,P|199:170|271:156,1,153,0|0,3:0|3:0,0:0:0:0:
350,266,48084,1,2,0:0:0:0:
395,345,48459,2,0,P|442:329|522:310,2,102,0|2|0,3:0|0:0|0:0,0:0:0:0:
313,303,49584,1,2,0:3:0:0:
242,361,49959,6,0,P|203:332|147:306,1,102,2|2,3:2|0:0,0:0:0:0:
198,227,50709,1,0,0:0:0:0:
146,151,51084,1,2,0:0:0:0:
206,82,51459,5,2,3:2:0:0:
294,107,51834,2,0,P|288:161|284:236,1,102,2|2,0:0|0:0,0:0:0:0:
357,264,52584,1,2,0:0:0:0:
444,235,52959,6,0,P|460:142|491:35,1,204,0|0,3:0|0:0,0:0:0:0:
398,40,54084,2,0,P|381:19|356:-2,1,51,2|0,0:0|0:0,0:0:0:0:
290,120,54834,1,2,0:0:0:0:
206,81,55209,1,8,0:0:0:0:
133,137,55584,1,4,0:3:0:0:
41,134,55959,6,0,P|8:189|105:247,1,204,4|0,3:2|0:0,0:0:0:0:
192,274,57084,2,0,P|216:254|244:235,1,51,8|0,0:0|0:0,0:0:0:0:
347,330,57834,1,8,0:0:0:0:
389,248,58209,1,0,0:0:0:0:
480,256,58584,1,8,0:0:0:0:
508,168,58959,6,0,P|451:145|323:111,1,153,4|0,3:2|3:0,0:0:0:0:
295,57,59896,1,0,3:0:0:0:
217,106,60271,2,0,P|238:183|248:258,1,153,4|8,3:2|0:0,0:0:0:0:
167,299,61209,1,8,0:0:0:0:
78,275,61584,2,0,P|55:260|16:243,1,51,4|4,0:3|3:2,0:0:0:0:
5,114,62334,6,0,P|65:46|143:52,1,153,8|8,0:0|0:0,0:0:0:0:
185,111,63271,2,0,P|270:83|400:56,1,204,4|0,3:2|3:0,0:0:0:0:
466,95,64396,1,8,0:3:0:0:
423,176,64771,6,0,P|464:241|497:315,1,153,4|8,3:2|0:0,0:0:0:0:
411,347,65709,1,4,0:3:0:0:
333,298,66084,1,8,0:0:0:0:
246,329,66459,5,4,0:3:0:0:
175,269,66834,2,0,P|167:226|149:155,1,102,8|4,0:0|0:3,0:0:0:0:
230,119,67584,1,8,0:0:0:0:
309,164,67959,5,12,0:0:0:0:
273,297,68521,1,8,0:0:0:0:
406,262,69084,1,8,0:0:0:0:
309,164,69646,1,8,0:0:0:0:
273,297,70209,5,8,0:0:0:0:
188,261,70584,1,4,3:3:0:0:
331,167,72459,5,10,0:0:0:0:
204,221,73021,2,0,P|162:206|89:191,1,102,8|0,0:0|3:0,0:0:0:0:
76,105,73771,6,0,P|142:75|242:46,1,153,4|8,3:2|0:0,0:0:0:0:
282,117,74709,1,0,3:0:0:0:
373,113,75084,2,0,P|386:85|403:60,1,51,8|0,0:0|0:0,0:0:0:0:
458,191,75834,1,8,0:0:0:0:
374,228,76209,1,0,3:0:0:0:
358,318,76584,1,8,0:0:0:0:
270,344,76959,6,0,P|225:320|173:305,2,102,0|8|0,3:0|0:0|3:0,0:0:0:0:
294,255,78084,2,0,P|288:228|276:196,1,51,8|0,0:0|0:0,0:0:0:0:
248,173,78459,2,0,P|256:130|260:66,2,102,0|8|8,3:0|0:0|0:0,0:0:0:0:
157,154,79584,1,8,0:0:0:0:
67,174,79959,6,0,P|83:233|96:299,1,102,4|8,3:2|0:0,0:0:0:0:
124,358,80709,2,0,P|152:297|232:290,1,153,0|2,3:0|0:0,0:0:0:0:
355,347,81834,1,8,0:0:0:0:
336,256,82209,1,0,3:0:0:0:
370,171,82584,1,8,0:0:0:0:
317,95,82959,5,12,0:0:0:0:
191,160,83521,1,8,0:0:0:0:
72,89,84084,1,8,0:0:0:0:
18,264,84834,6,0,P|45:318|63:368,1,102,2|8,3:2|0:0,0:0:0:0:
139,312,85584,1,8,0:0:0:0:
197,241,85959,6,0,P|247:221|298:212,1,102,4|12,0:0|0:0,0:0:0:0:
347,135,86709,1,0,3:0:0:0:
438,133,87084,2,0,P|466:140|498:155,1,51,8|0,0:0|0:0,0:0:0:0:
500,11,87834,2,2,P|454:29|385:43,1,102,10|2,0:0|3:0,0:0:0:0:
344,111,88584,1,8,3:0:0:0:
279,46,88959,6,0,P|234:31|164:21,1,102,0|8,3:0|0:0,0:0:0:0:
136,102,89709,1,0,3:0:0:0:
47,76,90084,2,0,P|31:98|16:129,1,51,8|0,0:0|0:0,0:0:0:0:
35,162,90459,2,0,P|51:209|63:280,2,102,0|8|12,3:0|0:0|0:0,0:0:0:0:
126,164,91584,1,4,3:2:0:0:
192,226,91959,6,0,P|179:278|170:330,1,102,4|8,3:2|0:0,0:0:0:0:
83,355,92709,1,0,3:0:0:0:
25,283,93084,2,0,P|30:256|40:223,1,51,8|0,0:0|0:0,0:0:0:0:
158,170,93834,2,0,P|148:142|135:114,1,51,8|0,0:0|0:0,0:0:0:0:
212,7,94584,1,8,0:0:0:0:
276,71,94959,6,0,P|328:58|396:51,1,102,4|8,3:2|0:0,0:0:0:0:
451,103,95709,1,0,0:0:0:0:
436,193,96084,2,0,P|446:223|453:257,1,51,8|4,0:0|3:2,0:0:0:0:
487,355,96834,2,0,P|437:343|373:334,1,102,8|8,0:0|0:0,0:0:0:0:
314,279,97584,1,4,0:3:0:0:
238,331,97959,5,6,3:2:0:0:
114,270,98521,1,8,0:3:0:0:
200,162,99084,1,0,3:0:0:0:
97,62,99646,1,8,0:3:0:0:
9,168,100209,2,0,P|26:222|40:274,1,102,0|10,3:0|0:0,0:0:0:0:
119,308,100959,5,6,3:2:0:0:
215,209,101521,1,8,0:3:0:0:
342,261,102084,1,0,3:0:0:0:
412,142,102646,1,0,0:0:0:0:
510,238,103209,2,0,P|504:261|501:288,1,51,10|10,3:2|3:2,0:0:0:0:
