osu file format v14

[General]
AudioFilename: audio.mp3
AudioLeadIn: 0
PreviewTime: 52155
Countdown: 0
SampleSet: Soft
StackLeniency: 0.7
Mode: 0
LetterboxInBreaks: 0
WidescreenStoryboard: 0

[Editor]
DistanceSpacing: 1
BeatDivisor: 2
GridSize: 32
TimelineZoom: 0.7999998

[Metadata]
Title:Koko ni Iru kara
TitleUnicode:ココニイルカラ
Artist:Ito Kanako
ArtistUnicode:いとうかなこ
Creator:Garden
Version:Easy
Source:タマユラミライ
Tags:tamayura mirai azurite visual novel eroge opening short japanese pop video game wyrio sodarose dored burabe itou
BeatmapID:2809894
BeatmapSetID:1357763

[Difficulty]
HPDrainRate:2
CircleSize:3
OverallDifficulty:2
ApproachRate:3
SliderMultiplier:0.899999999999999
SliderTickRate:1

[Events]
//Background and Video events
0,0,"sdcg06b.png",0,0
//Break Periods
2,77245,81519
//Storyboard Layer 0 (Background)
//Storyboard Layer 1 (Fail)
//Storyboard Layer 2 (Pass)
//Storyboard Layer 3 (Foreground)
//Storyboard Layer 4 (Overlay)
//Storyboard Sound Samples

[TimingPoints]
4388,357.142857142857,4,2,1,50,1,0
5638,-100,4,2,1,70,0,0
17245,-100,4,2,1,50,0,0
28673,-100,4,2,1,60,0,0
52780,-100,4,2,1,70,0,1
75637,-100,4,2,1,70,0,0
82959,-100,4,2,1,60,0,0
89923,-100,4,2,1,70,0,0
105816,-100,4,2,1,50,0,0

[Colours]
Combo1 : 176,98,255
Combo2 : 128,128,192

[HitObjects]
511,302,5638,6,0,P|445:245|358:250,1,180,12|4,0:0|0:0,0:0:0:0:
226,373,7066,2,0,L|255:172,1,180,4|4,0:0|0:0,0:0:0:0:
314,25,8495,6,0,P|254:86|140:70,1,180,4|4,0:0|0:0,0:0:0:0:
1,8,9923,2,0,L|31:207,1,180,4|4,0:0|0:0,0:0:0:0:
18,365,11352,6,0,P|81:304|169:305,1,180,12|12,0:0|0:0,0:0:0:0:
244,355,12423,1,10,0:0:0:0:
325,317,12780,2,0,B|376:288|376:288|402:161,1,180,4|4,1:2|1:2,0:0:0:0:
467,108,13852,1,10,0:0:0:0:
418,31,14209,1,4,0:0:0:0:
327,84,14626,6,0,L|313:151,2,59.9999999999999,10|10|10,0:0|0:0|0:0,0:0:0:0:
272,59,15340,2,0,L|284:0,2,59.9999999999999,10|10|12,0:0|0:0|0:0,0:0:0:0:
500,172,17245,6,0,P|412:181|350:243,1,180,12|8,0:0|0:0,0:0:0:0:
338,333,18316,1,10,0:0:0:0:
251,357,18673,2,0,P|162:359|91:306,1,180,10|8,0:0|0:0,0:0:0:0:
142,232,19745,1,10,0:0:0:0:
61,191,20102,6,0,L|37:12,2,180,10|10|10,0:0|0:0|0:0,0:0:0:0:
142,232,21887,1,10,0:0:0:0:
215,179,22245,2,0,L|311:190,1,89.9999999999999,10|8,0:0|0:0,0:0:0:0:
380,237,22959,6,0,P|451:186|455:100,1,180,10|8,0:0|0:0,0:0:0:0:
410,22,24030,1,10,0:0:0:0:
332,67,24387,2,0,L|143:53,1,180,10|8,0:0|0:0,0:0:0:0:
84,112,25459,1,8,0:0:0:0:
166,148,25816,6,0,P|191:185|190:244,1,89.9999999999999,10|8,0:0|0:0,0:0:0:0:
111,263,26530,2,0,P|90:307|98:359,1,89.9999999999999,10|8,0:0|0:0,0:0:0:0:
175,383,27245,1,10,0:0:0:0:
246,328,27602,2,0,L|306:317,1,45,10|10,0:0|0:0,0:0:0:0:
488,212,28673,6,0,P|466:299|461:359,2,135,12|10|0,0:0|0:0|1:0,0:0:0:0:
497,122,30102,2,0,P|451:187|346:188,1,180,10|0,0:0|0:0,0:0:0:0:
289,133,31173,1,0,1:0:0:0:
223,195,31530,6,0,P|167:206|86:237,2,135,10|10|0,0:0|0:0|1:0,0:0:0:0:
290,255,32959,1,10,0:0:0:0:
356,193,33316,1,0,1:0:0:0:
289,133,33673,2,0,P|293:92|306:42,1,89.9999999999999,8|2,0:0|1:2,0:0:0:0:
390,15,34387,6,0,P|456:16|501:72,2,135,12|10|0,0:0|0:0|1:0,0:0:0:0:
305,44,35816,2,0,P|243:29|161:17,2,135,10|10|0,0:0|0:0|1:0,0:0:0:0:
353,120,37245,5,10,0:0:0:0:
225,162,37780,2,0,L|245:259,1,89.9999999999999,10|10,0:0|0:0,0:0:0:0:
302,318,38495,2,0,P|236:303|168:298,1,135,12|2,0:0|1:2,0:0:0:0:
108,365,39387,1,8,1:3:0:0:
22,335,39745,1,8,1:3:0:0:
0,247,40102,6,0,P|13:169|104:117,1,180,12|2,0:0|1:2,0:0:0:0:
188,21,41352,2,0,P|253:36|320:46,1,135,10|2,0:0|0:0,0:0:0:0:
406,19,42245,2,0,P|448:50|455:106,1,89.9999999999999,10|2,0:0|1:2,0:0:0:0:
421,167,42959,5,10,0:0:0:0:
243,134,43673,2,0,P|177:134|130:180,2,135,2|10|2,1:2|0:0|0:0,0:0:0:0:
314,188,45102,1,8,0:0:0:0:
270,266,45459,1,0,1:0:0:0:
341,320,45816,6,0,P|384:304|441:293,1,89.9999999999999,12|0,0:0|1:0,0:0:0:0:
496,237,46530,2,0,P|484:286|475:389,2,135,10|10|0,0:0|0:0|1:0,0:0:0:0:
426,179,47959,1,10,0:0:0:0:
486,112,48316,1,2,1:2:0:0:
416,54,48673,6,0,P|374:38|308:31,1,89.9999999999999,10|0,0:0|1:0,0:0:0:0:
271,100,49387,2,0,P|217:141|150:126,2,135,10|10|10,0:0|0:0|0:0,0:0:0:0:
240,15,50816,1,8,1:3:0:0:
152,35,51173,1,4,1:3:0:0:
65,59,51530,1,14,0:0:0:0:
8,229,52245,2,0,L|74:209,1,45,12|12,0:0|0:0,0:0:0:0:
125,165,52780,6,0,P|106:229|95:296,1,135,12|0,0:0|1:0,0:0:0:0:
174,339,53673,2,0,P|108:336|59:380,2,135,10|12|0,0:0|0:0|1:0,0:0:0:0:
302,380,55280,5,10,0:0:0:0:
382,339,55637,2,0,P|413:281|380:204,1,135,12|0,0:0|1:0,0:0:0:0:
339,146,56530,2,0,P|420:165|492:174,2,135,10|12|0,0:0|0:0|1:0,0:0:0:0:
150,23,58495,6,0,P|77:27|30:86,1,135,12|2,0:0|1:2,0:0:0:0:
12,156,59387,1,10,0:0:0:0:
99,179,59745,1,2,1:2:0:0:
79,266,60102,2,0,P|90:328|133:363,1,89.9999999999999,12|2,0:0|1:2,0:0:0:0:
192,321,60816,6,0,P|257:325|299:376,2,135,10|12|0,0:0|0:0|1:0,0:0:0:0:
162,235,62245,2,0,P|89:223|29:201,2,135,10|12|0,0:0|0:0|1:0,0:0:0:0:
241,192,63673,2,0,L|251:131,1,45,12|12,0:0|0:0,0:0:0:0:
217,62,64209,6,0,P|266:105|332:104,1,135,12|0,0:0|1:0,0:0:0:0:
381,28,65102,2,0,P|450:40|526:62,2,135,10|12|0,0:0|0:0|1:0,0:0:0:0:
405,160,66709,5,10,0:0:0:0:
320,191,67066,2,0,P|309:256|305:337,1,135,12|0,0:0|1:2,0:0:0:0:
387,361,67959,2,0,P|452:355|490:302,2,135,10|12|0,0:0|0:0|1:0,0:0:0:0:
182,266,69923,6,0,P|119:256|25:249,1,135,12|2,0:0|1:2,0:0:0:0:
0,170,70816,1,10,0:0:0:0:
44,91,71173,1,2,1:2:0:0:
133,84,71530,2,0,P|146:132|153:178,1,89.9999999999999,12|0,0:0|1:0,0:0:0:0:
238,198,72245,2,0,L|303:185,1,45,12|12,0:0|0:0,0:0:0:0:
330,113,72780,6,0,P|395:107|443:151,1,135,12|0,0:0|1:0,0:0:0:0:
449,241,73673,2,0,P|465:315|487:377,2,135,10|12|10,0:0|0:0|0:0,0:0:0:0:
443,151,75102,1,2,1:2:0:0:
506,86,75459,2,0,L|494:42,1,45,2|4,1:2|1:2,0:0:0:0:
494,42,82959,6,0,P|428:47|384:98,1,135,12|2,0:0|0:0,0:0:0:0:
398,185,83852,1,2,0:0:0:0:
322,233,84209,2,0,P|214:233|158:172,1,180,2|2,3:2|0:0,0:0:0:0:
100,68,85459,1,10,0:0:0:0:
29,123,85816,6,0,L|47:261,1,135,10|2,0:0|0:0,0:0:0:0:
14,341,86709,1,2,0:0:0:0:
99,369,87066,2,0,L|246:346,1,135,2|10,0:0|0:0,0:0:0:0:
320,366,87959,6,0,P|268:325|267:260,2,135,10|10|8,0:0|0:0|0:3,0:0:0:0:
405,338,89387,2,0,L|410:293,1,45,12|12,0:0|0:0,0:0:0:0:
476,231,89923,6,0,B|427:201|427:201|406:71,1,180,12|12,0:0|0:0,0:0:0:0:
352,8,90995,1,10,0:0:0:0:
291,74,91352,2,0,L|89:56,1,180,4|4,1:2|1:2,0:0:0:0:
41,113,92423,1,10,0:0:0:0:
121,153,92780,6,0,P|175:216|155:308,1,180,12|12,0:0|0:0,0:0:0:0:
89,364,93852,1,10,0:0:0:0:
31,294,94209,2,0,L|46:205,1,89.9999999999999,4|10,1:2|0:0,0:0:0:0:
121,153,94923,2,0,L|136:64,1,89.9999999999999,4|8,1:2|0:0,0:0:0:0:
222,41,95637,6,0,B|281:60|281:60|405:15,1,180,12|12,0:0|0:0,0:0:0:0:
474,55,96709,1,10,0:0:0:0:
422,128,97066,2,0,L|409:221,1,89.9999999999999,4|10,1:2|0:0,0:0:0:0:
485,265,97780,2,0,P|426:276|334:299,1,135,4|2,1:2|3:2,0:0:0:0:
292,360,98673,6,0,P|226:363|179:317,1,135,12|12,0:0|0:0,0:0:0:0:
129,241,99566,2,0,P|65:252|-1:276,2,135,10|14|12,0:0|0:2|0:0,0:0:0:0:
219,235,100995,6,0,P|254:169|222:106,1,135,10|12,0:0|0:0,0:0:0:0:
167,55,101887,1,0,1:0:0:0:
239,1,102245,2,0,P|288:6|334:17,1,89.9999999999999,8|8,0:0|3:3,0:0:0:0:
416,25,102959,6,0,P|405:61|393:126,1,89.9999999999999,12|10,0:0|0:0,0:0:0:0:
461,175,103673,2,0,P|488:212|487:255,1,89.9999999999999,10|10,0:0|0:0,0:0:0:0:
429,323,104387,1,10,0:0:0:0:
339,335,104745,1,10,0:0:0:0:
266,282,105102,1,2,1:2:0:0:
256,192,105459,2,0,L|266:148,1,45,12|12,0:0|0:0,0:0:0:0:
256,192,105816,12,8,108852,0:3:0:0:
