osu file format v14

[General]
AudioFilename: audio.mp3
AudioLeadIn: 0
PreviewTime: 52936
Countdown: 0
SampleSet: Soft
StackLeniency: 0.7
Mode: 0
LetterboxInBreaks: 0
WidescreenStoryboard: 1

[Editor]
DistanceSpacing: 1
BeatDivisor: 2
GridSize: 32
TimelineZoom: 2

[Metadata]
Title:Koko ni Iru kara
TitleUnicode:ココニイルカラ
Artist:Ito Kanako
ArtistUnicode:いとうかなこ
Creator:Zekk
Version:Normal
Source:タマユラミライ
Tags:tamayura mirai azurite visual novel eroge opening short japanese pop video game fanza games digination itou
BeatmapID:3176083
BeatmapSetID:1554577

[Difficulty]
HPDrainRate:3
CircleSize:3
OverallDifficulty:4.5
ApproachRate:5.5
SliderMultiplier:1.15
SliderTickRate:1

[Events]
//Background and Video events
0,0,"bg.jpg",0,0
//Break Periods
2,78404,82793
//Storyboard Layer 0 (Background)
//Storyboard Layer 1 (Fail)
//Storyboard Layer 2 (Pass)
//Storyboard Layer 3 (Foreground)
//Storyboard Layer 4 (Overlay)
//Storyboard Sound Samples

[TimingPoints]
5347,357.142857142857,4,2,1,30,1,0
5347,-100,4,2,1,30,0,0
6597,-100,4,2,1,50,0,0
12311,-100,4,2,1,55,0,0
18204,-111.111111111111,4,2,1,45,0,0
29632,-100,4,2,1,50,0,0
41061,-111.111111111111,4,2,1,45,0,0
46775,-100,4,2,1,55,0,0
52489,-100,4,2,1,60,0,0
53739,-100,4,2,1,70,0,1
76596,-100,4,2,1,75,0,0
78204,-100,4,2,1,30,0,0
83382,-100,4,2,1,50,0,0
83918,-111.111111111111,4,2,1,55,0,0
90168,-100,4,2,1,65,0,0
90882,-100,4,2,1,60,0,0
99632,-100,4,2,1,65,0,0
106418,-100,4,2,1,50,0,0

[Colours]
Combo1 : 255,226,125
Combo2 : 125,226,255
Combo3 : 255,202,228
Combo4 : 159,159,255

[HitObjects]
390,384,6597,6,0,P|404:300|412:246,1,115,6|0,1:2|0:0,0:0:0:0:
375,223,7132,1,2,0:0:0:0:
375,223,7311,2,0,P|328:231|271:182,1,115,2|2,0:0|0:0,0:0:0:0:
178,133,8025,2,0,P|110:148|31:166,1,115,6|0,0:0|0:0,0:0:0:0:
23,127,8561,1,2,0:0:0:0:
23,127,8739,2,0,P|-5:91|31:13,1,115,2|2,0:0|0:0,0:0:0:0:
124,10,9454,6,0,P|195:26|271:43,1,115,6|0,0:0|0:0,0:0:0:0:
279,72,9989,1,2,0:0:0:0:
279,72,10168,2,0,P|286:129|246:193,1,115,2|2,0:0|0:0,0:0:0:0:
337,265,10882,2,0,P|400:250|457:236,1,115,6|0,0:0|0:0,0:0:0:0:
494,273,11418,1,2,0:0:0:0:
494,273,11596,2,0,L|481:333,2,57.5,2|0|0,0:0|1:0|1:0,0:0:0:0:
382,303,12311,6,0,P|315:288|245:271,1,115,4|2,1:2|0:2,0:2:0:0:
217,290,12846,1,8,0:2:0:0:
217,290,13025,2,0,P|201:239|244:177,1,115,4|2,1:2|1:2,0:2:0:0:
333,140,13739,2,0,P|347:87|365:19,1,115,14|2,0:2|1:2,0:2:0:0:
313,9,14275,1,2,1:2:0:0:
313,9,14454,2,0,P|267:46|208:31,1,115,14|2,0:2|1:2,0:2:0:0:
165,65,14989,2,0,L|145:131,1,57.5,10|6,0:2|1:2,0:0:0:0:
72,234,15585,6,0,L|94:316,2,76.6666666666667,0|0|8,1:2|1:2|3:0,0:0:0:0:
32,183,16299,2,0,L|12:108,2,76.6666666666667,8|4|4,3:0|3:0|1:2,0:0:0:0:
271,57,18204,6,0,P|331:72|393:87,1,103.499996841431,6|2,1:2|1:2,0:2:0:0:
404,121,18739,1,2,0:2:0:0:
392,227,19096,1,2,0:2:0:0:
392,227,19275,2,0,L|365:300,1,51.7499984207154,2|2,1:2|0:2,0:0:0:0:
337,311,19632,2,0,P|301:279|231:288,1,103.499996841431,2|0,1:2|1:2,0:2:0:0:
205,308,20168,1,0,0:2:0:0:
107,273,20525,2,0,L|91:209,1,51.7499984207154,2|2,0:2|1:2,0:0:0:0:
121,186,20882,1,2,0:2:0:0:
121,186,21061,6,0,P|109:137|161:80,1,103.499996841431,2|0,1:2|1:2,0:2:0:0:
168,54,21596,1,2,0:2:0:0:
248,120,21954,1,2,0:2:0:0:
331,57,22311,1,2,0:2:0:0:
331,57,22489,2,0,P|388:71|449:85,1,103.499996841431,2|2,1:2|1:2,0:2:0:0:
473,111,23025,2,0,P|480:161|439:222,1,103.499996841431,2|0,0:2|0:2,0:2:0:0:
411,231,23561,1,0,1:2:0:0:
335,301,23918,6,0,P|272:314|207:327,1,103.499996841431,2|2,1:2|1:2,0:2:0:0:
186,299,24454,2,0,P|157:253|193:178,1,103.499996841431,2|2,0:2|0:2,0:2:0:0:
195,165,24989,2,0,P|210:121|219:92,1,51.7499984207154,2|2,1:2|0:2,0:0:0:0:
254,87,25346,1,0,1:2:0:0:
182,20,25704,1,2,1:2:0:0:
182,20,25882,2,0,P|117:39|39:62,1,103.499996841431,2|0,0:2|0:2,0:2:0:0:
47,86,26418,1,0,1:2:0:0:
112,165,26775,6,0,P|134:211|105:285,1,103.499996841431,2|0,1:2|1:2,0:2:0:0:
146,307,27311,2,0,P|186:317|224:325,1,51.7499984207154,2|0,0:2|1:2,0:0:0:0:
287,367,27846,1,2,1:2:0:0:
376,315,28204,2,0,P|389:265|395:234,1,51.7499984207154,2|2,1:2|0:2,0:0:0:0:
438,243,28561,1,2,1:2:0:0:
438,243,28739,2,0,P|463:197|434:117,1,103.499996841431,2|8,1:2|3:0,0:2:0:0:
356,7,29632,6,0,P|285:20|217:34,1,115,6|10,1:2|0:2,0:2:0:0:
212,77,30168,2,0,P|194:125|223:188,1,115,2|2,1:2|1:2,0:2:0:0:
271,198,30704,1,10,0:2:0:0:
206,293,31061,1,0,1:2:0:0:
142,204,31418,1,8,0:2:0:0:
142,204,31596,2,0,P|89:217|-1:243,1,115,0|0,1:2|1:2,0:2:0:0:
0,184,32132,1,10,0:2:0:0:
91,111,32489,6,0,P|101:70|115:-8,1,115,2|10,1:2|0:2,0:2:0:0:
164,26,33025,2,0,P|216:63|282:43,1,115,2|2,1:2|1:2,0:2:0:0:
306,16,33561,1,8,0:2:0:0:
382,101,33918,2,0,P|370:163|358:232,1,115,2|10,1:2|0:2,0:2:0:0:
402,254,34454,1,2,1:2:0:0:
314,328,34811,1,0,1:2:0:0:
314,328,34989,2,0,P|260:313|241:307,1,57.5,8|0,0:2|1:2,0:2:0:0:
213,348,35346,6,0,P|165:322|97:339,1,115,6|10,1:2|0:2,0:2:0:0:
63,294,35882,1,2,1:2:0:0:
120,194,36239,1,2,1:2:0:0:
120,194,36418,2,0,P|126:158|129:130,1,57.5,10|2,0:2|1:2,0:0:0:0:
174,102,36775,2,0,P|224:139|288:122,1,115,2|10,1:2|0:2,0:2:0:0:
318,96,37311,1,2,1:2:0:0:
436,220,37846,1,8,0:2:0:0:
352,299,38204,6,0,P|299:311|214:333,1,115,2|10,1:2|0:2,0:0:0:0:
196,288,38739,1,2,1:2:0:0:
94,342,39096,1,2,1:2:0:0:
24,249,39454,2,0,P|7:190|42:132,1,115,2|0,1:2|1:2,0:2:0:0:
77,114,39989,2,0,P|109:124|137:133,1,57.5,8|0,0:2|1:2,0:0:0:0:
176,94,40346,1,8,0:2:0:0:
245,185,40704,1,8,1:3:0:0:
336,136,41061,6,0,P|347:79|312:27,1,103.499996841431,6|0,1:2|0:2,0:2:0:0:
374,15,41596,1,2,1:2:0:0:
374,15,41775,2,0,P|433:33|498:55,1,103.499996841431,10|2,0:2|0:2,0:2:0:0:
505,86,42311,1,2,1:2:0:0:
431,158,42668,1,2,1:2:0:0:
431,158,42846,2,0,P|418:199|408:232,1,51.7499984207154,2|0,0:2|1:0,0:2:0:0:
377,243,43204,1,2,1:2:0:0:
280,206,43561,2,0,P|248:215|214:225,1,51.7499984207154,10|0,0:2|0:2,0:2:0:0:
185,193,43918,6,0,P|161:153|177:90,1,103.499996841431,2|0,1:2|0:2,0:2:0:0:
201,58,44454,1,2,1:2:0:0:
201,58,44632,2,0,P|262:71|333:89,1,103.499996841431,10|2,0:2|0:2,0:2:0:0:
345,52,45168,1,2,1:2:0:0:
434,114,45525,1,2,1:2:0:0:
434,114,45704,2,0,P|429:145|420:181,1,51.7499984207154,2|0,0:2|1:0,0:2:0:0:
387,201,46061,1,2,1:2:0:0:
287,173,46418,2,0,L|210:186,1,51.7499984207154,8|0,0:2|1:2,0:0:0:0:
189,216,46775,6,0,P|129:210|82:258,1,115,6|8,1:2|0:2,0:2:0:0:
22,148,47489,2,0,P|12:120|3:94,1,57.5,2|2,1:2|1:2,0:2:0:0:
37,48,47846,1,10,0:2:0:0:
37,48,48025,2,0,P|113:64|175:77,1,115,2|2,1:2|1:2,0:2:0:0:
188,113,48561,1,10,0:2:0:0:
270,33,48918,1,0,1:2:0:0:
363,100,49275,1,10,0:2:0:0:
303,197,49632,6,0,P|289:270|272:353,1,115,2|8,1:2|0:2,0:2:0:0:
177,360,50346,2,0,P|139:372|104:383,1,57.5,2|2,1:2|1:2,0:0:0:0:
79,347,50704,1,10,0:2:0:0:
79,347,50882,6,0,P|53:306|80:238,1,115,6|0,1:2|1:2,0:2:0:0:
121,217,51418,1,0,1:2:0:0:
219,275,51775,1,0,1:2:0:0:
324,230,52132,1,0,1:2:0:0:
354,119,52489,1,4,1:2:0:0:
159,6,53204,1,14,0:2:0:0:
159,6,53382,1,6,1:2:0:0:
100,105,53739,6,0,P|90:162|77:236,1,115,6|2,1:2|1:2,0:2:0:0:
32,250,54275,1,10,0:2:0:0:
121,322,54632,2,0,P|156:331|204:341,1,57.5,2|2,1:2|1:2,0:0:0:0:
221,299,54989,1,10,0:2:0:0:
221,299,55168,2,0,P|272:296|321:345,1,115,6|2,1:2|1:2,0:2:0:0:
349,384,55704,1,10,0:2:0:0:
466,258,56239,1,2,1:2:0:0:
466,258,56417,1,10,0:2:0:0:
466,258,56596,6,0,P|455:192|444:120,1,115,6|2,1:2|1:2,0:2:0:0:
434,88,57132,1,10,2:2:0:0:
328,133,57489,2,0,P|288:142|243:152,1,57.5,2|2,1:2|1:2,0:0:0:0:
238,106,57846,1,10,0:2:0:0:
238,106,58025,2,0,P|181:101|138:148,1,115,6|2,1:2|1:2,0:2:0:0:
98,176,58561,1,10,0:2:0:0:
197,227,58918,2,0,P|188:266|176:315,1,57.5,0|0,1:2|1:2,0:0:0:0:
231,324,59275,1,0,1:2:0:0:
231,324,59454,6,0,B|265:299|265:299|311:299|355:341,1,115,6|0,1:2|1:2,0:2:0:0:
380,355,59989,1,10,0:2:0:0:
442,258,60346,2,0,P|427:206|417:179,1,57.5,2|0,1:2|1:2,0:2:0:0:
456,153,60704,1,10,0:2:0:0:
361,87,61061,2,0,P|319:99|279:110,1,57.5,6|0,1:2|1:2,0:2:0:0:
269,147,61418,1,10,0:2:0:0:
176,78,61775,2,0,P|159:35|147:3,1,57.5,2|2,1:2|1:2,0:0:0:0:
105,8,62132,1,10,0:2:0:0:
105,8,62311,6,0,P|49:9|-3:58,1,115,6|2,1:2|1:2,0:2:0:0:
3,101,62846,1,8,0:2:0:0:
93,172,63204,2,0,P|81:217|68:269,1,57.5,0|0,1:2|1:2,0:0:0:0:
115,278,63561,1,8,0:2:0:0:
115,278,63739,2,0,P|177:272|221:317,1,115,4|0,1:2|1:2,0:2:0:0:
244,353,64275,1,8,0:2:0:0:
332,279,64632,1,14,0:2:0:0:
332,279,64811,1,6,1:2:0:0:
269,184,65168,6,0,P|252:119|235:49,1,115,6|2,1:2|1:2,0:2:0:0:
286,34,65704,1,10,0:2:0:0:
385,91,66061,2,0,P|419:100|457:109,1,57.5,2|2,1:2|1:2,0:0:0:0:
481,146,66418,1,10,0:2:0:0:
481,146,66596,2,0,P|491:195|438:260,1,115,6|2,1:2|1:2,0:2:0:0:
405,269,67132,1,10,0:2:0:0:
253,351,67668,1,2,1:2:0:0:
253,351,67846,1,10,0:0:0:0:
253,351,68025,6,0,P|235:282|221:229,1,115,6|2,1:2|1:2,0:2:0:0:
176,207,68561,1,10,0:2:0:0:
244,114,68918,2,0,P|295:128|328:137,1,57.5,2|2,1:2|1:2,0:0:0:0:
352,102,69275,1,10,0:2:0:0:
352,102,69454,2,0,P|393:72|464:85,1,115,6|2,1:2|1:2,0:2:0:0:
482,128,69989,1,10,0:2:0:0:
473,242,70346,2,0,P|460:281|446:328,1,57.5,0|8,1:2|3:0,0:0:0:0:
409,329,70704,1,4,3:0:0:0:
409,329,70882,6,0,B|375:304|375:304|329:304|285:346,1,115,6|0,1:2|1:2,0:2:0:0:
266,368,71418,1,10,0:2:0:0:
162,317,71775,2,0,P|147:265|141:242,1,57.5,2|0,1:2|1:2,0:2:0:0:
97,230,72132,1,10,0:2:0:0:
182,151,72489,2,0,P|199:83|216:13,1,115,6|8,1:2|0:2,0:2:0:0:
319,3,73204,1,14,0:2:0:0:
319,3,73382,1,6,1:2:0:0:
381,99,73739,6,0,P|447:119|499:135,1,115,6|0,1:2|1:2,0:2:0:0:
511,186,74275,1,10,0:2:0:0:
432,269,74632,2,0,P|418:307|405:344,1,57.5,2|2,1:2|1:2,0:0:0:0:
362,347,74989,1,8,0:2:0:0:
362,347,75168,2,0,P|323:309|254:314,1,115,6|0,1:2|1:2,0:2:0:0:
209,324,75704,1,0,1:2:0:0:
147,226,76061,1,0,1:2:0:0:
220,138,76418,1,0,1:2:0:0:
220,138,76596,1,12,0:2:0:0:
220,138,78204,5,2,0:2:0:0:
272,134,83918,6,0,P|289:197|307:264,1,103.499996841431,6|0,1:2|1:2,0:2:0:0:
344,258,84454,1,2,0:2:0:0:
274,334,84811,2,0,P|242:326|206:317,1,51.7499984207154,2|2,0:2|1:2,0:0:0:0:
179,348,85168,1,2,0:2:0:0:
62,254,85704,1,2,1:2:0:0:
62,254,85882,2,0,P|40:197|71:132,1,103.499996841431,2|2,0:2|0:2,0:2:0:0:
86,121,86418,1,2,1:2:0:0:
174,174,86775,6,0,P|234:189|305:206,1,103.499996841431,2|2,1:2|1:2,0:2:0:0:
319,172,87311,1,2,0:2:0:0:
397,239,87668,2,0,P|385:277|371:318,1,51.7499984207154,2|2,0:2|1:2,0:0:0:0:
340,318,88025,2,0,P|293:301|236:337,1,103.499996841431,2|2,0:2|0:2,0:2:0:0:
221,367,88561,1,2,1:2:0:0:
129,319,88918,2,0,P|118:268|111:233,1,51.7499984207154,2|0,1:2|1:2,0:2:0:0:
82,239,89275,1,8,0:2:0:0:
82,239,89454,6,0,P|71:182|107:130,1,103.499996841431,2|0,1:2|1:2,0:2:0:0:
133,114,89989,2,0,P|170:125|213:139,1,51.7499984207154,8|12,3:0|3:0,0:0:0:0:
236,104,90346,1,14,0:2:0:0:
236,104,90525,1,6,1:2:0:0:
312,189,90882,6,0,P|298:246|275:331,1,115,6|0,1:2|0:2,0:2:0:0:
233,325,91418,1,10,0:2:0:0:
233,325,91596,2,0,P|184:294|111:312,1,115,6|8,1:2|3:0,0:2:0:0:
55,211,92311,2,0,P|38:145|22:88,1,115,14|2,0:2|1:2,0:2:0:0:
64,58,92846,1,2,1:2:0:0:
64,58,93025,2,0,P|120:46|176:85,1,115,14|2,0:2|1:2,0:2:0:0:
241,162,93739,6,0,P|298:175|370:193,1,115,6|2,1:2|0:2,0:2:0:0:
404,224,94275,1,10,0:2:0:0:
404,224,94454,2,0,P|418:278|392:328,1,115,6|2,1:2|1:2,0:2:0:0:
281,359,95168,2,0,P|209:373|137:388,1,115,14|2,0:2|1:2,0:2:0:0:
120,361,95704,1,2,1:2:0:0:
120,361,95882,2,0,P|98:313|128:253,1,115,14|0,0:2|1:2,0:2:0:0:
225,210,96596,6,0,P|243:145|259:88,1,115,4|2,1:2|0:2,0:2:0:0:
308,71,97132,1,10,0:2:0:0:
308,71,97311,2,0,P|350:106|438:95,1,115,6|8,1:2|3:0,0:2:0:0:
488,191,98025,2,0,P|470:256|454:313,1,115,14|2,0:2|1:2,0:2:0:0:
406,324,98561,1,2,1:2:0:0:
406,324,98739,2,0,P|354:314|298:360,1,115,14|2,0:2|1:2,0:2:0:0:
258,380,99275,1,2,1:2:0:0:
169,307,99632,6,0,P|122:318|86:327,1,57.5,6|2,1:2|1:2,0:0:0:0:
69,291,99989,1,10,0:2:0:0:
69,291,100168,2,0,P|45:244|73:166,1,115,6|2,1:2|1:2,0:2:0:0:
108,163,100704,1,10,0:2:0:0:
213,117,101061,2,0,P|257:133|291:147,1,57.5,4|2,1:2|1:2,0:0:0:0:
323,123,101418,1,10,0:2:0:0:
323,123,101596,2,0,P|341:80|312:19,1,115,6|2,1:2|1:2,0:2:0:0:
259,3,102132,1,10,1:2:0:0:
179,85,102489,6,0,P|116:103|43:126,1,115,6|8,1:2|0:2,0:2:0:0:
37,165,103025,2,0,P|26:210|70:277,1,115,0|2,1:2|1:2,0:0:0:0:
113,275,103561,1,8,3:0:0:0:
195,195,103918,1,6,1:2:0:0:
256,192,104454,12,12,109811,3:0:0:0:
