osu file format v14

[General]
AudioFilename: audio.mp3
AudioLeadIn: 0
PreviewTime: 52936
Countdown: 0
SampleSet: Soft
StackLeniency: 0.7
Mode: 0
LetterboxInBreaks: 0
WidescreenStoryboard: 0

[Editor]
DistanceSpacing: 1
BeatDivisor: 6
GridSize: 32
TimelineZoom: 2.1

[Metadata]
Title:Koko ni Iru kara
TitleUnicode:ココニイルカラ
Artist:Ito Kanako
ArtistUnicode:いとうかなこ
Creator:Zekk
Version:Insane
Source:タマユラミライ
Tags:tamayura mirai azurite visual novel eroge opening short japanese pop video game fanza games digination itou
BeatmapID:3176082
BeatmapSetID:1554577

[Difficulty]
HPDrainRate:5
CircleSize:4.1
OverallDifficulty:8
ApproachRate:9
SliderMultiplier:1.76
SliderTickRate:1

[Events]
//Background and Video events
0,0,"bg.jpg",0,0
//Break Periods
2,78404,82782
//Storyboard Layer 0 (Background)
//Storyboard Layer 1 (Fail)
//Storyboard Layer 2 (Pass)
//Storyboard Layer 3 (Foreground)
//Storyboard Layer 4 (Overlay)
//Storyboard Sound Samples

[TimingPoints]
5347,357.142857142857,4,2,1,30,1,0
5347,-125,4,2,1,30,0,0
6597,-100,4,2,1,50,0,0
7132,-125,4,2,1,50,0,0
12311,-100,4,2,1,55,0,0
18204,-125,4,2,1,45,0,0
29632,-111.111111111111,4,2,1,50,0,0
41061,-125,4,2,1,45,0,0
46775,-111.111111111111,4,2,1,55,0,0
52489,-166.666666666667,4,2,1,60,0,0
53739,-100,4,2,1,70,0,1
76596,-125,4,2,1,75,0,0
78204,-125,4,2,1,30,0,0
83382,-125,4,2,1,50,0,0
83918,-125,4,2,1,55,0,0
90168,-100,4,2,1,65,0,0
90882,-111.111111111111,4,2,1,60,0,0
99632,-100,4,2,1,65,0,0
106418,-100,4,2,1,50,0,0

[Colours]
Combo1 : 255,226,125
Combo2 : 125,226,255
Combo3 : 255,202,228
Combo4 : 159,159,255

[HitObjects]
256,192,5347,5,2,0:0:0:0:
256,192,5704,1,2,0:0:0:0:
256,192,6061,1,8,3:0:0:0:
282,201,6150,1,4,3:0:0:0:
310,199,6239,1,12,3:0:0:0:
334,185,6328,1,8,0:0:0:0:
351,163,6418,1,12,0:0:0:0:
201,0,6597,6,0,B|161:-16|142:18|142:18|176:147,1,176,6|0,1:2|0:0,0:0:0:0:
142,145,7043,1,2,0:0:0:0:
142,145,7132,1,2,0:0:0:0:
6,68,7311,6,0,P|43:61|78:54,1,70.4,2|0,0:0|0:0,0:0:0:0:
179,207,7668,1,2,0:0:0:0:
66,140,7847,1,2,0:0:0:0:
215,65,8025,6,0,P|238:95|204:187,1,140.8,6|0,0:0|0:0,0:0:0:0:
179,207,8472,1,2,0:0:0:0:
179,207,8561,1,2,0:0:0:0:
281,316,8739,6,0,P|269:275|257:236,1,70.4,2|0,0:0|0:0,0:0:0:0:
369,197,9097,1,2,0:0:0:0:
252,154,9275,1,2,0:0:0:0:
364,314,9454,6,0,P|394:283|491:298,1,140.8,6|0,0:0|0:0,0:0:0:0:
512,321,9900,1,2,0:0:0:0:
512,321,9989,1,2,0:0:0:0:
382,128,10168,6,0,P|375:168|369:203,1,70.4,2|0,0:0|0:0,0:0:0:0:
451,93,10525,1,2,0:0:0:0:
300,159,10704,1,2,0:0:0:0:
240,0,10882,6,0,P|270:52|359:50,1,140.8,6|0,0:0|0:0,0:0:0:0:
379,29,11329,1,2,0:0:0:0:
379,29,11418,1,2,0:0:0:0:
199,181,11596,6,0,P|190:136|178:96,1,70.4,2|0,0:0|1:0,0:0:0:0:
258,265,11954,1,0,1:0:0:0:
126,207,12132,1,8,0:2:0:0:
126,207,12221,1,8,0:2:0:0:
126,207,12311,6,0,P|66:198|5:309,1,176,4|2,1:2|0:2,0:2:0:0:
23,313,12757,1,2,0:2:0:0:
23,313,12846,1,8,0:2:0:0:
201,384,13025,6,0,P|191:339|179:284,1,88,4|0,1:2|0:2,0:2:0:0:
321,222,13382,1,2,1:2:0:0:
217,144,13561,1,2,0:2:0:0:
289,333,13739,6,0,B|323:291|380:303|380:303|394:347|446:363,1,176,14|2,0:2|1:2,0:2:0:0:
512,246,14275,1,2,1:2:0:0:
386,126,14454,2,0,P|374:170|363:228,1,88,14|0,0:2|0:2,0:2:0:0:
249,64,14811,5,2,1:2:0:0:
409,17,14989,1,10,0:2:0:0:
271,186,15168,1,6,1:2:0:0:
271,186,15585,5,0,1:2:0:0:
114,82,15823,5,0,1:2:0:0:
99,265,16061,5,8,3:0:0:0:
163,176,16299,5,8,3:0:0:0:
0,276,16537,5,4,3:0:0:0:
184,357,16775,5,4,1:2:0:0:
99,265,16954,1,0,1:2:0:0:
266,182,17132,5,8,0:2:0:0:
258,202,17221,1,8,0:2:0:0:
251,223,17310,1,12,0:2:0:0:
14,70,18204,6,0,P|59:17|142:40,1,140.8,6|2,1:2|1:2,0:2:0:0:
181,84,18739,2,0,P|216:93|265:107,1,70.4,2|0,0:2|1:2,0:2:0:0:
369,11,19096,1,2,0:2:0:0:
277,29,19275,1,2,1:2:0:0:
367,126,19454,1,2,0:2:0:0:
367,126,19543,1,2,0:2:0:0:
367,126,19632,6,0,P|308:125|246:199,1,140.8,2|0,1:2|1:2,0:2:0:0:
291,256,20168,2,0,P|283:294|265:339,1,70.4,0|0,0:2|1:2,0:2:0:0:
328,380,20525,1,2,0:2:0:0:
206,283,20704,1,2,1:2:0:0:
206,283,20882,1,2,0:2:0:0:
140,331,21061,6,0,P|89:365|10:351,1,140.8,2|0,1:2|1:2,0:2:0:0:
73,202,21596,2,0,P|81:240|93:292,1,70.4,2|0,0:2|1:2,0:2:0:0:
210,159,21954,2,0,P|221:114|173:57,1,105.6,2|0,0:2|0:2,0:2:0:0:
159,52,22311,1,2,0:2:0:0:
296,166,22489,6,0,P|333:177|377:192,1,70.4,2|2,1:2|0:2,0:2:0:0:
372,104,22846,1,2,1:2:0:0:
475,253,23025,2,0,P|403:248|348:313,1,140.8,2|0,0:2|0:2,0:2:0:0:
246,370,23561,2,0,P|283:376|324:388,1,70.4,0|0,1:2|0:2,0:2:0:0:
155,299,23918,6,0,B|71:319|71:319|49:299|61:269,1,140.8,2|2,1:2|1:2,0:2:0:0:
177,138,24454,2,0,P|165:181|153:226,1,70.4,2|0,0:2|1:2,0:2:0:0:
242,66,24811,1,2,0:2:0:0:
88,129,24989,1,2,1:2:0:0:
246,240,25168,1,2,0:2:0:0:
246,240,25257,1,2,0:2:0:0:
246,240,25346,6,0,P|292:238|359:298,1,140.8,0|2,1:2|1:2,0:2:0:0:
168,384,25882,2,0,P|155:343|145:309,1,70.4,2|0,0:2|1:2,0:2:0:0:
65,186,26239,1,0,0:2:0:0:
222,223,26418,2,0,P|188:233|154:243,1,70.4,0|0,1:2|0:2,0:2:0:0:
269,96,26775,6,0,P|344:102|381:171,1,140.8,2|0,1:2|1:2,0:2:0:0:
242,290,27311,2,0,P|231:256|221:222,1,70.4,2|0,0:2|1:2,0:0:0:0:
164,136,27667,1,2,0:2:0:0:
164,136,27757,1,2,0:2:0:0:
164,136,27846,1,2,1:2:0:0:
303,203,28025,1,2,0:2:0:0:
145,324,28204,5,2,1:2:0:0:
222,223,28382,1,2,0:2:0:0:
93,254,28561,1,2,1:2:0:0:
354,384,28739,6,0,P|323:342|228:348,1,140.8,2|8,1:2|3:0,0:2:0:0:
404,149,29275,1,8,3:0:0:0:
409,176,29364,1,8,3:0:0:0:
415,204,29453,1,8,3:0:0:0:
421,231,29542,1,4,3:0:0:0:
426,259,29632,6,0,P|465:270|525:290,1,79.1999975830079,6|0,1:2|0:2,0:2:0:0:
354,384,29989,1,10,0:2:0:0:
256,278,30168,6,0,P|239:227|313:146,1,158.399995166016,2|2,1:2|1:2,0:2:0:0:
112,17,30704,2,0,P|124:57|142:103,1,79.1999975830079,10|2,0:2|1:2,0:2:0:0:
116,127,30971,1,8,0:2:0:0:
116,127,31061,1,0,1:2:0:0:
202,15,31239,1,0,1:2:0:0:
48,80,31418,1,8,0:2:0:0:
178,167,31596,6,0,B|278:197|278:197|301:178|296:132,1,158.399995166016,0|0,1:2|1:2,0:2:0:0:
133,323,32132,1,10,0:2:0:0:
48,235,32311,1,2,0:2:0:0:
178,167,32489,6,0,P|166:205|155:246,1,79.1999975830079,2|0,1:2|0:2,0:2:0:0:
79,144,32846,1,10,0:2:0:0:
227,315,33025,2,0,P|188:325|151:337,1,79.1999975830079,2|0,1:2|0:2,0:2:0:0:
274,169,33382,2,0,P|311:180|349:191,1,79.1999975830079,2|8,1:2|0:2,0:2:0:0:
462,309,33739,1,2,0:2:0:0:
360,384,33918,6,0,P|351:338|344:291,1,79.1999975830079,2|2,1:2|1:2,0:2:0:0:
415,235,34275,1,10,0:2:0:0:
266,290,34454,1,2,1:2:0:0:
266,290,34543,1,8,0:2:0:0:
266,290,34632,5,0,1:2:0:0:
349,191,34811,1,0,1:2:0:0:
218,76,34989,2,0,P|227:116|234:153,1,79.1999975830079,8|0,0:2|1:2,0:2:0:0:
49,324,35346,6,0,P|104:269|193:287,1,158.399995166016,6|10,1:2|0:2,0:2:0:0:
42,113,35882,2,0,P|34:152|25:190,1,79.1999975830079,2|0,1:2|0:2,0:2:0:0:
218,76,36239,1,2,1:2:0:0:
99,25,36418,1,10,0:2:0:0:
173,197,36596,1,2,1:2:0:0:
173,197,36686,1,8,0:2:0:0:
173,197,36775,6,0,P|227:146|310:174,1,158.399995166016,2|10,1:2|0:2,0:2:0:0:
415,57,37311,2,0,P|371:44|321:31,1,79.1999975830079,2|0,1:2|0:2,0:2:0:0:
418,237,37668,1,0,1:2:0:0:
418,237,37757,1,0,1:2:0:0:
418,237,37846,2,0,P|428:198|439:160,1,79.1999975830079,8|0,0:2|1:2,0:2:0:0:
480,140,38114,1,2,0:2:0:0:
480,140,38204,5,2,1:2:0:0:
329,195,38382,1,2,0:2:0:0:
468,301,38561,1,10,0:2:0:0:
314,384,38739,2,0,P|304:345|293:307,1,79.1999975830079,2|0,1:2|0:2,0:2:0:0:
101,251,39096,2,0,P|170:247|204:211,1,118.799996374512,2|0,1:2|0:2,0:2:0:0:
223,187,39454,6,0,P|233:141|247:84,1,79.1999975830079,2|0,1:2|0:2,0:2:0:0:
307,12,39811,1,0,1:2:0:0:
158,73,39989,1,8,0:2:0:0:
316,179,40168,5,0,1:2:0:0:
316,179,40257,1,0,1:2:0:0:
316,179,40346,2,0,L|367:192,3,39.5999987915039,8|8|4|4,0:2|3:0|3:0|3:0,0:2:0:0:
474,315,40704,5,8,1:3:0:0:
445,298,40794,1,8,3:0:0:0:
410,296,40883,1,4,3:0:0:0:
379,310,40972,1,12,3:0:0:0:
358,337,41061,6,0,P|314:348|240:268,1,140.8,6|0,1:2|0:2,0:2:0:0:
130,243,41596,1,2,1:2:0:0:
237,142,41775,2,0,P|227:179|215:224,1,70.4,10|2,0:2|1:2,0:2:0:0:
140,124,42132,1,2,0:2:0:0:
251,52,42311,6,0,P|301:68|397:97,1,140.8,2|2,1:2|1:2,0:2:0:0:
500,217,42846,2,0,P|439:208|403:250,1,105.6,2|0,0:2|0:2,0:2:0:0:
401,267,43204,6,0,P|391:312|379:366,1,70.4,2|0,1:2|0:2,0:2:0:0:
245,181,43561,2,0,P|279:189|313:196,1,70.4,10|0,0:2|0:2,0:2:0:0:
199,340,43918,6,0,B|153:318|153:318|109:318|63:362,1,140.8,2|0,1:2|0:2,0:2:0:0:
0,275,44454,1,2,1:2:0:0:
83,184,44632,2,0,P|97:230|106:269,1,70.4,10|2,0:2|1:2,0:2:0:0:
0,160,44989,1,2,0:2:0:0:
180,120,45168,6,0,P|129:104|42:81,1,140.8,2|2,1:2|1:2,0:2:0:0:
266,17,45704,2,0,P|291:53|374:50,1,105.6,2|0,0:2|0:2,0:2:0:0:
382,42,46061,6,0,P|418:35|465:27,1,70.4,2|0,1:2|1:2,0:2:0:0:
365,202,46418,1,8,0:2:0:0:
336,219,46508,1,8,0:2:0:0:
301,221,46597,1,0,1:2:0:0:
270,207,46686,1,0,1:2:0:0:
249,180,46775,6,0,B|213:148|175:168|175:168|159:209|104:203,1,158.399995166016,6|8,1:2|0:2,0:2:0:0:
20,137,47311,1,0,0:2:0:0:
152,20,47489,1,2,1:2:0:0:
100,113,47668,1,2,1:2:0:0:
49,10,47846,1,10,0:2:0:0:
189,145,48025,6,0,P|240:149|314:65,1,158.399995166016,2|2,1:2|1:2,0:2:0:0:
465,209,48561,2,0,P|414:190|366:175,1,79.1999975830079,10|0,0:2|1:2,0:2:0:0:
356,208,48829,1,8,0:2:0:0:
356,208,48918,6,0,P|343:245|329:282,1,79.1999975830079,0|2,1:2|1:2,0:2:0:0:
197,347,49275,2,0,P|182:310|170:272,1,79.1999975830079,10|0,0:2|0:2,0:2:0:0:
0,154,49632,6,0,P|69:141|119:220,1,158.399995166016,2|8,1:2|0:2,0:2:0:0:
230,33,50168,1,0,0:2:0:0:
127,86,50346,1,2,1:2:0:0:
262,188,50525,1,2,1:2:0:0:
205,117,50704,1,10,0:2:0:0:
119,203,50882,6,0,P|107:240|98:279,1,79.1999975830079,6|0,1:2|0:2,0:2:0:0:
269,367,51239,1,0,1:2:0:0:
192,266,51418,1,0,1:2:0:0:
151,384,51596,1,0,1:2:0:0:
331,283,51775,1,0,1:2:0:0:
271,179,51954,1,0,1:2:0:0:
463,271,52132,1,0,1:2:0:0:
269,367,52311,1,0,1:2:0:0:
463,271,52489,1,4,1:2:0:0:
145,154,53025,5,8,0:2:0:0:
151,179,53114,1,8,0:2:0:0:
156,204,53203,5,14,0:2:0:0:
319,79,53382,1,6,1:2:0:0:
316,384,53739,6,0,B|347:282|347:282|333:240|277:262,1,176,6|2,1:2|1:2,0:2:0:0:
47,155,54275,2,0,P|105:169|149:177,1,88,10|2,0:2|1:2,0:2:0:0:
156,204,54543,1,8,0:2:0:0:
156,204,54632,1,2,1:2:0:0:
37,262,54811,1,2,1:2:0:0:
140,85,54989,1,10,0:2:0:0:
244,308,55168,6,0,P|163:287|113:353,1,176,6|2,1:2|1:2,0:2:0:0:
306,106,55704,2,0,P|312:145|325:213,1,88,10|0,0:2|1:2,0:2:0:0:
356,216,55971,1,8,0:2:0:0:
356,216,56061,5,0,1:2:0:0:
209,125,56239,1,2,1:2:0:0:
379,42,56418,1,10,0:2:0:0:
221,256,56596,6,0,B|187:216|140:230|140:230|115:278|55:271,1,176,6|2,1:2|1:2,0:2:0:0:
75,40,57132,2,0,P|86:85|98:136,1,88,10|2,2:2|1:2,2:2:0:0:
68,157,57400,1,8,0:2:0:0:
68,157,57489,1,2,1:2:0:0:
194,38,57668,1,2,1:2:0:0:
194,38,57757,1,0,1:2:0:0:
194,38,57846,1,10,0:2:0:0:
322,260,58025,6,0,P|274:245|233:235,1,88,6|0,1:2|0:2,0:2:0:0:
429,74,58382,1,2,1:2:0:0:
429,74,58471,1,0,1:2:0:0:
429,74,58561,2,0,P|412:122|395:183,1,88,10|0,0:2|1:2,0:2:0:0:
429,195,58829,1,8,0:2:0:0:
429,195,58918,5,0,1:2:0:0:
257,90,59096,1,0,1:2:0:0:
343,289,59275,1,0,1:2:0:0:
160,248,59454,6,0,P|194:178|291:183,1,176,6|0,1:2|1:2,0:2:0:0:
62,49,59989,2,0,P|45:97|22:156,1,88,10|0,0:2|1:2,0:2:0:0:
160,248,60257,1,8,0:2:0:0:
160,248,60346,2,0,P|118:232|77:217,1,88,2|0,1:2|1:2,0:2:0:0:
236,384,60704,2,0,P|277:339|355:364,1,132,10|0,0:2|0:2,0:2:0:0:
372,372,61061,6,0,P|386:322|400:278,1,88,6|0,1:2|1:2,0:2:0:0:
232,105,61418,2,0,P|246:155|260:199,1,88,10|0,0:2|1:2,0:2:0:0:
235,219,61686,1,8,0:2:0:0:
235,219,61775,5,2,1:2:0:0:
370,111,61954,1,2,1:2:0:0:
196,9,62132,1,10,0:2:0:0:
157,162,62311,6,0,B|118:194|118:194|53:149|-4:168,1,176,6|2,1:2|1:2,0:2:0:0:
165,384,62846,2,0,P|176:341|196:280,1,88,8|0,0:2|1:2,0:2:0:0:
229,278,63114,1,8,0:2:0:0:
229,278,63204,5,0,1:2:0:0:
76,320,63382,1,0,1:2:0:0:
157,162,63561,1,8,0:2:0:0:
309,309,63739,6,0,P|340:352|474:341,1,176,4|0,1:2|1:2,0:2:0:0:
332,120,64275,2,0,P|340:166|350:223,1,88,8|0,0:2|1:2,0:2:0:0:
321,238,64543,1,8,0:2:0:0:
321,238,64632,5,14,0:2:0:0:
489,95,64811,1,6,1:2:0:0:
268,57,65168,6,0,B|233:19|186:36|186:36|162:87|106:77,1,176,6|2,1:2|1:2,0:2:0:0:
79,283,65704,2,0,P|61:223|48:182,1,88,10|2,0:2|1:2,0:2:0:0:
86,178,65971,1,8,0:2:0:0:
86,178,66061,1,2,1:2:0:0:
0,323,66239,1,2,1:2:0:0:
178,236,66418,1,10,0:2:0:0:
280,384,66596,6,0,P|232:364|191:351,1,88,6|0,1:2|0:2,0:2:0:0:
353,174,66954,1,2,1:2:0:0:
353,174,67043,1,0,1:2:0:0:
353,174,67132,2,0,P|363:216|376:280,1,88,10|0,0:2|1:2,0:2:0:0:
408,286,67400,1,8,0:2:0:0:
408,286,67489,5,0,1:2:0:0:
250,177,67668,1,2,1:2:0:0:
409,96,67846,1,10,0:2:0:0:
279,31,68025,6,0,B|229:8|167:12|167:12|155:46|115:70,1,176,6|2,1:2|1:2,0:2:0:0:
114,272,68561,2,0,P|99:223|84:179,1,88,10|2,0:2|1:2,0:2:0:0:
117,166,68829,1,8,0:2:0:0:
117,166,68918,1,2,1:2:0:0:
0,279,69096,1,2,1:2:0:0:
0,279,69186,1,0,1:2:0:0:
0,279,69275,1,10,0:2:0:0:
219,384,69454,6,0,B|253:277|253:277|236:244|184:259,1,176,6|2,1:2|1:2,0:2:0:0:
341,106,69989,2,0,P|351:148|367:213,1,88,10|0,0:2|1:2,0:2:0:0:
396,213,70257,1,8,0:2:0:0:
396,213,70346,1,0,1:2:0:0:
264,79,70525,1,8,3:0:0:0:
230,71,70614,1,8,3:0:0:0:
196,82,70703,1,4,3:0:0:0:
173,109,70792,1,12,3:0:0:0:
173,109,70882,6,0,B|131:154|131:154|74:156|15:110,1,176,6|0,1:2|1:2,0:2:0:0:
223,384,71418,2,0,P|213:336|204:294,1,88,10|0,0:2|1:2,0:2:0:0:
361,191,71686,1,8,0:2:0:0:
361,191,71775,2,0,P|313:202|271:211,1,88,2|0,1:2|1:2,0:2:0:0:
347,327,72132,2,0,P|410:318|459:360,1,132,10|8,0:2|0:2,0:2:0:0:
484,384,72489,6,0,P|499:337|513:296,1,88,6|0,1:2|1:2,0:2:0:0:
257,135,72846,1,8,0:2:0:0:
266,164,72935,1,8,0:2:0:0:
275,193,73024,1,0,1:2:0:0:
285,223,73113,1,8,0:2:0:0:
294,252,73203,5,14,0:2:0:0:
437,97,73382,1,6,1:2:0:0:
437,97,73739,6,0,P|418:48|300:57,1,176,6|0,1:2|1:2,0:2:0:0:
208,220,74275,2,0,P|255:209|302:201,1,88,10|0,0:2|1:2,0:2:0:0:
322,229,74543,1,8,0:2:0:0:
322,229,74632,1,2,1:2:0:0:
214,115,74811,1,2,1:2:0:0:
143,286,74989,1,8,0:2:0:0:
0,130,75168,6,0,B|42:104|42:104|105:109|160:175,1,176,6|0,1:2|1:2,0:2:0:0:
308,73,75704,1,0,1:2:0:0:
167,9,75882,1,0,1:2:0:0:
298,174,76061,1,0,1:2:0:0:
85,218,76239,5,0,1:2:0:0:
201,100,76418,1,0,1:2:0:0:
270,285,76596,1,12,0:2:0:0:
270,285,78204,5,2,0:2:0:0:
84,76,83382,5,0,1:2:0:0:
84,76,83471,1,0,1:2:0:0:
84,76,83561,2,0,P|93:119|102:154,1,70.4,8|0,0:2|0:2,0:2:0:0:
0,277,83918,6,0,P|47:229|125:245,1,140.8,6|0,1:2|1:2,0:2:0:0:
222,116,84454,2,0,P|205:164|192:201,1,70.4,2|0,0:2|1:2,0:2:0:0:
277,273,84811,1,2,0:2:0:0:
376,189,84989,1,2,1:2:0:0:
376,189,85079,1,2,0:2:0:0:
376,189,85168,6,0,P|335:176|298:166,1,70.4,2|0,0:2|1:2,0:2:0:0:
423,96,85525,1,2,0:2:0:0:
423,96,85614,1,2,0:2:0:0:
423,96,85704,1,2,1:2:0:0:
284,29,85882,6,0,P|293:79|312:197,1,140.8,2|2,0:2|0:2,0:2:0:0:
366,26,86418,1,2,1:2:0:0:
218,108,86596,1,2,0:2:0:0:
373,207,86775,6,0,P|413:218|460:233,1,70.4,2|2,1:2|0:2,0:2:0:0:
472,257,87043,1,2,0:2:0:0:
472,257,87132,1,2,1:2:0:0:
281,384,87311,2,0,B|240:356|240:356|233:298|281:251,1,140.8,2|2,0:2|0:2,0:2:0:0:
333,307,87846,1,2,1:2:0:0:
200,209,88025,6,0,P|130:222|64:245,1,140.8,2|2,0:2|0:2,0:2:0:0:
32,231,88471,1,2,0:2:0:0:
32,231,88561,1,2,1:2:0:0:
166,298,88739,1,2,0:2:0:0:
133,115,88918,6,0,P|122:159|108:211,1,70.4,2|0,1:2|1:2,0:2:0:0:
37,98,89275,1,8,0:2:0:0:
154,27,89454,2,0,P|218:23|266:97,1,140.8,2|0,1:2|1:2,0:2:0:0:
128,225,89989,5,8,3:0:0:0:
128,225,90079,1,4,3:0:0:0:
128,225,90168,2,0,L|110:165,1,44,12|8,3:0|3:2,0:2:0:0:
265,258,90346,5,14,0:2:0:0:
90,384,90525,1,6,1:2:0:0:
265,258,90882,6,0,B|316:237|316:237|371:241|424:307,1,158.399995166016,6|0,1:2|0:2,0:2:0:0:
498,208,91418,1,10,0:2:0:0:
399,94,91596,2,0,P|386:138|374:202,1,79.1999975830079,6|0,1:2|0:2,0:2:0:0:
233,67,91954,1,8,3:0:0:0:
343,0,92132,1,2,0:2:0:0:
225,157,92311,6,0,P|155:168|97:89,1,158.399995166016,14|2,0:2|1:2,0:2:0:0:
155,52,92846,1,2,1:2:0:0:
76,211,93025,2,0,P|33:223|-13:237,1,79.1999975830079,14|0,0:2|0:2,0:2:0:0:
155,52,93382,1,2,1:2:0:0:
299,155,93561,1,10,0:2:0:0:
171,258,93739,6,0,P|185:206|196:172,1,79.1999975830079,6|0,1:2|0:2,0:2:0:0:
291,305,94096,1,2,0:2:0:0:
291,305,94186,1,2,0:2:0:0:
291,305,94275,1,10,0:2:0:0:
91,380,94454,6,0,P|48:328|86:237,1,158.399995166016,6|2,1:2|1:2,0:2:0:0:
192,181,94989,1,2,0:2:0:0:
83,73,95168,2,0,P|94:110|105:159,1,79.1999975830079,14|0,0:2|0:2,0:2:0:0:
0,117,95525,1,2,1:2:0:0:
143,15,95704,1,2,1:2:0:0:
332,196,95882,6,0,B|284:222|284:222|231:223|180:168,1,158.399995166016,14|0,0:2|1:2,0:2:0:0:
389,31,96418,1,8,0:2:0:0:
389,31,96507,1,8,0:2:0:0:
389,31,96596,6,0,P|400:77|411:122,1,79.1999975830079,4|0,1:2|0:2,0:2:0:0:
335,199,96954,1,2,0:2:0:0:
335,199,97043,1,2,0:2:0:0:
335,199,97132,1,10,0:2:0:0:
178,43,97311,6,0,P|253:54|306:0,1,158.399995166016,6|8,1:2|3:0,0:2:0:0:
191,178,97846,1,2,0:2:0:0:
90,105,98025,2,0,P|79:57|78:17,1,79.1999975830079,14|0,0:2|0:2,0:2:0:0:
90,241,98382,1,2,1:2:0:0:
90,241,98471,1,2,0:2:0:0:
90,241,98561,1,2,1:2:0:0:
191,178,98739,6,0,B|232:157|232:157|280:156|345:214,1,158.399995166016,14|2,0:2|1:2,0:2:0:0:
212,384,99275,2,0,P|202:342|192:300,1,79.1999975830079,2|2,1:2|1:2,0:2:0:0:
118,149,99632,5,6,1:2:0:0:
6,252,99811,1,2,1:2:0:0:
0,76,99989,1,10,0:2:0:0:
159,238,100168,6,0,B|207:215|246:247|246:247|259:301|320:311,1,176,6|2,1:2|1:2,0:2:0:0:
446,138,100704,2,0,P|395:146|337:159,1,88,10|2,0:2|1:2,0:2:0:0:
326,128,100971,1,8,0:2:0:0:
326,128,101061,5,4,1:2:0:0:
441,250,101239,1,2,1:2:0:0:
412,63,101418,1,10,0:2:0:0:
262,207,101596,6,0,B|216:237|216:237|166:196|74:202,1,176,6|2,1:2|1:2,0:2:0:0:
158,51,102132,1,10,1:2:0:0:
158,51,102221,1,0,1:2:0:0:
158,51,102311,2,0,P|167:80|175:126,1,44,2|8,1:2|0:2,0:2:0:0:
0,258,102489,6,0,P|-23:195|46:116,1,176,6|8,1:2|0:2,0:2:0:0:
238,243,103025,1,0,1:2:0:0:
238,243,103114,1,8,0:2:0:0:
238,243,103204,1,0,1:2:0:0:
89,308,103382,1,2,1:2:0:0:
216,362,103561,5,8,3:0:0:0:
247,377,103650,1,8,3:0:0:0:
282,377,103739,1,4,3:0:0:0:
313,363,103828,1,12,3:0:0:0:
336,336,103918,6,0,L|345:288,3,44,6|2|2|2,1:2|0:2|0:2|0:2,0:2:0:0:
458,246,104275,2,0,L|409:237,3,44,2|2|2|2,1:2|0:2|0:2|0:2,0:2:0:0:
357,131,104632,2,0,L|348:179,3,44,2|2|2|2,1:2|0:2|0:2|0:2,0:2:0:0:
252,238,104989,5,2,1:2:0:0:
248,211,105078,1,2,0:2:0:0:
237,188,105167,1,2,0:2:0:0:
219,168,105256,1,2,0:2:0:0:
197,155,105346,1,2,1:2:0:0:
171,149,105435,1,2,0:2:0:0:
145,150,105524,1,2,0:2:0:0:
120,160,105613,1,2,0:2:0:0:
100,176,105704,6,0,L|33:192,3,44,2|2|2|2,1:2|0:2|0:2|0:2,0:2:0:0:
20,303,106061,2,0,L|10:261,3,44,2|2|10|10,1:2|1:2|0:0|0:0,0:2:0:0:
44,60,106418,5,14,0:2:0:0:
171,247,106596,1,6,1:2:0:0:
256,192,106686,12,2,109543,0:2:0:0:
256,192,109692,6,0,L|246:235,2,29.3333333333333,8|4|12,3:0|3:0|3:0,0:2:0:0:
