osu file format v14

[General]
AudioFilename: audio.mp3
AudioLeadIn: 0
PreviewTime: 52936
Countdown: 0
SampleSet: Soft
StackLeniency: 0.7
Mode: 0
LetterboxInBreaks: 0
WidescreenStoryboard: 1

[Editor]
Bookmarks: 7311,78204
DistanceSpacing: 1.2
BeatDivisor: 2
GridSize: 32
TimelineZoom: 2.1

[Metadata]
Title:Koko ni Iru kara
TitleUnicode:ココニイルカラ
Artist:Ito Kanako
ArtistUnicode:いとうかなこ
Creator:Zekk
Version:Hard
Source:タマユラミライ
Tags:tamayura mirai azurite visual novel eroge opening short japanese pop video game fanza games digination itou
BeatmapID:3176081
BeatmapSetID:1554577

[Difficulty]
HPDrainRate:4
CircleSize:3.4
OverallDifficulty:6.5
ApproachRate:8
SliderMultiplier:1.56
SliderTickRate:1

[Events]
//Background and Video events
0,0,"bg.jpg",0,0
//Break Periods
2,78404,82632
//Storyboard Layer 0 (Background)
//Storyboard Layer 1 (Fail)
//Storyboard Layer 2 (Pass)
//Storyboard Layer 3 (Foreground)
//Storyboard Layer 4 (Overlay)
//Storyboard Sound Samples

[TimingPoints]
5347,357.142857142857,4,2,1,30,1,0
5347,-125,4,2,1,30,0,0
6597,-100,4,2,1,50,0,0
6954,-125,4,2,1,50,0,0
12311,-111.111111111111,4,2,1,55,0,0
15168,-100,4,2,1,55,0,0
18204,-125,4,2,1,45,0,0
29632,-111.111111111111,4,2,1,50,0,0
41061,-125,4,2,1,45,0,0
46775,-111.111111111111,4,2,1,55,0,0
52489,-111.111111111111,4,2,1,60,0,0
53739,-100,4,2,1,70,0,1
76596,-125,4,2,1,75,0,0
78204,-125,4,2,1,30,0,0
83382,-125,4,2,1,50,0,0
83918,-125,4,2,1,55,0,0
90168,-125,4,2,1,65,0,0
90882,-111.111111111111,4,2,1,60,0,0
99632,-105.263157894737,4,2,1,65,0,0
106418,-105.263157894737,4,2,1,50,0,0

[Colours]
Combo1 : 255,226,125
Combo2 : 125,226,255
Combo3 : 255,202,228
Combo4 : 159,159,255

[HitObjects]
379,135,5347,5,2,0:0:0:0:
226,50,5704,1,2,0:0:0:0:
284,214,6061,1,8,3:0:0:0:
284,214,6150,1,4,3:0:0:0:
284,214,6239,2,0,L|338:228,2,31.2,12|8|12,3:0|0:0|0:0,0:0:0:0:
202,281,6597,6,0,P|146:277|86:349,1,156,6|0,1:2|0:0,0:0:0:0:
19,301,7132,1,2,0:0:0:0:
19,301,7311,2,0,P|28:257|41:223,1,62.4,2|0,0:0|0:0,0:0:0:0:
102,198,7668,1,2,0:0:0:0:
102,198,7847,1,2,0:0:0:0:
64,122,8025,6,0,P|107:159|186:159,1,124.8,6|0,0:0|0:0,0:0:0:0:
247,208,8561,1,2,0:0:0:0:
247,208,8739,2,0,P|259:248|265:287,1,62.4,2|0,0:0|0:0,0:0:0:0:
206,327,9097,1,2,0:0:0:0:
206,327,9275,1,2,0:0:0:0:
286,340,9454,6,0,B|350:335|332:392|424:383,1,124.8,6|0,0:0|0:0,0:0:0:0:
466,338,9989,1,2,0:0:0:0:
466,338,10168,2,0,P|473:307|470:260,1,62.4,2|0,0:0|0:0,0:0:0:0:
422,219,10525,1,2,0:0:0:0:
422,219,10704,1,2,0:0:0:0:
323,223,10882,6,0,B|289:242|289:242|250:210|183:224,1,124.8,6|0,0:0|0:0,0:0:0:0:
155,166,11418,1,2,0:0:0:0:
155,166,11596,2,0,P|149:131|149:85,1,62.4,2|0,0:0|1:0,0:0:0:0:
198,42,11954,1,0,1:0:0:0:
277,86,12132,1,8,0:2:0:0:
277,86,12221,1,8,0:2:0:0:
277,86,12311,6,0,B|352:78|343:137|430:132,1,140.399995715332,4|2,1:2|0:2,0:2:0:0:
475,188,12846,1,8,0:2:0:0:
475,188,13025,2,0,P|468:230|458:273,1,70.1999978576661,4|0,1:2|0:2,0:2:0:0:
399,313,13382,2,0,P|357:306|316:292,1,70.1999978576661,2|2,1:2|0:2,0:0:0:0:
237,353,13739,6,0,P|183:305|96:326,1,140.399995715332,14|2,0:2|1:2,0:2:0:0:
58,258,14275,1,2,1:2:0:0:
58,258,14454,2,0,P|50:223|46:174,1,70.1999978576661,14|0,0:2|0:0,0:2:0:0:
97,102,14811,1,2,1:2:0:0:
97,102,14989,1,10,0:2:0:0:
175,176,15168,1,6,1:2:0:0:
175,176,15585,6,0,P|226:178|265:211,2,104,0|0|8,1:2|1:2|3:0,0:0:0:0:
351,256,16299,6,0,P|401:245|453:239,2,104,8|4|4,3:0|3:0|1:2,0:0:0:0:
306,340,16954,5,0,1:2:0:0:
230,284,17132,1,8,0:2:0:0:
203,291,17221,1,8,0:2:0:0:
176,298,17311,1,12,0:2:0:0:
150,303,18204,6,0,B|116:269|139:212|139:212|173:223,1,124.8,6|2,1:2|1:2,0:2:0:0:
234,179,18739,2,0,P|248:142|244:112,1,62.4,2|0,0:2|1:2,0:2:0:0:
190,57,19096,1,2,0:2:0:0:
190,57,19275,1,2,1:2:0:0:
121,105,19454,1,2,0:2:0:0:
121,105,19543,1,2,0:2:0:0:
121,105,19632,6,0,P|77:115|-9:134,1,124.8,2|0,1:2|1:2,0:2:0:0:
82,204,20168,2,0,P|84:240|72:275,1,62.4,0|0,0:2|1:2,0:2:0:0:
15,317,20525,1,2,0:2:0:0:
81,363,20704,2,0,P|121:359|157:345,1,62.4,2|2,1:2|0:2,0:0:0:0:
231,275,21061,6,0,P|294:271|338:326,1,124.8,2|0,1:2|1:2,0:2:0:0:
392,368,21596,2,0,P|432:377|460:378,1,62.4,2|0,0:2|1:2,0:2:0:0:
502,312,21954,2,0,P|511:272|482:167,1,124.8,2|2,0:2|0:2,0:2:0:0:
417,170,22489,1,2,1:2:0:0:
360,117,22668,1,2,0:2:0:0:
360,117,22846,1,2,1:2:0:0:
299,170,23025,2,0,B|269:146|269:146|225:139|150:179,1,124.8,2|0,0:2|0:2,0:2:0:0:
131,223,23561,2,0,P|123:262|123:307,1,62.4,0|0,1:2|0:2,0:2:0:0:
205,350,23918,6,0,P|246:314|339:336,1,124.8,2|2,1:2|1:2,0:2:0:0:
378,268,24454,2,0,P|386:229|386:184,1,62.4,2|0,0:2|1:2,0:2:0:0:
328,158,24811,1,2,0:2:0:0:
328,158,24989,1,2,1:2:0:0:
393,108,25168,1,2,0:2:0:0:
393,108,25257,1,2,0:2:0:0:
393,108,25346,6,0,B|412:74|412:74|410:24|360:0,1,124.8,0|2,1:2|1:2,0:2:0:0:
292,33,25882,2,0,P|251:23|222:20,1,62.4,2|0,0:2|1:2,0:2:0:0:
170,75,26239,1,0,0:2:0:0:
218,140,26418,2,0,P|216:178|206:212,1,62.4,0|0,1:2|0:2,0:2:0:0:
287,277,26775,6,0,P|340:240|422:252,1,124.8,2|0,1:2|1:2,0:2:0:0:
455,298,27311,1,2,0:2:0:0:
502,232,27489,2,0,P|510:201|512:170,1,62.4,0|2,1:2|0:2,0:2:0:0:
445,124,27846,2,0,P|415:133|372:142,1,62.4,2|2,1:2|0:2,0:0:0:0:
314,98,28204,6,0,P|254:92|214:137,1,124.8,2|2,1:2|1:2,0:0:0:0:
206,219,28739,1,2,1:2:0:0:
320,333,29096,5,8,3:0:0:0:
320,333,29186,1,8,3:0:0:0:
320,333,29275,2,0,L|366:346,3,31.2,8|8|8|4,3:0|3:0|3:0|3:0,0:0:0:0:
390,319,29632,6,0,B|422:288|422:288|440:234|398:189,1,140.399995715332,6|10,1:2|0:2,0:2:0:0:
325,153,30168,2,0,P|270:154|226:78,1,140.399995715332,2|2,1:2|1:2,0:2:0:0:
171,23,30704,1,10,0:2:0:0:
105,71,30882,1,2,1:2:0:0:
105,71,30971,1,8,0:2:0:0:
105,71,31061,2,0,P|66:77|33:88,1,70.1999978576661,0|0,1:2|1:2,0:0:0:0:
4,164,31418,1,8,0:2:0:0:
61,225,31596,6,0,P|89:287|51:366,1,140.399995715332,0|0,1:2|1:2,0:2:0:0:
149,382,32132,1,10,0:2:0:0:
149,382,32311,1,2,0:2:0:0:
215,331,32489,2,0,P|274:329|366:363,1,140.399995715332,2|10,1:2|0:2,0:2:0:0:
423,311,33025,2,0,P|434:275|437:225,1,70.1999978576661,2|0,1:2|0:2,0:2:0:0:
372,188,33382,2,0,P|327:198|281:205,1,70.1999978576661,2|8,1:2|0:2,0:2:0:0:
240,145,33739,1,2,0:2:0:0:
240,145,33829,1,2,0:0:0:0:
240,145,33918,6,0,P|238:96|251:58,1,70.1999978576661,2|2,1:2|1:2,0:2:0:0:
316,33,34275,1,10,0:2:0:0:
383,83,34454,2,0,P|448:79|489:140,1,140.399995715332,2|0,1:2|1:2,0:0:0:0:
423,188,34989,2,0,P|419:222|426:257,1,70.1999978576661,8|0,0:2|1:2,0:2:0:0:
343,323,35346,6,0,B|299:334|299:334|274:362|274:362|219:377,1,140.399995715332,6|10,1:2|0:2,0:2:0:0:
149,328,35882,2,0,P|139:287|141:243,1,70.1999978576661,2|0,1:2|0:2,0:2:0:0:
208,199,36239,1,2,1:2:0:0:
208,199,36418,1,10,0:2:0:0:
134,128,36596,1,2,1:2:0:0:
134,128,36686,1,8,0:2:0:0:
134,128,36775,6,0,P|84:134|43:147,1,70.1999978576661,2|0,1:2|1:0,0:2:0:0:
4,85,37132,1,10,0:2:0:0:
57,19,37311,2,0,P|109:66|196:47,1,140.399995715332,2|0,1:2|1:2,0:2:0:0:
207,33,37757,1,0,1:2:0:0:
207,33,37846,2,0,P|247:43|291:49,1,70.1999978576661,8|0,0:2|1:2,0:2:0:0:
351,124,38204,6,0,P|350:158|342:199,1,70.1999978576661,2|2,1:2|0:2,0:0:0:0:
397,258,38561,1,10,0:2:0:0:
326,303,38739,2,0,P|271:260|192:275,1,140.399995715332,2|2,1:2|1:2,0:2:0:0:
145,327,39275,1,8,0:0:0:0:
67,259,39454,6,0,B|45:182|45:182|59:148|106:163,1,140.399995715332,2|0,1:2|1:2,0:2:0:0:
170,197,39989,1,8,0:2:0:0:
244,126,40168,1,0,1:2:0:0:
244,126,40257,1,0,1:2:0:0:
244,126,40346,2,0,L|251:78,3,35.099998928833,8|8|4|4,0:2|3:0|3:0|3:0,0:2:0:0:
289,68,40704,2,0,P|311:73|335:77,3,35.099998928833,8|8|4|12,1:3|3:0|3:0|3:0,0:0:0:0:
351,104,41061,6,0,P|391:72|482:100,1,124.8,6|0,1:2|0:2,0:2:0:0:
507,142,41596,1,2,1:2:0:0:
456,201,41775,2,0,P|448:235|446:277,1,62.4,10|2,0:2|1:2,0:2:0:0:
489,326,42132,1,2,0:2:0:0:
417,358,42311,6,0,P|371:325|300:342,1,124.8,2|2,1:2|1:2,0:2:0:0:
237,302,42846,2,0,P|203:313|164:320,1,62.4,2|0,0:2|1:0,0:2:0:0:
114,270,43204,2,0,P|104:239|108:195,1,62.4,2|0,1:2|0:2,0:2:0:0:
166,161,43561,1,10,0:2:0:0:
166,161,43918,6,0,B|235:157|216:209|296:201,1,124.8,2|0,1:2|0:2,0:2:0:0:
340,251,44454,1,2,1:2:0:0:
388,190,44632,2,0,P|392:158|379:113,1,62.4,10|2,0:2|1:2,0:2:0:0:
428,62,44989,1,2,0:2:0:0:
363,18,45168,6,0,P|318:60|235:42,1,124.8,2|2,1:2|1:2,0:2:0:0:
189,96,45704,2,0,P|151:89|120:79,1,62.4,2|0,0:2|1:0,0:2:0:0:
59,119,46061,2,0,P|50:148|45:179,1,62.4,2|0,1:2|1:2,0:2:0:0:
113,259,46418,1,8,0:2:0:0:
113,259,46507,1,8,0:2:0:0:
113,259,46596,1,0,1:2:0:0:
187,174,46775,6,0,B|218:151|218:151|267:144|321:206,1,140.399995715332,6|8,1:2|0:2,0:2:0:0:
378,146,47311,1,0,0:2:0:0:
422,221,47489,2,0,P|418:259|404:295,1,70.1999978576661,2|2,1:2|1:2,0:2:0:0:
452,360,47846,1,10,0:2:0:0:
344,381,48025,6,0,P|275:375|232:322,1,140.399995715332,2|2,1:2|1:2,0:2:0:0:
139,378,48561,2,0,P|101:366|61:348,1,70.1999978576661,10|0,0:2|1:2,0:2:0:0:
54,313,48829,1,8,0:2:0:0:
54,313,48918,2,0,P|66:269|79:242,1,70.1999978576661,0|2,1:2|1:2,0:2:0:0:
145,192,49275,2,0,P|135:149|119:107,1,70.1999978576661,10|0,0:2|0:2,0:2:0:0:
204,41,49632,6,0,P|260:37|326:113,1,140.399995715332,2|8,1:2|0:2,0:2:0:0:
408,85,50168,1,0,0:2:0:0:
432,168,50346,2,0,P|425:209|397:255,1,70.1999978576661,2|2,1:2|1:2,0:0:0:0:
462,307,50704,1,10,0:2:0:0:
356,338,50882,6,0,B|284:335|318:395|200:383,1,140.399995715332,6|0,1:2|1:2,0:2:0:0:
163,325,51418,2,0,P|151:289|149:238,1,70.1999978576661,0|0,1:2|1:2,0:0:0:0:
212,197,51775,1,0,1:2:0:0:
212,197,51954,1,0,1:2:0:0:
127,146,52132,2,0,P|89:150|45:166,1,70.1999978576661,0|0,1:2|1:2,0:0:0:0:
0,241,52489,1,4,1:2:0:0:
201,304,53025,5,8,0:2:0:0:
201,304,53114,1,8,0:2:0:0:
201,304,53204,5,14,0:2:0:0:
100,366,53382,1,6,1:2:0:0:
100,366,53739,6,0,B|73:270|73:270|90:244|122:253,1,156,6|2,1:2|1:2,0:2:0:0:
204,198,54275,2,0,P|246:210|298:218,1,78,10|2,0:2|1:2,0:2:0:0:
318,249,54543,1,8,0:2:0:0:
318,249,54632,2,0,P|360:237|412:229,1,78,2|2,1:2|1:2,0:0:0:0:
456,151,54989,1,10,0:2:0:0:
389,74,55168,6,0,B|351:46|351:46|283:43|235:116,1,156,6|2,1:2|1:2,0:2:0:0:
172,30,55704,2,0,P|137:42|84:50,1,78,10|0,0:2|1:2,0:2:0:0:
27,123,56061,1,0,1:2:0:0:
110,179,56239,2,0,P|122:220|119:268,1,78,2|10,1:2|0:2,0:0:0:0:
55,353,56596,6,0,P|97:304|202:326,1,156,6|2,1:2|1:2,0:2:0:0:
266,251,57132,2,0,P|299:262|365:296,1,78,10|2,2:2|1:2,2:2:0:0:
382,254,57400,1,8,0:2:0:0:
382,254,57489,2,0,P|404:217|399:178,1,78,2|2,1:2|1:2,0:0:0:0:
327,113,57846,1,10,0:2:0:0:
400,42,58025,6,0,P|467:45|505:117,1,156,6|2,1:2|1:2,0:2:0:0:
401,183,58561,2,0,P|363:191|324:196,1,78,10|0,0:2|1:2,0:2:0:0:
286,231,58829,1,8,0:2:0:0:
286,231,58918,1,0,1:2:0:0:
211,162,59096,2,0,L|196:105,3,39,0|0|0|0,1:2|1:0|1:2|1:0,0:0:0:0:
162,89,59454,6,0,B|91:82|99:142|10:129,1,156,6|0,1:2|1:2,0:2:0:0:
65,218,59989,2,0,P|59:253|44:311,1,78,10|0,0:2|1:2,0:2:0:0:
84,338,60257,1,8,0:2:0:0:
84,338,60346,2,0,P|127:352|184:360,1,78,2|0,1:2|1:2,0:2:0:0:
218,274,60704,2,0,P|252:240|324:248,1,117,10|0,0:2|0:2,0:2:0:0:
352,280,61061,6,0,P|387:295|448:309,1,78,6|0,1:2|1:2,0:2:0:0:
490,227,61418,2,0,P|505:196|511:133,1,78,10|0,0:2|1:2,0:2:0:0:
439,82,61775,1,2,1:2:0:0:
439,82,61954,1,2,1:2:0:0:
359,144,62132,1,10,0:2:0:0:
275,58,62311,6,0,B|237:25|198:39|198:39|174:80|115:79,1,156,6|2,1:2|1:2,0:2:0:0:
80,159,62846,2,0,P|69:194|67:255,1,78,8|0,0:2|1:2,0:2:0:0:
105,266,63114,1,8,0:2:0:0:
105,266,63204,1,0,1:2:0:0:
176,336,63382,2,0,P|214:345|270:352,1,78,0|8,1:2|0:2,0:0:0:0:
337,271,63739,6,0,P|413:282|463:219,1,156,4|0,1:2|1:2,0:2:0:0:
487,183,64186,1,2,0:0:0:0:
487,183,64275,1,8,0:2:0:0:
413,112,64454,1,0,1:2:0:0:
413,112,64543,1,8,0:2:0:0:
413,112,64632,5,14,0:2:0:0:
330,171,64811,1,6,1:2:0:0:
330,171,65168,6,0,B|279:195|279:195|236:153|162:164,1,156,6|2,1:2|1:2,0:2:0:0:
107,225,65704,2,0,P|93:261|91:310,1,78,10|2,0:2|1:2,0:2:0:0:
125,335,65971,1,8,0:2:0:0:
125,335,66061,1,2,1:2:0:0:
207,276,66239,1,2,1:2:0:0:
207,276,66418,1,10,0:2:0:0:
289,359,66596,6,0,B|338:381|338:381|389:371|430:325,1,156,6|2,1:2|1:2,0:2:0:0:
462,298,67043,1,0,1:2:0:0:
462,298,67132,2,0,P|471:273|474:218,1,78,10|0,0:2|1:2,0:2:0:0:
439,192,67400,1,8,0:2:0:0:
439,192,67489,1,0,1:2:0:0:
350,242,67668,1,2,1:2:0:0:
350,242,67846,1,10,0:2:0:0:
262,157,68025,6,0,B|209:134|209:134|161:131|107:195,1,156,6|2,1:2|1:2,0:2:0:0:
45,112,68561,2,0,P|47:73|59:22,1,78,10|2,0:2|1:2,0:2:0:0:
101,13,68829,1,8,0:2:0:0:
101,13,68918,1,2,1:2:0:0:
175,81,69096,1,2,1:2:0:0:
175,81,69186,1,0,1:2:0:0:
175,81,69275,1,10,0:2:0:0:
281,14,69454,6,0,B|339:0|339:0|380:24|380:24|445:8,1,156,6|2,1:2|1:2,0:2:0:0:
500,81,69989,2,0,P|503:115|483:177,1,78,10|0,0:2|1:2,0:2:0:0:
450,182,70257,1,8,0:2:0:0:
450,182,70346,1,0,1:2:0:0:
367,129,70525,2,0,L|315:140,3,39,8|8|4|12,3:0|3:0|3:0|3:0,0:0:0:0:
287,164,70882,6,0,P|225:117|132:156,1,156,6|0,1:2|1:2,0:2:0:0:
89,212,71418,2,0,P|93:254|111:304,1,78,10|0,0:2|1:2,0:2:0:0:
143,319,71686,1,8,0:2:0:0:
143,319,71775,2,0,P|181:332|241:335,1,78,2|0,1:2|1:2,0:2:0:0:
292,266,72132,2,0,P|338:228|412:257,1,117,10|8,0:2|0:2,0:2:0:0:
435,211,72489,6,0,P|446:168|455:111,1,78,6|0,1:2|1:2,0:2:0:0:
379,80,72846,1,8,0:2:0:0:
379,80,72935,1,8,0:2:0:0:
379,80,73025,1,0,1:2:0:0:
265,116,73204,5,14,0:2:0:0:
189,32,73382,1,6,1:2:0:0:
189,32,73739,6,0,P|119:31|64:118,1,156,6|0,1:2|1:2,0:2:0:0:
75,193,74275,2,0,P|91:239|105:289,1,78,10|0,0:2|1:2,0:2:0:0:
142,299,74543,1,8,0:2:0:0:
142,299,74632,2,0,P|187:314|225:317,1,78,2|2,1:2|1:2,0:0:0:0:
282,238,74989,1,8,0:2:0:0:
351,337,75168,6,0,B|398:368|398:368|447:375|511:315,1,156,6|0,1:2|1:2,0:2:0:0:
420,254,75704,2,0,P|426:224|442:168,1,78,0|0,1:2|1:2,0:0:0:0:
362,114,76061,1,0,1:2:0:0:
275,166,76239,1,0,1:2:0:0:
220,66,76418,1,0,1:2:0:0:
157,156,76596,1,12,0:2:0:0:
281,95,78204,5,2,0:2:0:0:
349,226,83382,5,0,1:2:0:0:
349,226,83471,1,0,1:2:0:0:
349,226,83561,2,0,P|358:189|358:139,1,62.4,8|0,0:2|0:2,0:2:0:0:
281,95,83918,6,0,P|217:91|172:144,1,124.8,6|0,1:2|1:2,0:2:0:0:
187,208,84454,2,0,P|179:243|160:283,1,62.4,2|0,0:2|1:2,0:2:0:0:
95,294,84811,1,2,0:2:0:0:
149,360,84989,1,2,1:2:0:0:
149,360,85168,6,0,P|173:329|264:337,1,124.8,2|2,0:2|0:2,0:2:0:0:
337,324,85704,1,2,1:2:0:0:
337,324,85882,2,0,P|362:334|410:341,1,62.4,2|0,0:2|1:0,0:2:0:0:
475,320,86239,1,2,0:2:0:0:
475,320,86418,1,2,1:2:0:0:
423,256,86596,1,2,0:2:0:0:
423,256,86775,6,0,B|417:189|461:209|445:126,1,124.8,2|2,1:2|1:2,0:2:0:0:
372,104,87311,2,0,P|340:113|287:117,1,62.4,2|0,0:2|1:0,0:2:0:0:
261,59,87668,1,2,0:2:0:0:
261,59,87846,1,2,1:2:0:0:
206,119,88025,6,0,P|178:170|203:246,1,124.8,2|2,0:2|0:2,0:2:0:0:
255,283,88561,2,0,P|258:316|253:348,1,62.4,2|2,1:2|0:2,0:0:0:0:
181,382,88918,2,0,P|140:374|97:362,1,62.4,2|0,1:2|1:2,0:2:0:0:
69,312,89275,1,8,0:2:0:0:
69,312,89454,6,0,P|51:248|50:179,1,124.8,2|0,1:2|1:2,0:2:0:0:
97,128,89989,1,8,3:0:0:0:
172,191,90168,1,12,3:0:0:0:
172,191,90257,1,8,3:2:0:0:
172,191,90346,5,14,0:2:0:0:
247,104,90525,1,6,1:2:0:0:
247,104,90882,6,0,B|318:95|301:152|380:149,1,140.399995715332,6|0,1:2|0:2,0:2:0:0:
412,123,91329,1,2,0:0:0:0:
412,123,91418,1,10,0:2:0:0:
488,217,91596,2,0,P|487:289|458:357,1,140.399995715332,6|8,1:2|3:0,0:2:0:0:
382,384,92132,1,2,0:2:0:0:
286,336,92311,6,0,B|241:345|241:345|211:372|211:372|137:389,1,140.399995715332,14|2,0:2|1:2,0:2:0:0:
86,330,92846,1,2,1:2:0:0:
158,251,93025,2,0,B|197:213|175:161|175:161|123:134,1,140.399995715332,14|2,0:2|1:2,0:2:0:0:
60,79,93561,1,10,0:2:0:0:
152,0,93739,6,0,B|188:30|188:30|238:41|302:1,1,140.399995715332,6|2,1:2|0:2,0:2:0:0:
317,38,94186,1,2,0:2:0:0:
317,38,94275,1,10,0:2:0:0:
415,92,94454,2,0,P|435:148|387:234,1,140.399995715332,6|2,1:2|1:2,0:2:0:0:
477,296,94989,1,2,0:2:0:0:
368,358,95168,6,0,B|277:330|277:330|270:302|299:282,1,140.399995715332,14|2,0:2|1:2,0:2:0:0:
355,224,95704,1,2,1:2:0:0:
253,168,95882,2,0,B|222:144|187:154|187:154|168:192|112:194,1,140.399995715332,14|0,0:2|1:2,0:2:0:0:
36,139,96418,1,8,0:2:0:0:
36,139,96507,1,8,0:2:0:0:
36,139,96596,6,0,P|14:82|63:13,1,140.399995715332,4|2,1:2|0:2,0:2:0:0:
96,6,97043,1,2,0:2:0:0:
96,6,97132,1,10,0:2:0:0:
189,70,97311,2,0,B|230:42|268:48|268:48|284:83|329:91,1,140.399995715332,6|8,1:2|3:0,0:2:0:0:
400,52,97846,1,2,0:2:0:0:
478,136,98025,6,0,P|444:182|451:280,1,140.399995715332,14|2,0:2|1:2,0:2:0:0:
478,290,98471,1,2,0:2:0:0:
478,290,98561,1,2,1:2:0:0:
379,367,98739,2,0,B|332:354|332:354|307:321|307:321|243:305,1,140.399995715332,14|2,0:2|1:2,0:2:0:0:
167,306,99275,1,2,1:2:0:0:
167,306,99364,1,8,0:0:0:0:
167,306,99454,1,2,1:2:0:0:
122,211,99632,6,0,P|129:169|141:122,1,74.0999980213166,6|2,1:2|1:2,0:0:0:0:
198,76,99989,1,10,0:2:0:0:
281,143,100168,2,0,P|334:137|406:212,1,148.199996042633,6|2,1:2|1:2,0:2:0:0:
451,269,100704,2,0,P|437:305|417:340,1,74.0999980213166,10|2,0:2|1:2,0:2:0:0:
387,365,100971,1,8,0:2:0:0:
387,365,101061,6,0,P|345:351|309:328,1,74.0999980213166,4|2,1:2|1:2,0:0:0:0:
262,267,101418,1,10,0:2:0:0:
176,348,101596,2,0,B|134:318|134:318|88:310|28:360,1,148.199996042633,6|2,1:2|1:2,0:2:0:0:
9,257,102132,2,0,L|20:208,3,37.0499990106583,10|0|2|8,1:2|1:2|1:2|0:2,0:0:0:0:
61,194,102489,6,0,P|87:132|54:56,1,148.199996042633,6|8,1:2|0:2,0:2:0:0:
132,10,103025,1,0,1:2:0:0:
132,10,103114,1,8,0:2:0:0:
132,10,103204,2,0,P|173:24|224:31,1,74.0999980213166,0|2,1:2|1:2,0:0:0:0:
258,99,103561,2,0,L|246:147,3,37.0499990106583,8|8|4|12,3:0|3:0|3:0|3:0,0:0:0:0:
283,174,103918,6,0,L|327:185,3,37.0499990106583,6|2|2|2,1:2|0:2|0:2|0:2,0:2:0:0:
351,213,104275,2,0,L|339:266,3,37.0499990106583,2|2|2|2,1:2|0:2|0:2|0:2,0:2:0:0:
303,270,104632,2,0,L|267:261,3,37.0499990106583,2|2|2|2,1:2|0:2|0:2|0:2,0:2:0:0:
224,275,104989,2,0,L|210:327,3,37.0499990106583,2|2|2|2,1:2|0:2|0:2|0:2,0:0:0:0:
173,329,105346,6,0,L|124:315,3,37.0499990106583,2|2|2|2,1:2|0:2|0:2|0:2,0:0:0:0:
119,277,105704,2,0,L|133:225,3,37.0499990106583,2|2|2|2,1:2|0:2|0:2|0:2,0:2:0:0:
104,203,106061,2,0,L|68:192,3,37.0499990106583,2|2|10|10,1:2|1:2|0:0|0:0,0:2:0:0:
19,211,106418,5,14,0:2:0:0:
123,104,106596,1,6,1:2:0:0:
256,192,106954,12,0,109275,0:0:0:0:
256,192,109692,6,0,L|246:222,2,24.6999993404389,8|4|12,3:0|3:0|3:0,0:2:0:0:
