osu file format v14

[General]
AudioFilename: audio.mp3
AudioLeadIn: 0
PreviewTime: 87292
Countdown: 0
SampleSet: Soft
StackLeniency: 0.7
Mode: 0
LetterboxInBreaks: 0
WidescreenStoryboard: 0

[Editor]
Bookmarks: 24045,89115,115139,118031,149822,171509,194641,223557,245244,274160,288617,294400,305967,311388
DistanceSpacing: 0.7
BeatDivisor: 3
GridSize: 4
TimelineZoom: 1.3

[Metadata]
Title:Kesshou
TitleUnicode:結晶
Artist:Ito Kanako
ArtistUnicode:いとうかなこ
Creator:Kalibe
Version:Insane
Source:天使ノ二挺拳銃 Angelos Armas
Tags:nitro+ nitroplus crystal yamasaki hideaki Tenshi no Nichou Kenjuu ending theme japanese rock jrock
BeatmapID:2962793
BeatmapSetID:1440026

[Difficulty]
HPDrainRate:6
CircleSize:4
OverallDifficulty:7
ApproachRate:8
SliderMultiplier:1.7
SliderTickRate:1

[Events]
//Background and Video events
0,0,"angel.jpg",0,0
//Break Periods
2,223757,234373
//Storyboard Layer 0 (Background)
//Storyboard Layer 1 (Fail)
//Storyboard Layer 2 (Pass)
//Storyboard Layer 3 (Foreground)
//Storyboard Layer 4 (Overlay)
//Storyboard Sound Samples

[TimingPoints]
907,361.44578313253,4,2,1,30,1,0
907,-200,4,2,1,30,0,0
6690,-125,4,2,1,50,0,0
7051,-200,4,2,1,30,0,0
12473,-142.857142857143,4,2,1,40,0,0
12834,-200,4,2,1,30,0,0
18256,-125,4,2,1,50,0,0
18617,-200,4,2,1,30,0,0
24039,-153.846153846154,4,2,1,35,0,0
29822,-133.333333333334,4,2,1,35,0,0
32714,-181.818181818182,4,2,1,35,0,0
35244,-133.333333333334,4,2,1,35,0,0
36328,-153.846153846154,4,2,1,35,0,0
67413,-133.333333333333,4,2,1,40,0,0
73196,-117.647058823529,4,2,1,45,0,0
81870,-105.263157894737,4,2,1,50,0,0
87653,-222.222222222221,4,2,1,30,0,0
87744,-222.222222222221,4,3,1,70,0,0
88738,-222.222222222221,4,2,1,15,0,0
89099,-83.3333333333333,4,2,1,60,0,1
89190,-83.3333333333333,4,2,1,60,0,0
89461,-100,4,2,1,60,0,0
98497,-83.3333333333333,4,2,1,60,0,0
98858,-71.4285714285714,4,2,1,60,0,0
99220,-100,4,2,1,60,0,0
100666,-90.9090909090909,4,2,1,60,0,0
118015,-100,4,2,1,55,0,0
129581,-111.111111111111,4,2,1,55,0,0
141147,-106.382978723404,4,2,1,55,0,0
159129,-106.382978723404,4,2,1,5,0,0
159220,-95.2380952380952,4,2,1,55,0,0
159491,-95.2380952380952,4,2,1,5,0,0
159581,-83.3333333333333,4,2,1,55,0,0
159852,-83.3333333333333,4,2,1,5,0,0
159943,-100,4,2,1,40,0,0
168617,-100,4,2,1,30,0,0
169340,-90.9090909090909,4,2,1,50,0,0
170063,-66.6666666666667,4,2,1,70,0,0
170696,-66.6666666666667,4,2,1,30,0,0
171419,-66.6666666666667,4,2,1,15,0,0
171509,-90.9090909090909,4,2,1,60,0,1
171599,-90.9090909090909,4,2,1,60,0,0
180906,-83.3333333333333,4,2,1,60,0,0
181268,-74.0740740740741,4,2,1,60,0,0
181629,-90.9090909090909,4,2,1,60,0,0
183075,-80,4,2,1,60,0,0
183437,-90.9090909090909,4,2,1,60,0,0
194641,-83.3333333333333,4,2,1,60,0,0
211991,-76.9230769230769,4,2,1,65,0,0
223196,-111.111111111111,4,2,1,50,0,0
223241,-111.111111111111,4,3,1,70,0,0
223557,-166.666666666666,4,2,1,30,0,0
241991,-166.666666666666,4,2,1,35,0,0
242352,-166.666666666666,4,2,1,40,0,0
242714,-100,4,2,1,50,0,0
242759,-100,4,3,1,70,0,0
242985,-100,4,2,1,5,0,0
243075,-83.3333333333333,4,2,1,60,0,0
243120,-83.3333333333333,4,3,1,70,0,0
243346,-83.3333333333333,4,2,1,5,0,0
243437,-133.333333333333,4,2,1,50,0,0
243482,-133.333333333333,4,3,1,70,0,0
243798,-133.333333333333,4,2,1,25,0,0
245244,-86.9565217391303,4,2,1,70,0,1
245334,-86.9565217391303,4,2,1,70,0,1
254641,-80,4,2,1,70,0,1
255003,-71.4285714285714,4,2,1,70,0,1
255364,-86.9565217391303,4,2,1,70,0,0
256810,-86.9565217391303,4,2,1,70,0,1
268376,-86.9565217391303,4,2,1,70,0,0
274160,-95.2380952380952,4,2,1,60,0,0
288617,-111.111111111111,4,2,1,50,0,0
290063,-99.9999999999999,4,2,1,55,0,0
297292,-90.9090909090909,4,2,1,60,0,0
305967,-83.3333333333333,4,2,1,65,0,0
311388,-133.333333333333,4,2,1,50,0,0
313196,-133.333333333333,4,1,1,40,0,0
314641,-133.333333333333,4,3,1,35,0,0
316087,-133.333333333333,4,2,1,30,0,0
317533,-133.333333333333,4,1,1,25,0,0
318979,-133.333333333333,4,3,1,20,0,0
319702,-133.333333333333,4,2,1,15,0,0
320425,-133.333333333333,4,1,1,10,0,0

[Colours]
Combo1 : 147,83,217
Combo2 : 191,182,203
Combo3 : 205,206,200
Combo4 : 151,114,175
Combo5 : 174,123,156
Combo6 : 223,111,162

[HitObjects]
214,51,907,5,2,3:0:0:0:
214,51,1629,2,0,L|196:148,2,85
294,34,2714,1,0,0:0:0:0:
371,69,3075,1,0,0:0:0:0:
450,45,3437,1,0,0:0:0:0:
387,142,3798,5,0,0:0:0:0:
387,142,4160,1,0,0:0:0:0:
356,203,4521,1,0,0:0:0:0:
343,279,4882,1,0,0:0:0:0:
409,320,5244,2,0,B|423:291|427:271|425:224,1,85,2|0,0:0|0:0,0:0:0:0:
279,215,5967,2,0,B|265:244|261:264|263:311,1,85,2|0,0:0|0:0,0:0:0:0:
121,287,6690,6,0,B|121:352|121:352|181:304,1,136,2|0,3:1|0:0,3:0:0:0:
134,201,7413,54,0,L|37:215,1,85,2|0,0:0|0:0,0:0:0:0:
49,213,8135,1,0,0:0:0:0:
20,136,8497,1,0,0:0:0:0:
96,92,8858,1,0,0:0:0:0:
61,17,9220,1,0,0:0:0:0:
174,0,9581,2,0,L|276:20,1,85,2|0,0:0|0:0,0:0:0:0:
320,48,10304,2,0,L|424:37,1,85,2|0,0:0|0:0,0:0:0:0:
468,85,11027,2,0,B|453:148|388:175|336:122,1,170,2|0,0:0|0:0,0:0:0:0:
189,215,12111,1,0,3:0:0:0:
336,240,12473,6,0,L|477:223,1,118.999996368408,2|0,3:0|0:0,3:0:0:0:
454,225,13196,2,0,B|454:263|456:280|474:319,1,85,2|0,0:0|0:0,0:0:0:0:
388,360,13919,1,0,0:0:0:0:
388,360,14280,1,0,0:0:0:0:
295,335,14641,1,0,0:0:0:0:
295,335,15003,1,0,0:0:0:0:
177,365,15364,1,0,0:0:0:0:
145,340,16087,2,0,B|157:308|159:291|157:245,1,85,2|0,0:0|0:0,0:0:0:0:
183,180,16810,2,0,B|136:137|59:155|38:220,1,170,2|0,0:0|0:0,0:0:0:0:
71,366,17894,1,0,3:0:0:0:
240,265,18256,6,0,B|305:241|305:241|272:301,1,136,2|0,3:1|0:0,3:0:0:0:
272,299,18979,54,0,B|316:304|353:331|353:331,1,85,2|0,0:0|0:0,0:0:0:0:
400,244,19702,2,0,B|373:208|371:160|371:160,1,85,2|0,0:0|0:0,0:0:0:0:
274,177,20425,2,0,B|250:215|206:242|206:242,1,85,2|0,0:0|0:0,0:0:0:0:
60,291,21147,5,2,0:0:0:0:
123,199,21509,1,0,0:0:0:0:
28,222,21870,1,0,0:0:0:0:
132,275,22232,1,0,0:0:0:0:
308,190,22593,69,2,0:0:0:0:
252,315,22955,1,0,0:0:0:0:
375,210,23316,1,0,0:0:0:0:
206,261,23678,1,8,3:0:0:0:
337,334,24039,2,0,B|381:374|457:354|469:291,1,165.749992412568,2|0,3:0|0:0,0:0:0:0:
468,293,24762,1,2,0:0:0:0:
456,170,25123,22,0,B|441:144|435:108|435:108,1,55.2499974708558
437,118,25485,2,0,B|443:165|434:192|403:226,2,110.499994941712,2|0|2,3:2|0:0|3:2,0:0:0:0:
333,155,26569,2,0,B|297:226|215:251|146:183,1,220.999989883423,2|0,0:0|0:0,0:0:0:0:
48,97,27653,1,2,0:2:0:0:
137,73,28015,1,0,0:0:0:0:
225,99,28376,2,0,P|243:80|264:45,2,55.2499974708558,0|0|0,3:0|0:0|0:0,0:0:0:0:
300,171,29099,1,2,0:0:0:0:
412,215,29461,1,0,3:0:0:0:
412,215,29641,1,0,3:0:0:0:
501,273,29822,54,0,B|483:289|465:295|430:290,1,63.7500024318696,2|0,3:0|0:0,0:0:0:0:
357,364,30184,2,0,B|374:316|364:278|321:246,2,127.500004863739,2|0|0,0:0|3:0|0:0,0:0:0:0:
257,292,31268,1,2,0:0:0:0:
241,374,31629,1,0,0:0:0:0:
135,310,31991,1,0,0:0:0:0:
157,228,32352,1,0,0:0:0:0:
38,173,32714,2,0,L|51:368,2,187.000005706787
38,173,34882,1,0,0:0:0:0:
254,96,35244,21,0,3:0:0:0:
254,96,35605,2,0,B|316:145|267:237|185:208,1,191.250007295609,2|0,3:0|0:0,0:0:0:0:
189,209,36328,1,2,0:0:0:0:
310,255,36690,2,0,L|288:375,2,110.499994941712
418,181,37774,1,0,0:0:0:0:
492,93,38135,54,0,B|420:71|344:75|276:107,1,220.999989883423,2|0,0:0|0:0,0:0:0:0:
276,106,39220,1,0,0:0:0:0:
185,172,39581,1,0,0:0:0:0:
69,121,39943,2,0,B|86:74|92:11|92:11,2,110.499994941712,2|0|0,0:0|0:0|0:0,0:0:0:0:
8,228,41027,1,0,0:0:0:0:
8,228,41208,1,0,0:0:0:0:
8,228,41388,2,0,B|49:228|73:218|110:187,1,110.499994941712,2|0,0:3|0:0,0:0:0:0:
173,272,42111,1,0,0:0:0:0:
236,218,42473,2,0,P|405:204|468:355,1,331.499984825135,2|0,0:0|0:0,0:0:0:0:
439,357,44280,21,2,0:0:0:0:
353,297,44641,1,0,0:0:0:0:
240,331,45003,1,2,0:0:0:0:
311,234,45364,1,0,0:0:0:0:
193,141,45726,1,2,0:0:0:0:
241,259,46087,1,0,0:0:0:0:
77,178,46449,1,2,0:0:0:0:
68,251,46629,1,0,1:0:0:0:
138,223,46810,1,0,3:0:0:0:
328,325,47172,54,0,L|101:346,1,220.999989883423,2|2,3:0|0:0,0:0:0:0:
35,235,48256,2,0,L|89:251,2,55.2499974708558,0|0|2,0:0|0:0|0:2,0:0:0:0:
134,179,48979,1,0,0:0:0:0:
174,300,49340,1,0,0:0:0:0:
258,235,49702,2,0,P|247:138|274:8,1,220.999989883423
270,17,51147,1,0,0:0:0:0:
341,58,51509,38,0,L|418:46,1,55.2499974708558,2|0,3:2|0:0,0:0:0:0:
470,20,51870,2,0,B|468:72|481:132|481:132,1,110.499994941712
380,234,52593,1,0,1:0:0:0:
442,271,52774,1,0,3:0:0:0:
377,316,52955,2,0,B|338:311|306:323|271:355,2,110.499994941712,2|0|0,3:0|0:0|0:0,0:0:0:0:
255,242,54039,2,0,B|189:285|98:257|80:169,1,220.999989883423,0|2,0:0|0:0,0:0:0:0:
115,101,55123,1,0,0:0:0:0:
187,78,55485,2,0,P|187:302|-1:323,1,441.999979766847
9,328,57111,1,0,0:0:0:0:
9,328,57292,37,2,0:0:0:0:
83,266,57653,1,0,0:0:0:0:
168,304,58015,1,0,0:0:0:0:
97,370,58376,1,0,3:0:0:0:
155,214,58738,38,0,P|150:168|160:37,1,165.749992412568,2|0,1:2|0:0,0:0:0:0:
157,49,59461,1,2,0:0:0:0:
257,142,59822,2,0,L|325:131,1,55.2499974708558,2|0,0:0|0:0,0:0:0:0:
371,172,60184,1,0,0:0:0:0:
244,301,60545,1,0,0:0:0:0:
142,157,60906,1,0,0:0:0:0:
253,216,61268,2,0,B|234:298|146:329|78:258,1,220.999989883423,2|0,0:0|0:0,0:0:0:0:
32,201,62352,2,0,L|59:135,2,55.2499974708558,2|0|0,1:2|0:0|0:0,0:0:0:0:
97,362,63075,37,2,0:0:0:0:
228,313,63437,1,0,0:0:0:0:
315,174,63798,37,2,0:0:0:0:
446,127,64160,1,0,1:0:0:0:
479,239,64521,38,0,P|454:229|421:206,1,55.2499974708558,2|0,1:2|0:0,0:0:0:0:
404,284,64882,2,0,P|369:277|295:240,1,110.499994941712,0|2,0:0|1:2,0:0:0:0:
129,347,65605,2,0,P|202:260|171:155,1,220.999989883423
109,112,66509,1,0,3:0:0:0:
69,211,66690,1,2,1:2:0:0:
69,211,67051,1,0,1:0:0:0:
258,347,67413,38,0,B|243:308|239:268|254:218,2,127.500004863739,6|2|0,3:2|1:2|0:0,0:0:0:0:
327,170,68497,1,0,3:0:0:0:
478,296,68858,2,0,B|491:271|492:258|485:219,1,63.7500024318696,0|0,3:0|1:0,0:0:0:0:
413,253,69220,2,0,B|395:299|356:307|335:367,1,127.500004863739,0|2,0:0|0:0,0:0:0:0:
259,309,69762,1,0,1:0:0:0:
186,362,69943,2,0,L|33:346,1,127.500004863739,8|4,3:0|3:0,0:0:0:0:
59,348,70666,37,2,0:0:0:0:
195,280,71027,1,2,0:0:0:0:
351,349,71388,1,0,3:0:0:0:
452,197,71750,1,0,1:0:0:0:
442,274,71931,1,0,3:0:0:0:
379,230,72111,1,2,1:2:0:0:
347,207,72473,38,0,P|316:216|272:225,1,63.7500024318696,2|0,3:0|0:0,0:0:0:0:
208,202,72834,2,0,P|217:170|224:127,1,63.7500024318696,8|0,3:0|0:0,0:0:0:0:
156,63,73196,2,0,B|117:99|80:111|13:99,1,144.500002756119,4|0,1:2|3:0,0:0:0:0:
132,234,73919,1,2,0:0:0:0:
73,280,74280,1,2,1:2:0:0:
9,238,74641,1,0,3:0:0:0:
164,298,75003,1,2,1:2:0:0:
203,357,75184,1,0,1:0:0:0:
264,320,75364,1,4,3:0:0:0:
414,233,75726,38,0,P|445:244|495:250,1,72.2500013780594,0|0,3:0|1:0,0:0:0:0:
483,249,76087,2,0,B|435:277|405:284|330:275,1,144.500002756119,2|2,3:0|0:0,0:0:0:0:
247,203,76810,1,2,0:0:0:0:
178,94,77172,2,0,B|130:66|100:59|25:68,1,144.500002756119,2|2,3:2|3:2,0:0:0:0:
9,135,77714,1,0,3:0:0:0:
78,161,77894,1,2,1:2:0:0:
200,188,78256,1,0,1:0:0:0:
270,159,78437,1,0,1:0:0:0:
342,181,78617,1,4,3:0:0:0:
474,252,78979,38,0,P|471:204|467:6,1,216.750004134178,6|0,3:2|0:0,0:0:0:0:
466,35,79702,1,2,0:0:0:0:
350,74,80063,1,0,1:0:0:0:
243,1,80425,1,0,3:0:0:0:
167,48,80786,1,0,0:0:0:0:
198,67,80967,1,0,0:0:0:0:
224,85,81147,1,2,0:0:0:0:
108,54,81509,1,0,3:0:0:0:
86,121,81690,1,0,1:0:0:0:
57,191,81870,1,0,3:0:0:0:
119,237,82232,38,0,P|134:200|148:148,1,80.7499978437424,2|0,0:0|0:0,0:0:0:0:
204,280,82593,2,0,P|215:242|225:187,1,80.7499978437424,0|0,1:0|0:0,0:0:0:0:
308,277,82955,2,0,P|308:235|299:173,1,80.7499978437424,2|0,3:2|0:0,0:0:0:0:
366,149,83316,1,0,1:0:0:0:
398,233,83497,1,0,3:0:0:0:
398,233,83678,1,0,3:0:0:0:
250,135,84039,1,4,3:0:0:0:
106,307,84400,1,8,3:0:0:0:
106,307,84581,1,0,1:0:0:0:
191,334,84762,38,0,L|353:365,2,161.499995687485,4|0|2,3:2|0:0|1:2,0:0:0:0:
49,245,85846,1,0,3:0:0:0:
191,229,86208,2,0,P|232:220|279:197,1,80.7499978437424,8|0,1:3|0:0,0:0:0:0:
267,204,86569,2,0,P|251:173|235:103,1,80.7499978437424,0|0,3:0|0:0,0:0:0:0:
308,114,86931,2,0,P|330:102|381:59,1,80.7499978437424,4|0,3:0|0:0,0:0:0:0:
260,47,87292,2,0,P|239:42|171:8,1,80.7499978437424,6|0,3:0|0:0,0:0:0:0:
394,156,87653,54,0,P|386:282|480:298,1,229.499992996216,2|0,0:1|0:0,0:0:0:0:
284,357,89099,6,0,P|240:363|199:298,1,101.999996887207,4|0,1:0|0:0,0:0:0:0:
159,120,89461,2,0,P|146:155|144:236,1,85,4|0,3:0|0:0,0:0:0:0:
61,112,89822,2,0,P|50:157|59:282,1,170,8|0,1:0|0:0,0:0:0:0:
74,356,90364,1,8,1:0:0:0:
184,341,90545,1,10,0:0:0:0:
288,366,90726,1,8,1:0:0:0:
400,345,90906,1,0,1:0:0:0:
400,345,91268,2,0,P|420:315|441:259,1,85,8|0,1:0|0:0,0:0:0:0:
296,278,91629,2,0,P|307:253|316:188,1,85,4|0,3:0|0:0,0:0:0:0:
132,232,91991,6,0,P|91:223|43:190,1,85,6|0,1:0|0:0,0:0:0:0:
219,130,92352,2,0,P|135:121|64:76,2,170,0|8|4,3:0|1:0|3:0,0:0:0:0:
80,306,93256,1,8,1:0:0:0:
210,225,93437,2,0,P|222:257|236:320,1,85,0|8,0:0|1:0,0:0:0:0:
337,278,93798,2,0,P|325:308|291:355,1,85,2|0,1:2|0:0,0:0:0:0:
484,240,94160,1,8,1:0:0:0:
484,240,94340,1,0,1:0:0:0:
374,177,94521,2,0,P|334:164|284:126,1,85,4|0,3:0|0:0,0:0:0:0:
343,0,94882,70,0,P|342:64|437:95,1,170,4|0,1:0|3:0,0:0:0:0:
331,244,95425,1,0,0:0:0:0:
236,174,95605,2,0,P|272:160|328:152,1,85,8|0,1:0|0:0,0:0:0:0:
408,209,95967,1,0,3:0:0:0:
287,358,96147,1,8,1:0:0:0:
159,214,96328,1,2,1:2:0:0:
297,263,96509,1,8,1:0:0:0:
207,313,96690,2,0,P|169:333|107:341,1,85,0|0,3:0|0:0,0:0:0:0:
272,182,97051,2,0,P|205:137|217:37,1,170,10|0,1:0|0:0,0:0:0:0:
292,17,97593,5,0,3:0:0:0:
292,17,97684,1,0,3:0:0:0:
292,17,97774,2,0,P|287:53|273:104,1,85,4|0,1:0|0:0,0:0:0:0:
371,215,98135,2,0,P|404:197|443:160,1,85,4|0,3:0|0:0,0:0:0:0:
511,72,98497,6,0,P|455:38|396:58,1,101.999996887207,8|0,1:0|0:0,0:0:0:0:
204,209,98858,6,0,P|214:260|299:282,1,118.999996368408,8|0,1:0|0:0,0:0:0:0:
475,289,99220,37,12,0:0:0:0:
367,189,99400,1,8,1:0:0:0:
396,281,99581,1,0,3:0:0:0:
396,281,99943,5,8,1:0:0:0:
481,220,100123,1,8,3:0:0:0:
335,137,100304,69,12,3:2:0:0:
264,262,100485,1,8,1:0:0:0:
398,366,100666,6,0,P|446:365|492:317,1,93.5000028533936,4|0,1:0|0:0,0:0:0:0:
371,274,101027,2,0,L|165:300,1,187.000005706787,2|8,3:0|1:0,0:0:0:0:
185,297,101750,1,4,3:0:0:0:
32,253,101931,1,8,1:0:0:0:
115,331,102111,1,2,1:2:0:0:
73,176,102292,1,8,1:0:0:0:
186,169,102473,2,0,P|226:185|293:198,1,93.5000028533936,4|0,3:0|0:0,0:0:0:0:
480,141,102834,2,0,P|452:178|401:222,1,93.5000028533936,10|0,1:0|0:0,0:0:0:0:
382,344,103196,2,0,P|356:309|337:253,1,93.5000028533936,6|0,3:0|0:0,0:0:0:0:
317,80,103557,69,4,3:1:0:0:
317,80,103919,1,2,3:0:0:0:
317,80,104280,2,0,P|252:16|151:68,1,187.000005706787,8|4,1:0|1:3,0:0:0:0:
88,114,104822,1,8,1:0:0:0:
192,160,105003,1,2,1:2:0:0:
91,199,105184,1,8,1:0:0:0:
188,249,105364,1,0,3:0:0:0:
214,276,105726,6,0,L|84:304,1,93.5000028533936,10|0,1:0|0:0,0:0:0:0:
287,159,106087,2,0,L|397:188,1,93.5000028533936,6|0,1:2|0:0,0:0:0:0:
200,86,106449,2,0,P|192:128|174:176,1,93.5000028533936,4|0,1:0|0:0,0:0:0:0:
288,352,106810,2,0,P|308:309|315:250,1,93.5000028533936
419,116,107172,69,8,1:0:0:0:
419,116,107533,1,4,3:0:0:0:
311,53,107714,1,8,1:0:0:0:
408,39,107894,2,0,L|511:18,1,93.5000028533936,2|8,1:2|1:0,0:0:0:0:
333,155,108256,1,4,3:0:0:0:
113,67,108617,1,10,1:0:0:0:
239,255,108979,1,0,1:0:0:0:
113,325,109160,1,8,1:0:0:0:
267,352,109340,6,0,P|307:326|292:263,1,93.5000028533936,4|0,1:0|0:0,0:0:0:0:
162,146,109702,2,0,P|157:185|135:252,1,93.5000028533936,4|0,3:0|0:0,0:0:0:0:
288,184,110063,2,0,P|316:198|384:211,1,93.5000028533936,8|0,1:0|0:0,0:0:0:0:
226,278,110425,1,2,1:2:0:0:
320,328,110605,2,0,P|358:343|527:363,1,187.000005706787,8|8,1:0|1:0,0:0:0:0:
501,364,111147,1,4,3:0:0:0:
257,179,111509,1,8,1:0:0:0:
152,128,111690,1,2,1:2:0:0:
234,46,111870,1,12,3:0:0:0:
340,95,112051,1,12,3:0:0:0:
181,203,112232,70,0,P|133:218|55:108,2,187.000005706787,4|6|8,1:0|1:3|1:0,0:0:0:0:
403,266,113316,1,6,1:3:0:0:
319,197,113497,1,0,3:0:0:0:
319,197,113587,1,8,3:0:0:0:
319,197,113678,1,8,1:0:0:0:
191,371,114039,1,8,3:0:0:0:
13,250,114400,1,0,3:0:0:0:
13,250,114581,1,0,1:0:0:0:
34,327,114762,6,0,P|35:262|26:126,1,187.000005706787,6|8,1:0|0:0,0:0:0:0:
52,126,115214,1,8,0:0:0:0:
83,128,115304,1,8,0:0:0:0:
97,112,115394,1,8,0:0:0:0:
128,118,115485,1,0,0:0:0:0:
162,101,115575,1,8,0:0:0:0:
195,105,115666,1,8,0:0:0:0:
225,87,115756,1,8,0:0:0:0:
262,94,115846,2,8,L|327:104,3,46.7500014266968
322,170,116208,2,8,L|385:186,3,46.7500014266968
375,251,116569,2,8,L|444:278,3,46.7500014266968
491,305,116931,5,8,0:0:0:0:
491,305,117021,1,8,0:0:0:0:
491,305,117111,2,8,L|499:376,1,46.7500014266968
441,384,117292,1,8,1:0:0:0:
23,284,118015,6,0,L|47:105,1,170,4|4,1:0|3:0,0:0:0:0:
45,115,118738,2,0,L|151:139,1,85,8|0,1:0|0:0,0:0:0:0:
214,169,119099,1,0,0:0:0:0:
126,330,119280,1,8,1:0:0:0:
216,251,119461,2,0,B|229:289|229:300|215:347,1,85,4|8,1:3|1:0,0:0:0:0:
322,188,119822,2,0,B|302:146|297:112|316:50,1,127.5,4|0,3:0|0:0,0:0:0:0:
311,64,120184,1,8,1:0:0:0:
482,253,120545,1,4,3:0:0:0:
458,330,120726,1,0,1:0:0:0:
363,290,120906,22,0,B|318:267|282:262|237:270,1,127.5,4|0,1:0|0:0,0:0:0:0:
239,269,121268,2,0,L|246:365,1,85,6|0,3:0|0:0,0:0:0:0:
122,240,121629,2,0,L|107:47,1,170,8|4,1:0|3:0,0:0:0:0:
221,137,122172,1,8,1:0:0:0:
169,0,122352,1,4,1:3:0:0:
293,112,122533,1,8,1:0:0:0:
328,9,122714,1,4,3:0:0:0:
78,147,123075,1,8,1:0:0:0:
346,247,123437,2,0,P|346:283|398:318,1,85,4|0,1:3|0:0,0:0:0:0:
379,315,123798,54,0,B|338:271|266:278|221:340,1,170,4|6,1:0|3:0,0:0:0:0:
102,379,124340,1,0,0:0:0:0:
179,221,124521,2,0,B|213:137|201:54|201:54,1,170,8|0,1:0|0:0,0:0:0:0:
286,162,125063,2,0,B|313:184|334:191|382:192,1,85,8|0,1:0|0:0,0:0:0:0:
457,63,125425,1,8,1:0:0:0:
364,108,125605,2,0,B|356:194|420:185|421:269,2,170,4|8|2,3:0|1:0|3:0,0:0:0:0:
147,8,126690,21,6,3:2:0:0:
245,98,127051,1,0,3:0:0:0:
127,153,127413,2,0,L|104:325,1,170,8|0,1:0|1:0,0:0:0:0:
188,370,127955,1,8,1:0:0:0:
249,252,128135,1,4,3:0:0:0:
391,302,128316,1,8,1:0:0:0:
482,248,128497,2,0,L|384:220,1,85,4|8,3:0|0:0,0:0:0:0:
283,366,128858,1,8,1:0:0:0:
283,366,129220,53,8,1:0:0:0:
231,222,129400,1,8,1:0:0:0:
75,256,129581,2,0,P|65:139|83:88,2,152.999995330811,6|2|8,3:1|3:0|0:0,0:0:0:0:
240,60,130666,37,0,0:0:0:0:
289,152,130846,1,8,0:0:0:0:
328,50,131027,2,0,L|423:73,1,76.4999976654053,2|8,3:2|0:0,0:0:0:0:
402,68,131388,2,0,L|379:156,1,76.4999976654053,0|0,3:0|0:0,0:0:0:0:
260,230,131750,2,0,L|163:254,1,76.4999976654053,8|0,0:0|0:0,0:0:0:0:
91,227,132111,2,0,L|107:324,1,76.4999976654053,2|0,3:0|0:0,0:0:0:0:
103,302,132382,1,0,1:0:0:0:
103,302,132473,37,2,3:0:0:0:
250,380,132834,1,2,3:2:0:0:
356,264,133196,2,0,P|409:269|527:300,1,152.999995330811,8|0,0:0|0:0,0:0:0:0:
363,168,133738,1,8,0:0:0:0:
459,201,133919,2,0,P|446:172|433:116,1,76.4999976654053,0|8,0:0|0:0,0:0:0:0:
512,126,134280,2,0,P|506:97|503:38,1,76.4999976654053,2|0,3:0|0:0,0:0:0:0:
452,4,134641,1,8,0:0:0:0:
222,83,135003,1,0,3:0:0:0:
222,83,135093,1,0,3:0:0:0:
222,83,135184,1,0,3:0:0:0:
222,83,135274,1,0,3:0:0:0:
222,83,135364,38,0,L|121:109,1,76.4999976654053,4|0,3:0|0:0,0:0:0:0:
289,149,135726,2,0,L|125:197,1,152.999995330811,0|8,3:0|0:0,0:0:0:0:
142,191,136449,1,0,0:0:0:0:
47,245,136629,2,0,B|29:214|28:203|44:164,1,76.4999976654053,8|2,0:0|0:0,0:0:0:0:
206,281,136991,1,8,0:0:0:0:
206,281,137172,2,0,B|234:236|238:175|211:127,1,152.999995330811,0|8,3:0|0:0,0:0:0:0:
419,268,137894,2,0,L|427:356,1,76.4999976654053,4|0,3:0|1:0,0:0:0:0:
425,344,138166,1,0,1:0:0:0:
425,344,138256,38,0,L|331:362,1,76.4999976654053,2|0,3:0|0:0,0:0:0:0:
267,319,138617,1,0,3:0:0:0:
331,240,138798,1,0,1:0:0:0:
187,177,138979,2,0,L|24:147,1,152.999995330811,8|2,0:0|3:2,0:0:0:0:
85,254,139521,1,8,0:0:0:0:
171,303,139702,1,0,0:0:0:0:
268,213,139882,1,8,0:0:0:0:
358,285,140063,2,0,P|348:251|347:186,1,76.4999976654053,2|0,3:0|0:0,0:0:0:0:
417,85,140425,2,0,P|415:170|469:191,1,152.999995330811,8|6,0:0|0:0,0:0:0:0:
478,185,141147,38,0,L|293:162,1,159.799997561646,4|2,3:1|3:0,0:0:0:0:
166,51,141870,2,0,P|180:124|186:233,1,159.799997561646,8|0,0:0|0:0,0:0:0:0:
78,300,142413,1,8,0:0:0:0:
22,212,142593,2,0,P|63:179|110:178,1,79.8999987808228,2|8,0:0|0:0,0:0:0:0:
218,279,142955,2,0,P|200:305|142:328,1,79.8999987808228,4|0,3:0|0:0,0:0:0:0:
274,144,143316,2,0,P|298:141|365:175,1,79.8999987808228,8|0,0:0|0:0,0:0:0:0:
451,349,143678,2,0,P|417:346|368:309,1,79.8999987808228,0|0,0:0|1:0,0:0:0:0:
306,228,144039,37,6,3:0:0:0:
306,228,144400,1,0,3:0:0:0:
306,228,144762,2,0,B|356:205|415:243|415:243|461:226,1,159.799997561646,8|0,0:0|1:0,0:0:0:0:
285,315,145304,2,0,P|246:309|189:290,1,79.8999987808228,8|0,0:0|0:0,0:0:0:0:
110,171,145666,1,8,0:0:0:0:
194,129,145846,2,0,P|209:164|221:225,1,79.8999987808228,0|0,3:0|1:0,0:0:0:0:
110,347,146208,1,8,0:0:0:0:
305,178,146569,1,4,3:0:0:0:
371,275,146750,37,0,1:0:0:0:
371,275,146840,1,0,1:0:0:0:
371,275,146931,2,0,P|372:237|390:196,1,79.8999987808228,6|0,3:2|0:0,0:0:0:0:
465,334,147292,2,0,P|451:257|492:190,1,159.799997561646,0|8,3:0|0:0,0:0:0:0:
492,190,148015,37,4,1:3:0:0:
371,245,148376,1,4,3:2:0:0:
238,205,148738,1,8,3:2:0:0:
78,243,149099,1,8,3:2:0:0:
78,243,149461,37,8,1:0:0:0:
210,319,149641,1,8,1:0:0:0:
316,194,149822,2,0,B|306:137|347:104|318:32,1,159.799997561646,4|4,3:1|3:0,0:0:0:0:
221,86,150364,2,0,L|235:178,1,79.8999987808228,0|8,1:0|0:0,0:0:0:0:
374,297,150906,37,2,3:0:0:0:
246,243,151087,1,8,0:0:0:0:
311,370,151268,2,0,P|261:359|145:358,1,159.799997561646,4|0,1:0|3:0,0:0:0:0:
58,215,151991,2,0,B|20:168|33:105|103:81,1,159.799997561646,8|0,0:0|0:0,0:0:0:0:
93,84,152533,1,8,0:0:0:0:
162,167,152714,2,0,L|130:247,1,79.8999987808228,4|0,3:1|0:0,0:0:0:0:
314,157,153075,2,0,L|237:115,1,79.8999987808228,6|0,3:0|0:0,0:0:0:0:
220,287,153437,2,0,L|314:254,1,79.8999987808228,8|0,0:0|0:0,0:0:0:0:
483,153,153798,37,2,3:0:0:0:
424,264,153979,1,8,0:0:0:0:
393,161,154160,2,0,P|385:119|387:-16,2,159.799997561646,2|0|8,1:2|3:0|0:0,0:0:0:0:
257,332,155244,1,4,3:0:0:0:
229,300,155605,38,0,P|245:261|247:202,1,79.8999987808228,4|0,1:0|0:0,0:0:0:0:
135,289,155967,2,0,P|100:309|61:316,1,79.8999987808228,2|0,3:0|0:0,0:0:0:0:
135,289,156328,2,0,P|167:223|144:122,1,159.799997561646,8|0,0:0|0:0,0:0:0:0:
54,73,156870,1,8,0:0:0:0:
89,187,157051,37,4,3:1:0:0:
287,76,157413,1,2,3:0:0:0:
458,224,157774,2,0,P|467:247|509:308,1,79.8999987808228,8|0,0:0|0:0,0:0:0:0:
496,293,158135,1,0,3:0:0:0:
357,216,158316,1,8,0:0:0:0:
313,346,158497,1,0,3:0:0:0:
313,346,158858,38,0,P|250:314|191:326,1,119.849998171234,8|0,1:0|0:0,3:0:0:0:
276,235,159220,2,0,P|321:187|323:122,1,133.874995914459,10|0,1:0|0:0,3:0:0:0:
202,178,159581,2,0,P|176:209|48:209,1,152.999995330811,14|0,1:0|0:0,3:0:0:0:
0,160,159943,53,6,3:0:0:0:
0,160,160666,1,0,3:0:0:0:
143,92,161027,1,8,3:0:0:0:
294,159,161388,1,0,3:0:0:0:
294,159,161569,1,8,3:0:0:0:
171,258,161931,1,0,3:0:0:0:
171,258,162111,1,8,3:0:0:0:
325,329,162473,1,8,3:0:0:0:
325,329,162834,1,8,3:0:0:0:
105,248,163196,37,10,3:0:0:0:
200,338,163376,1,0,3:0:0:0:
105,248,163557,1,10,3:0:0:0:
220,124,163919,37,0,3:0:0:0:
195,187,164099,1,0,3:0:0:0:
295,130,164280,1,2,3:0:0:0:
207,58,164461,1,0,3:0:0:0:
105,114,164641,1,8,3:0:0:0:
314,232,165003,37,8,3:2:0:0:
359,239,165123,37,8,3:2:0:0:
403,246,165244,37,8,3:2:0:0:
403,279,165364,37,8,3:2:0:0:
453,291,165485,37,8,3:2:0:0:
497,300,165605,37,8,3:2:0:0:
512,345,165726,37,10,3:0:0:0:
313,293,166087,1,0,3:0:0:0:
433,174,166449,1,0,3:0:0:0:
272,79,166810,1,8,3:0:0:0:
184,252,167172,1,0,3:0:0:0:
184,252,167352,1,8,3:0:0:0:
279,86,167714,1,0,3:0:0:0:
279,86,167894,1,8,3:0:0:0:
82,164,168256,1,8,3:0:0:0:
37,60,168617,22,0,L|145:87,1,85,10|0,3:2|0:0,3:0:0:0:
82,164,168979,2,0,L|51:257,1,85,10|0,3:2|0:0,3:0:0:0:
219,366,169340,6,0,P|263:353|311:346,1,93.5000028533936,10|0,3:2|0:0,3:0:0:0:
279,213,169702,2,0,P|265:169|250:95,1,93.5000028533936,10|0,3:2|0:0,3:0:0:0:
143,314,170063,6,0,B|86:349|13:356|13:356,1,127.500004863739,10|0,1:0|0:0,3:0:0:0:
386,250,170425,6,0,B|436:235|463:241|507:286,1,127.500004863739,10|0,1:0|0:0,3:0:0:0:
279,105,171509,38,0,P|276:141|277:251,1,140.25000428009,4|0,1:0|0:0,0:0:0:0:
286,260,171870,2,0,P|242:255|180:253,1,93.5000028533936,2|0,1:2|0:0,0:0:0:0:
37,158,172232,1,8,1:0:0:0:
37,158,172593,1,0,0:0:0:0:
97,323,172774,1,8,1:0:0:0:
32,240,172955,2,0,P|22:283|1:336,1,93.5000028533936,2|8,1:2|1:0,0:0:0:0:
118,226,173316,2,0,P|132:180|138:128,1,93.5000028533936,6|0,3:0|0:0,0:0:0:0:
198,266,173678,2,0,P|237:360|315:346,1,187.000005706787,10|4,1:0|3:0,0:0:0:0:
453,273,174220,5,0,1:0:0:0:
453,273,174310,1,0,1:0:0:0:
453,273,174400,2,0,P|405:262|352:238,1,93.5000028533936,4|0,1:0|0:0,0:0:0:0:
270,282,174762,2,0,P|276:250|301:174,1,93.5000028533936,4|0,3:0|0:0,0:0:0:0:
392,51,175123,69,8,1:0:0:0:
451,127,175304,1,0,0:0:0:0:
319,88,175485,1,0,0:0:0:0:
139,226,175666,1,8,1:0:0:0:
238,94,175846,1,6,3:0:0:0:
310,239,176027,1,8,1:0:0:0:
148,146,176208,2,0,P|162:83|173:-19,1,140.25000428009,2|0,3:0|0:0,0:0:0:0:
172,9,176569,2,0,P|142:11|69:24,1,93.5000028533936,10|0,1:0|0:0,0:0:0:0:
0,165,176931,1,0,3:0:0:0:
77,103,177111,1,0,1:0:0:0:
125,242,177292,6,0,P|95:334|5:334,2,187.000005706787,4|4|8,1:0|3:0|1:0,0:0:0:0:
409,364,178376,1,6,1:3:0:0:
391,275,178557,1,8,1:0:0:0:
391,275,178647,1,0,1:0:0:0:
391,275,178738,1,6,3:0:0:0:
443,189,178919,1,8,1:0:0:0:
395,95,179099,2,0,L|385:-15,1,93.5000028533936,6|0,1:3|0:0,0:0:0:0:
293,137,179461,2,0,P|258:157|163:166,1,93.5000028533936,8|0,1:0|0:0,0:0:0:0:
284,239,179822,2,0,P|326:247|382:270,1,93.5000028533936,6|0,3:0|0:0,0:0:0:0:
488,363,180184,69,6,1:2:0:0:
281,319,180545,1,6,3:0:0:0:
73,368,180906,2,0,P|80:336|85:241,1,101.999996887207,8|0,1:0|0:0,0:0:0:0:
197,171,181268,2,0,P|178:238|167:340,1,172.125000656605,12|0,1:0|0:0,0:0:0:0:
168,340,181629,5,2,1:3:0:0:
266,232,181810,1,8,1:0:0:0:
362,320,181991,1,4,3:0:0:0:
272,366,182172,1,0,1:0:0:0:
272,366,182262,1,0,1:0:0:0:
272,366,182352,1,8,1:0:0:0:
304,75,182714,69,4,1:2:0:0:
365,224,182894,1,6,1:3:0:0:
507,103,183075,2,0,P|470:98|425:153,1,106.25,4|0,1:0|0:0,0:0:0:0:
279,209,183437,2,0,P|151:237|83:233,1,187.000005706787,2|8,3:0|1:0,0:0:0:0:
95,234,183979,1,0,1:0:0:0:
177,151,184160,2,0,P|194:113|204:53,1,93.5000028533936,2|8,0:2|1:0,0:0:0:0:
288,0,184521,1,2,1:2:0:0:
419,82,184702,1,8,1:0:0:0:
298,136,184882,2,0,B|365:152|365:152|390:220|462:227,2,187.000005706787,4|10|4,3:0|1:0|3:0,0:0:0:0:
21,146,185967,5,6,3:1:0:0:
173,340,186328,1,4,3:0:0:0:
211,94,186690,1,8,1:0:0:0:
98,235,186870,1,0,1:0:0:0:
203,171,187051,1,2,3:0:0:0:
344,256,187232,2,0,L|471:229,1,93.5000028533936,8|2,1:0|1:0,0:0:0:0:
268,346,187593,1,8,1:0:0:0:
268,346,187774,2,0,L|58:381,1,187.000005706787,2|10,3:0|1:0,0:0:0:0:
2,166,188497,1,4,3:0:0:0:
222,194,188858,70,0,P|231:151|231:46,1,140.25000428009,4|0,1:0|0:0,0:0:0:0:
232,54,189220,1,4,3:0:0:0:
316,0,189400,1,0,1:0:0:0:
403,106,189581,2,0,P|411:69|405:-21,1,93.5000028533936,8|0,1:0|0:0,0:0:0:0:
312,100,189943,1,0,0:0:0:0:
442,241,190123,5,8,1:0:0:0:
442,241,190214,1,0,1:0:0:0:
442,241,190304,1,2,3:0:0:0:
340,181,190485,1,8,1:0:0:0:
253,287,190666,2,0,P|189:313|107:222,1,187.000005706787,6|10,3:0|1:0,0:0:0:0:
18,57,191388,2,0,P|61:52|111:26,1,93.5000028533936,6|0,1:3|0:0,0:0:0:0:
105,30,191750,70,0,B|185:71|201:36|287:78,2,187.000005706787,4|4|8,3:1|3:0|1:0,0:0:0:0:
0,163,192834,1,4,3:0:0:0:
206,173,193196,5,10,3:1:0:0:
159,281,193376,1,2,1:2:0:0:
269,323,193557,1,8,3:1:0:0:
317,214,193738,1,2,1:2:0:0:
141,209,193919,69,10,3:2:0:0:
200,342,194099,1,8,3:0:0:0:
333,286,194280,1,10,3:0:0:0:
277,152,194461,1,6,3:0:0:0:
230,267,194641,22,0,P|294:293|441:284,1,203.999993774414,4|4,3:1|1:3,3:0:0:0:
426,288,195364,1,8,1:0:0:0:
331,66,195726,5,8,1:0:0:0:
226,99,195906,1,2,1:0:0:0:
253,18,196087,1,4,1:3:0:0:
131,121,196268,1,8,1:0:0:0:
91,40,196449,1,0,3:0:0:0:
91,40,196629,1,2,1:0:0:0:
226,99,196810,69,8,1:0:0:0:
195,197,196991,1,0,1:0:0:0:
300,148,197172,1,4,3:0:0:0:
244,268,197352,1,0,3:0:0:0:
131,121,197533,1,4,1:0:0:0:
330,221,197894,5,2,3:0:0:0:
361,327,198075,1,2,1:0:0:0:
400,237,198256,69,8,1:0:0:0:
295,304,198437,1,4,3:0:0:0:
429,306,198617,5,8,1:0:0:0:
264,236,198798,1,2,1:0:0:0:
264,236,198979,1,4,3:0:0:0:
187,307,199160,1,8,1:0:0:0:
106,277,199340,1,2,3:1:0:0:
17,359,199521,1,0,3:0:0:0:
17,359,199611,1,0,3:0:0:0:
17,359,199702,1,8,1:0:0:0:
73,148,200063,1,4,3:0:0:0:
333,30,200425,70,0,B|376:40|376:40|405:95,1,101.999996887207,6|0,1:0|0:0,3:0:0:0:
490,151,200786,2,0,P|444:167|376:180,1,101.999996887207,2|0,1:0|0:0,3:0:0:0:
222,265,201147,2,0,B|183:297|183:297|176:367,1,101.999996887207,10|0,1:0|0:0,3:0:0:0:
288,338,201509,2,0,P|190:310|88:267,1,203.999993774414,10|4,1:0|3:0,3:0:0:0:
5,141,202051,1,8,1:0:0:0:
141,210,202232,1,2,3:1:0:0:
200,67,202413,1,2,3:0:0:0:
103,142,202593,1,8,1:0:0:0:
405,274,202955,5,2,0:2:0:0:
405,274,203045,1,2,0:2:0:0:
405,274,203135,1,2,0:2:0:0:
405,274,203226,1,2,0:2:0:0:
405,274,203316,2,0,B|387:201|476:168|446:77,1,203.999993774414,4|2,1:0|3:0,3:0:0:0:
447,81,203858,1,2,1:0:0:0:
360,23,204039,2,0,B|309:13|309:13|269:55,1,101.999996887207,10|0,1:0|0:0,3:0:0:0:
225,160,204400,2,0,L|21:142,1,203.999993774414,10|0,1:0|0:0,3:0:0:0:
21,142,204943,1,8,1:0:0:0:
265,239,205123,2,0,L|454:259,1,152.999995330811,2|0,1:0|0:0,3:0:0:0:
417,255,205485,2,0,L|407:375,1,101.999996887207,10|0,1:0|0:0,3:0:0:0:
242,379,205846,69,6,1:3:0:0:
202,280,206027,1,2,1:2:0:0:
88,326,206208,2,0,P|43:360|-16:350,1,101.999996887207,6|0,1:0|0:0,3:0:0:0:
75,178,206569,2,0,P|91:185|179:205,1,101.999996887207,2|0,1:0|0:0,3:0:0:0:
329,164,206931,2,0,P|360:228|328:291,1,101.999996887207,10|0,1:0|0:0,3:0:0:0:
133,115,207292,2,0,P|140:94|150:3,1,101.999996887207,10|0,1:0|0:0,3:0:0:0:
150,15,207653,1,2,3:1:0:0:
266,57,207834,1,8,1:0:0:0:
348,12,208015,1,6,3:0:0:0:
426,49,208196,1,4,3:0:0:0:
473,185,208376,2,0,P|448:210|434:293,1,101.999996887207,8|6,1:0|3:0,3:0:0:0:
357,343,208738,2,0,P|339:308|340:242,1,101.999996887207,2|4,3:1|0:3,3:0:0:0:
211,118,209099,6,0,P|110:53|26:100,1,203.999993774414,6|4,1:0|3:0,3:0:0:0:
41,81,209641,1,0,1:0:0:0:
34,219,209822,1,8,1:0:0:0:
136,173,210003,1,2,1:0:0:0:
235,305,210184,1,8,1:0:0:0:
100,362,210364,2,0,B|42:376|3:326,1,101.999996887207,2|6,1:0|3:0,3:0:0:0:
205,209,210726,37,0,1:0:0:0:
205,209,210816,1,0,1:0:0:0:
205,209,210906,2,0,L|272:219,1,50.9999984436036,10|0,1:0|1:0,1:0:0:0:
331,215,211087,1,0,1:0:0:0:
331,215,211178,1,0,1:0:0:0:
331,215,211268,2,0,L|397:234,1,50.9999984436036,10|0,1:0|1:0,1:0:0:0:
473,267,211449,6,0,B|445:280|445:280|473:167,1,101.999996887207,2|8,3:1|3:0,0:0:0:0:
457,175,211720,1,0,3:0:0:0:
479,139,211810,1,0,3:0:0:0:
457,121,211900,1,0,3:0:0:0:
471,107,211991,6,0,B|414:53|324:48|260:109,1,220.999989883423,6|6,1:0|0:3,3:0:0:0:
41,263,212714,2,0,B|1:255|-4:190|41:171,1,110.499994941712,12|0,1:0|0:0,3:0:0:0:
172,286,213075,2,0,B|203:334|251:358|317:347,1,165.749992412568,14|0,1:0|0:0,3:0:0:0:
315,347,213437,1,4,3:0:0:0:
478,230,213617,1,8,1:0:0:0:
365,184,213798,2,0,B|332:170|285:195|289:244,1,110.499994941712,2|0,3:1|0:0,3:0:0:0:
451,343,214160,2,0,B|399:309|297:301|232:328,1,220.999989883423,8|0,1:0|0:0,3:0:0:0:
106,381,214702,5,8,3:0:0:0:
106,381,214792,1,8,3:0:0:0:
106,381,214882,1,6,1:0:0:0:
276,203,215244,1,4,3:0:0:0:
5,338,215605,2,0,B|42:298|42:298|41:226,1,110.499994941712,14|0,1:0|0:0,3:0:0:0:
115,163,215967,2,0,B|104:106|104:106|130:55|130:55|112:-9,1,165.749992412568,14|0,1:0|0:0,3:0:0:0:
116,6,216328,2,0,B|72:37|72:37|5:23,2,110.499994941712,6|8|4,0:3|1:0|3:0,3:0:0:0:
210,134,216870,1,0,1:0:0:0:
328,49,217051,2,0,B|389:26|421:97|498:81,1,165.749992412568,8|0,1:0|0:0,3:0:0:0:
512,161,217413,54,0,B|513:201|490:233|490:233,2,73.6666632944744,2|2|2,1:3|1:0|1:3,0:0:0:0:
408,217,217774,6,0,B|397:295|313:339|245:263,1,220.999989883423,6|4,1:0|3:0,3:0:0:0:
201,160,218316,1,2,1:0:0:0:
43,313,218497,2,0,B|80:276|93:208|74:148,1,165.749992412568,10|0,1:0|0:0,3:0:0:0:
45,142,218858,2,0,B|-17:89|60:-34|163:46,1,220.999989883423,14|6,1:0|0:3,3:0:0:0:
305,119,219400,1,8,1:0:0:0:
395,41,219581,1,2,3:1:0:0:
485,319,219943,5,10,1:0:0:0:
485,319,220123,1,4,0:3:0:0:
335,265,220304,1,10,1:0:0:0:
335,265,220485,1,4,0:3:0:0:
281,323,220666,69,6,1:2:0:0:
243,330,220756,1,0,1:0:0:0:
204,336,220846,1,0,1:0:0:0:
165,342,220937,1,0,1:0:0:0:
127,349,221027,1,8,1:0:0:0:
423,166,221298,5,0,1:0:0:0:
419,179,221388,1,0,1:0:0:0:
414,199,221479,1,0,1:0:0:0:
409,216,221569,1,10,1:0:0:0:
113,224,221840,69,0,1:0:0:0:
143,228,221931,1,0,1:0:0:0:
168,232,222021,1,0,1:0:0:0:
200,238,222111,1,10,1:0:0:0:
371,384,222382,5,8,3:2:0:0:
365,353,222473,1,8,3:2:0:0:
364,305,222563,1,8,3:2:0:0:
359,272,222653,1,8,3:2:0:0:
397,147,222834,37,10,1:0:0:0:
419,66,223015,1,0,3:0:0:0:
315,29,223196,2,0,B|299:70|300:134|314:179,1,152.999995330811,10|4,1:0|3:1,3:0:0:0:
0,218,235123,53,4,1:2:0:0:
85,186,235485,1,0,3:0:0:0:
170,264,235846,1,0,1:0:0:0:
253,222,236208,1,0,3:0:0:0:
362,269,236569,2,0,P|370:244|368:204,1,50.9999984436036,2|0,0:3|0:0,0:0:0:0:
370,219,236931,2,0,P|406:236|489:244,1,101.999996887207,2|0,3:0|1:0,0:0:0:0:
291,346,237653,5,0,3:0:0:0:
291,346,237834,1,0,3:0:0:0:
291,346,238015,2,0,L|283:293,1,50.9999984436036,0|0,3:0|0:0,0:0:0:0:
211,249,238376,2,0,L|186:373,1,101.999996887207,0|0,0:0|1:0,0:0:0:0:
190,348,239099,1,0,0:0:0:0:
95,200,239461,2,0,P|67:203|31:227,1,50.9999984436036,2|0,0:3|0:0,0:0:0:0:
107,122,239822,2,0,P|56:121|-9:159,1,101.999996887207,2|0,0:3|1:0,0:0:0:0:
191,23,240545,69,0,3:0:0:0:
191,23,240726,1,0,3:0:0:0:
191,23,240906,2,0,P|189:51|195:140,1,101.999996887207,4|0,3:2|0:0,0:0:0:0:
197,201,241449,1,0,3:0:0:0:
197,201,241629,1,0,1:0:0:0:
298,142,241991,1,4,0:3:0:0:
445,201,242352,1,2,0:3:0:0:
474,343,242714,22,0,P|422:332|360:278,1,127.5,10|0,1:0|0:0,3:0:0:0:
360,186,243075,6,0,P|304:178|214:215,1,152.999995330811,10|0,1:0|0:0,3:0:0:0:
125,251,243437,6,0,P|85:247|-16:223,1,127.500004863739,12|0,1:0|0:0,3:0:0:0:
478,13,244882,21,0,0:0:0:0:
478,13,245244,22,0,B|501:68|498:151|454:202,1,195.500003728867,6|4,1:0|1:3,3:0:0:0:
321,275,245786,1,0,1:0:0:0:
405,336,245967,2,0,B|433:363|458:374|506:369,1,97.7500018644333,8|0,1:0|0:0,3:0:0:0:
321,275,246328,1,2,3:3:0:0:
142,356,246509,1,8,1:0:0:0:
132,237,246690,2,0,B|145:203|146:172|120:129,1,97.7500018644333,0|8,0:0|1:0,3:0:0:0:
246,190,247051,2,0,B|256:243|247:290|225:334,1,146.62500279665,2|0,3:1|0:0,3:0:0:0:
225,332,247413,2,0,B|248:365|275:373|326:352,1,97.7500018644333,12|0,1:0|0:0,3:0:0:0:
462,266,247774,1,4,3:0:0:0:
505,368,247955,1,2,3:0:0:0:
344,231,248135,38,0,B|336:177|344:135|374:90,1,146.62500279665,6|0,1:0|0:0,3:0:0:0:
373,91,248497,2,0,B|392:56|391:27|371:-7,1,97.7500018644333,4|0,3:0|0:0,3:0:0:0:
269,86,248858,2,0,B|200:104|200:104|148:85|148:85|72:104,1,195.500003728867,8|6,1:0|0:3,3:0:0:0:
0,275,249400,1,8,1:0:0:0:
92,329,249581,1,2,3:0:0:0:
193,183,249762,1,8,1:0:0:0:
300,230,249943,2,0,B|306:267|312:286|333:326,1,97.7500018644333,2|0,3:0|0:0,3:0:0:0:
190,366,250304,37,10,1:0:0:0:
190,366,250666,1,6,3:0:0:0:
190,366,251027,2,0,B|208:334|213:310|208:261,1,97.7500018644333,6|0,1:0|0:0,3:0:0:0:
110,326,251388,2,0,B|140:259|52:193|-8:249,2,195.500003728867,2|8|4,1:2|1:0|1:3,3:0:0:0:
268,164,252292,1,8,1:0:0:0:
193,302,252473,1,2,3:1:0:0:
117,162,252653,1,8,1:0:0:0:
275,255,252834,2,0,B|318:275|383:263|416:223,1,146.62500279665,6|0,3:0|0:0,3:0:0:0:
442,246,253196,2,0,B|437:283|444:308|477:353,1,97.7500018644333,8|0,1:0|0:0,3:0:0:0:
362,126,253557,37,0,3:0:0:0:
362,126,253678,1,0,3:0:0:0:
362,126,253798,1,0,3:0:0:0:
362,126,253919,2,0,L|376:13,1,97.7500018644333,6|0,1:0|0:0,3:0:0:0:
179,214,254280,2,0,L|200:98,1,97.7500018644333,6|0,3:0|0:0,3:0:0:0:
338,219,254641,2,0,B|369:240|402:245|464:230,1,106.25,8|0,1:0|0:0,3:0:0:0:
236,26,255003,2,0,B|184:-1|112:-5|54:23,1,178.499994552612,14|0,1:0|0:0,3:0:0:0:
24,51,255364,37,2,3:1:0:0:
48,150,255545,1,8,1:0:0:0:
48,150,255635,1,8,3:2:0:0:
48,150,255726,1,0,3:0:0:0:
0,233,255906,1,4,3:0:0:0:
19,355,256087,1,8,1:0:0:0:
456,366,256449,5,12,3:2:0:0:
456,366,256629,1,6,3:0:0:0:
482,209,256810,2,0,B|466:166|461:112|483:32,1,146.62500279665,6|0,1:0|0:0,3:0:0:0:
475,64,257172,2,0,B|432:82|371:75|371:75,1,97.7500018644333,6|2,1:3|0:3,3:0:0:0:
253,143,257533,1,10,1:0:0:0:
190,8,257714,1,2,0:3:0:0:
283,70,257894,1,4,0:3:0:0:
172,184,258075,1,8,1:0:0:0:
58,49,258256,5,2,3:1:0:0:
158,99,258437,1,8,1:0:0:0:
59,204,258617,1,6,3:0:0:0:
59,204,258798,1,0,3:0:0:0:
203,252,258979,2,0,B|270:250|336:270|390:313,1,195.500003728867,10|4,1:0|3:0,3:0:0:0:
385,309,259702,70,0,B|356:267|379:204|379:204,1,97.7500018644333,6|0,1:0|0:0,3:0:0:0:
288,152,260063,2,0,B|291:141|268:204|292:248,1,97.7500018644333,6|0,1:3|0:0,3:0:0:0:
165,361,260425,2,0,B|136:319|159:256|159:256,1,97.7500018644333,10|0,1:0|0:0,3:0:0:0:
50,159,260786,2,0,B|21:201|44:264|44:264,1,97.7500018644333,6|8,1:3|1:0,3:0:0:0:
189,341,261147,5,4,1:3:0:0:
275,366,261328,1,8,1:0:0:0:
377,324,261509,1,6,3:0:0:0:
483,371,261690,1,2,1:2:0:0:
511,208,261870,2,0,L|498:51,1,146.62500279665,10|0,1:0|0:0,3:0:0:0:
498,61,262232,1,4,3:0:0:0:
406,118,262413,1,4,1:3:0:0:
277,164,262593,70,0,B|229:160|194:119|194:119|130:139|130:198,2,195.500003728867,4|4|8,1:0|1:3|1:0,3:0:0:0:
366,232,263497,1,2,1:3:0:0:
366,232,263587,1,0,1:0:0:0:
366,232,263678,1,6,1:3:0:0:
295,277,263858,1,8,1:0:0:0:
191,239,264039,1,2,3:0:0:0:
74,309,264220,1,8,1:0:0:0:
203,349,264400,2,0,L|315:381,1,97.7500018644333,6|0,1:3|0:0,3:0:0:0:
473,202,264762,2,0,B|436:187|404:203|392:239,1,97.7500018644333,10|0,1:0|0:0,3:0:0:0:
240,94,265123,2,0,B|240:128|245:158|268:198,1,97.7500018644333,6|0,3:0|0:0,3:0:0:0:
376,330,265485,5,4,1:0:0:0:
216,253,265846,1,2,3:0:0:0:
366,92,266208,1,8,1:0:0:0:
125,12,266569,1,4,3:0:0:0:
120,210,266931,5,14,1:0:0:0:
56,311,267111,1,4,1:3:0:0:
212,206,267292,69,14,1:0:0:0:
93,131,267473,1,4,1:3:0:0:
171,280,267653,69,8,3:1:0:0:
240,308,267834,1,8,3:0:0:0:
306,273,268015,1,8,3:0:0:0:
311,194,268196,1,6,3:2:0:0:
172,132,268376,69,4,1:1:0:0:
256,192,268467,12,4,274160,3:1:0:0:
88,310,274521,5,4,3:0:0:0:
88,310,274882,2,0,P|113:308|187:290,1,89.2499972763062,8|0,1:0|0:0,0:0:0:0:
321,244,275244,2,0,P|328:283|347:334,1,89.2499972763062,12|0,1:0|0:0,0:0:0:0:
194,178,275605,2,0,P|207:135|216:76,1,89.2499972763062,2|8,0:1|1:0,0:0:0:0:
385,178,275967,2,0,P|407:188|489:207,1,89.2499972763062,2|0,3:0|0:0,0:0:0:0:
469,204,276328,1,8,1:0:0:0:
313,372,276690,1,4,3:0:0:0:
128,245,277051,2,0,P|122:215|69:96,1,133.874995914459,6|0,1:0|0:0,0:0:0:0:
83,119,277413,2,0,P|58:156|0:176,1,89.2499972763062,2|0,3:0|0:0,0:0:0:0:
193,161,277774,70,0,L|298:176,1,89.2499972763062,8|0,1:0|0:0,0:0:0:0:
174,17,278135,2,0,L|274:45,1,89.2499972763062,8|0,1:0|0:0,0:0:0:0:
406,109,278497,2,0,P|416:68|418:20,1,89.2499972763062,6|0,1:2|0:0,0:0:0:0:
257,161,278858,2,0,P|232:229|121:214,1,178.499994552612,8|4,1:0|3:2,0:0:0:0:
137,231,279581,1,6,3:0:0:0:
334,265,279943,6,0,P|376:273|515:320,2,178.499994552612,6|2|8,1:0|1:0|1:0,0:0:0:0:
239,321,280846,1,0,0:0:0:0:
127,216,281027,2,0,P|168:198|207:171,1,89.2499972763062,12|0,1:0|0:0,0:0:0:0:
339,97,281388,2,0,P|329:77|319:1,1,89.2499972763062,6|8,0:3|1:0,0:0:0:0:
189,64,281750,2,0,P|163:61|103:29,1,89.2499972763062,6|0,3:0|0:0,0:0:0:0:
348,178,282111,2,0,P|437:184|498:117,1,178.499994552612,8|4,1:0|3:0,0:0:0:0:
425,59,282653,1,0,1:0:0:0:
260,155,282834,70,0,P|261:180|303:312,1,133.874995914459,6|0,1:0|0:0,0:0:0:0:
288,284,283196,2,0,P|269:287|195:321,1,89.2499972763062,2|0,3:0|0:0,0:0:0:0:
36,176,283557,2,0,P|36:193|60:278,1,89.2499972763062,12|0,1:0|0:0,0:0:0:0:
156,144,283919,2,0,P|164:163|179:245,1,89.2499972763062,12|0,1:0|0:0,0:0:0:0:
62,371,284280,1,2,1:0:0:0:
229,300,284461,1,8,1:0:0:0:
321,365,284641,1,2,3:0:0:0:
321,365,285003,2,0,P|370:364|505:340,1,178.499994552612,8|6,1:0|3:2,0:0:0:0:
477,112,285726,6,0,P|452:107|385:77,1,89.2499972763062,4|0,1:0|0:0,0:0:0:0:
379,160,286087,2,0,P|357:152|298:102,1,89.2499972763062,6|0,3:0|0:0,0:0:0:0:
110,135,286449,2,0,P|134:121|188:67,1,89.2499972763062,12|0,1:0|0:0,0:0:0:0:
241,237,286810,2,0,P|235:254|182:320,1,89.2499972763062,12|0,1:0|0:0,0:0:0:0:
112,368,287172,69,2,1:0:0:0:
341,252,287533,1,10,1:0:0:0:
341,252,287714,1,4,1:3:0:0:
435,359,287894,1,10,1:0:0:0:
435,359,288075,1,4,1:3:0:0:
512,251,288256,1,6,3:2:0:0:
512,251,288617,54,0,P|504:207|470:86,1,152.999995330811,4|0,3:1|1:0,3:0:0:0:
425,187,289160,1,0,3:0:0:0:
325,128,289340,2,0,P|332:171|367:293,1,152.999995330811,6|8,3:2|3:0,3:0:0:0:
155,369,290063,2,0,P|164:349|176:268,1,85,12|8,3:0|3:0,3:0:0:0:
264,237,290425,2,0,P|241:222|168:207,1,85,4|0,3:2|0:0,3:0:0:0:
75,339,290786,1,6,3:0:0:0:
75,339,290967,1,6,3:0:0:0:
181,365,291147,2,0,L|289:350,1,85,2|0,3:0|0:0,3:0:0:0:
396,354,291509,6,0,P|382:307|364:168,1,170,4|6,3:1|3:2,3:0:0:0:
364,187,292051,1,0,0:0:0:0:
467,250,292232,2,0,P|458:222|456:146,1,85,6|0,3:0|0:0,3:0:0:0:
271,231,292593,2,0,P|269:198|299:89,1,127.5,6|0,3:2|0:0,3:0:0:0:
311,91,292955,1,6,3:2:0:0:
381,59,293135,1,6,3:0:0:0:
459,74,293316,1,4,3:0:0:0:
354,271,293678,1,4,1:3:0:0:
184,125,294039,1,6,3:2:0:0:
184,125,294220,1,0,3:0:0:0:
73,166,294400,6,0,P|90:176|249:191,1,170,12|6,3:0|3:2,3:0:0:0:
385,128,295123,1,8,3:0:0:0:
390,132,295214,1,8,3:0:0:0:
269,339,295485,1,8,3:0:0:0:
274,346,295575,1,8,3:0:0:0:
146,163,295846,2,0,P|151:150|169:67,1,85,6|0,1:0|0:0,3:0:0:0:
275,235,296208,2,0,P|286:215|303:147,1,85,6|0,1:0|0:0,3:0:0:0:
101,273,296569,2,0,P|118:284|186:303,1,85,2|0,3:1|0:0,3:0:0:0:
373,300,296931,5,8,3:2:0:0:
418,291,297051,69,8,3:2:0:0:
458,285,297172,5,8,3:2:0:0:
499,252,297292,70,0,L|520:140,2,62.3333352355958,4|0|0,3:1|3:0|3:0,3:0:0:0:
399,312,297653,2,0,L|411:373,2,62.3333352355958,2|0|0,3:1|3:0|3:0,3:0:0:0:
318,241,298015,1,0,3:2:0:0:
318,241,298105,2,0,P|323:212|339:86,1,140.25000428009,8|6,3:0|3:2,3:0:0:0:
407,45,298497,2,0,L|480:55,1,62.3333352355958,8|8,3:2|3:2,3:2:0:0:
340,8,298738,5,4,3:1:0:0:
287,17,298858,69,8,3:2:0:0:
242,19,298979,5,8,3:2:0:0:
197,29,299099,69,8,3:2:0:0:
35,133,299340,1,0,3:0:0:0:
76,168,299461,2,0,B|160:141|160:141|240:208,1,187.000005706787,8|0,3:2|1:0,3:0:0:0:
235,204,299943,2,0,P|223:229|220:280,1,62.3333352355958,8|8,3:0|3:0,3:0:0:0:
269,372,300184,6,0,B|265:288|342:281|321:179,1,187.000005706787,4|0,1:0|3:0,3:0:0:0:
330,165,300635,1,0,3:0:0:0:
348,165,300726,1,0,3:0:0:0:
367,151,300816,1,0,3:0:0:0:
392,152,300906,1,6,3:2:0:0:
496,314,301268,69,4,3:0:0:0:
496,314,301358,1,4,3:0:0:0:
496,314,301449,2,0,P|474:309|392:285,1,93.5000028533936,4|2,1:2|1:0,3:0:0:0:
261,135,301810,1,8,3:0:0:0:
261,135,301900,1,8,3:0:0:0:
261,135,301991,2,0,P|259:154|274:242,1,93.5000028533936,4|0,3:2|0:0,3:0:0:0:
104,369,302352,1,8,3:0:0:0:
104,369,302443,1,8,3:0:0:0:
104,369,302533,2,0,P|124:370|208:330,1,93.5000028533936,4|2,3:2|1:0,3:0:0:0:
308,296,302894,1,4,3:0:0:0:
294,338,302985,1,4,3:0:0:0:
295,380,303075,1,6,1:0:0:0:
126,247,303346,5,0,3:0:0:0:
111,238,303437,1,0,3:0:0:0:
74,238,303527,1,0,3:0:0:0:
53,226,303617,1,6,3:2:0:0:
63,149,303798,69,2,1:0:0:0:
81,145,303888,1,0,3:0:0:0:
97,157,303979,1,0,3:0:0:0:
137,156,304069,1,0,3:0:0:0:
153,171,304160,1,6,3:2:0:0:
354,215,304431,5,0,3:0:0:0:
381,212,304521,1,0,3:0:0:0:
428,220,304611,1,0,3:0:0:0:
455,216,304702,1,4,3:2:0:0:
371,136,304882,70,0,L|321:123,2,46.7500014266968,8|0|0,3:1|3:0|3:0,3:0:0:0:
455,295,305244,2,0,L|517:315,2,46.7500014266968,10|0|0,3:1|3:0|3:0,3:0:0:0:
376,350,305605,2,0,B|355:311|355:253|388:216,1,140.25000428009,10|0,0:1|0:0,3:0:0:0:
451,172,305967,21,6,1:0:0:0:
451,172,306328,1,12,3:0:0:0:
383,140,306509,1,8,3:0:0:0:
311,188,306690,1,4,3:0:0:0:
214,126,306870,1,0,0:0:0:0:
87,199,307051,2,0,P|76:226|7:340,1,152.999995330811,6|0,3:0|0:0,3:0:0:0:
13,332,307413,5,4,3:2:0:0:
118,313,307593,1,0,3:0:0:0:
229,374,307774,1,8,3:0:0:0:
229,374,307955,1,4,3:0:0:0:
330,250,308135,69,4,3:2:0:0:
199,291,308316,1,0,3:0:0:0:
365,380,308497,1,6,3:2:0:0:
495,70,308858,5,6,3:2:0:0:
495,70,309039,1,4,3:0:0:0:
495,70,309220,1,4,3:0:0:0:
495,70,309400,1,8,3:0:0:0:
383,106,309581,1,10,3:0:0:0:
355,188,309762,1,0,3:0:0:0:
215,147,309943,1,8,3:0:0:0:
278,212,310123,1,8,3:0:0:0:
456,252,310304,69,2,1:0:0:0:
469,259,310485,1,0,3:0:0:0:
394,323,310666,1,2,1:0:0:0:
382,303,310846,1,0,3:0:0:0:
270,281,311027,1,2,1:0:0:0:
252,314,311208,1,8,3:0:0:0:
109,366,311388,1,6,1:0:0:0:
256,192,311479,12,0,320425,2:0:0:0:
