osu file format v14

[General]
AudioFilename: audio.mp3
AudioLeadIn: 0
PreviewTime: 77238
Countdown: 0
SampleSet: Normal
StackLeniency: 0.7
Mode: 0
LetterboxInBreaks: 0
WidescreenStoryboard: 0

[Editor]
DistanceSpacing: 0.2
BeatDivisor: 4
GridSize: 8
TimelineZoom: 0.8999999

[Metadata]
Title:Glass no Kutsu
TitleUnicode:ガラスのくつ
Artist:Ito Kanako
ArtistUnicode:いとうかなこ
Creator:Delis
Version:Saya
Source:沙耶の唄
Tags:Saya no Uta Song of Saya Shoes of the Glass garasu
BeatmapID:1240566
BeatmapSetID:585681

[Difficulty]
HPDrainRate:6
CircleSize:4
OverallDifficulty:7
ApproachRate:8
SliderMultiplier:1.8
SliderTickRate:2

[Events]
//Background and Video events
0,0,"saya.jpg",0,0
//Break Periods
2,119613,126455
//Storyboard Layer 0 (Background)
//Storyboard Layer 1 (Fail)
//Storyboard Layer 2 (Pass)
//Storyboard Layer 3 (Foreground)
//Storyboard Sound Samples

[TimingPoints]
972,389.61038961039,4,2,1,60,1,0
1069,-100,4,2,1,10,0,0
1264,-100,4,2,1,60,0,0
1459,-100,4,2,1,10,0,0
1653,-100,4,2,1,60,0,0
4186,-100,4,2,1,10,0,0
4381,-100,4,2,1,60,0,0
4575,-100,4,2,1,10,0,0
4770,-100,4,2,1,60,0,0
7303,-100,4,2,1,10,0,0
7497,-100,4,2,1,60,0,0
8082,-100,4,2,1,10,0,0
8277,-100,4,2,1,60,0,0
11199,-100,4,2,1,10,0,0
11394,-100,4,2,1,60,0,0
22400,-100,4,2,0,10,0,0
22595,-100,4,2,1,60,0,0
38082,-100,4,2,1,50,0,0
38277,-100,4,2,1,60,0,0
75972,-100,4,1,1,60,0,0
78894,-100,4,1,1,70,0,1
78991,-100,4,1,1,70,0,0
96036,-100,4,1,1,70,0,0
97595,-100,4,1,1,70,0,1
97692,-100,4,1,1,70,0,0
116296,-100,4,1,1,70,0,0
119413,-100,4,1,1,10,0,0
127205,-100,4,1,1,60,0,0
181751,-100,4,1,1,70,0,1
181848,-100,4,1,1,70,0,0
198894,-100,4,1,1,70,0,0
200452,-100,4,1,1,70,0,1
200549,-100,4,1,1,70,0,0
216718,-100,4,1,1,40,0,0
217108,-100,4,1,1,55,0,0
217497,-100,4,1,1,70,0,0
218277,-100,4,1,1,60,0,0
218666,-100,4,1,1,70,0,0
219153,-100,4,1,1,60,0,1
219251,-100,4,1,1,60,0,0
229186,-83.3333333333333,4,1,1,70,0,0
230062,375,4,1,1,60,1,0
230062,-100,4,1,1,60,0,0
231562,405.405405405405,4,1,1,60,1,0
233179,389.61038961039,4,1,1,60,1,0
248763,-83.3333333333333,4,1,1,70,0,1
250127,-83.3333333333333,4,1,1,70,0,0
250321,-100,4,1,1,70,0,1
250419,-100,4,1,1,70,0,0
266977,-100,4,1,1,60,0,0
267464,-100,4,1,1,60,0,0
269023,-100,4,1,1,70,0,1
269120,-100,4,1,1,70,0,0
287821,-100,4,1,1,30,0,0
311880,-100,4,1,1,60,0,0

[Colours]
Combo1 : 126,118,118
Combo2 : 68,155,176
Combo3 : 138,208,136
Combo4 : 141,218,48
Combo5 : 79,176,103
Combo6 : 209,20,44
Combo7 : 26,89,206
Combo8 : 161,161,161

[HitObjects]
208,292,582,5,0,0:0:0:0:
202,298,777,1,0,0:0:0:0:
196,305,971,2,0,B|100:349|28:277,2,180,2|0|2,0:0|0:0|0:0,0:0:0:0:
404,208,2140,1,0,0:0:0:0:
464,144,2335,1,2,0:0:0:0:
376,120,2530,1,2,0:0:0:0:
176,168,2920,2,0,B|164:120|176:72,1,90,2|0,0:0|0:0,0:0:0:0:
268,132,3309,2,0,B|300:184|268:272|196:272,1,180,2|0,0:0|0:0,0:0:0:0:
104,224,3894,1,0,0:0:0:0:
72,144,4088,6,0,B|84:232|76:328,2,180,2|0|2,0:0|0:0|0:0,0:0:0:0:
360,212,5257,2,0,L|352:120,1,90,0|2,0:0|0:0,0:0:0:0:
400,48,5647,1,2,0:0:0:0:
208,332,6036,2,0,L|212:232,1,90,2|0,0:0|0:0,0:0:0:0:
204,160,6426,1,2,0:0:0:0:
204,160,6621,1,2,0:0:0:0:
240,76,6816,1,0,0:0:0:0:
240,76,7010,1,0,0:0:0:0:
152,40,7205,6,0,B|48:12|-8:112,1,180,2|0,0:0|0:0,0:0:0:0:
200,352,7984,2,0,B|308:344|328:232,1,180,2|0,0:0|0:0,0:0:0:0:
348,156,8569,1,2,0:0:0:0:
260,184,8764,2,0,B|264:136|280:92,1,90
432,140,9153,2,0,B|428:188|412:232,1,90,2|0,0:0|0:0,0:0:0:0:
308,312,9543,1,2,0:0:0:0:
308,312,9738,2,0,B|220:348|132:308,1,180,2|0,0:0|0:0,0:0:0:0:
44,204,10322,5,2,0:0:0:0:
92,124,10517,1,0,0:0:0:0:
136,204,10712,1,2,0:0:0:0:
348,72,11101,2,0,B|256:48|164:72,1,180,2|0,0:0|0:0,0:0:0:0:
96,120,11686,1,2,0:0:0:0:
264,184,11881,2,0,B|312:188|360:180,1,90,2|0,0:0|0:0,0:0:0:0:
192,336,12270,2,0,B|144:344|88:336,1,90,2|0,0:0|0:0,0:0:0:0:
256,268,12660,1,2,0:0:0:0:
188,216,12855,2,0,B|160:120|208:40,1,180,2|0,0:0|0:0,0:0:0:0:
264,104,13439,69,6,0:0:0:0:
72,260,13829,1,0,3:0:0:0:
312,344,14218,2,2,L|504:308,1,180,8|0,0:0|0:0,1:2:0:0:
488,310,14803,1,0,3:0:0:0:
208,288,14997,2,0,L|112:272,1,90,0|0,3:0|3:0,0:0:0:0:
324,144,15387,2,0,L|416:124,1,90,2|0,0:0|0:0,0:0:0:0:
256,216,15777,2,2,L|228:32,1,180,8|0,0:0|0:0,1:2:0:0:
376,220,16556,6,0,B|384:264|380:316,1,90,2|0,3:2|0:0,0:0:0:0:
300,348,16946,1,0,3:0:0:0:
224,312,17140,1,0,0:0:0:0:
144,344,17335,2,2,B|32:380|-4:244,1,180,8|0,0:0|0:0,1:2:0:0:
96,268,17920,1,0,3:0:0:0:
168,212,18114,2,0,B|172:164|160:112,1,90,2|0,3:2|3:0,0:0:0:0:
252,160,18504,2,0,B|300:164|344:152,1,90,2|0,3:2|0:0,0:0:0:0:
416,92,18894,2,2,L|428:188,1,90,8|2,0:0|0:0,1:2:0:0:
360,320,19283,2,2,L|348:224,1,90,8|0,0:0|0:0,1:2:0:0:
268,284,19673,6,0,B|196:220|88:260,1,180,2|0,3:2|3:0,0:0:0:0:
32,312,20257,1,0,0:0:0:0:
12,224,20452,2,2,L|36:40,1,180,8|0,0:0|0:0,1:2:0:0:
116,56,21036,1,0,3:0:0:0:
104,144,21231,2,0,B|151:142|200:152,1,90,0|0,3:0|3:0,0:0:0:0:
296,80,21621,2,0,B|248:84|205:73,1,90,2|0,3:2|0:0,0:0:0:0:
288,168,22010,1,8,0:0:0:0:
288,168,22205,2,2,B|368:148|468:166,1,180,8|0,0:0|0:0,1:2:0:0:
466,166,22790,6,0,B|462:122|476:72,1,90,2|0,3:2|0:0,0:0:0:0:
324,236,23179,2,0,B|316:280|320:332,1,90,2|0,3:2|0:0,0:0:0:0:
208,312,23569,2,2,B|160:308|108:312,1,90,10|0,3:2|0:0,1:2:0:0:
24,224,23959,1,10,0:0:0:0:
100,164,24153,1,0,3:0:0:0:
12,128,24348,1,0,3:0:0:0:
108,252,24543,69,0,3:0:0:0:
188,144,24738,1,2,3:2:0:0:
84,76,24933,1,0,0:0:0:0:
168,64,25127,2,2,L|272:56,1,90,8|0,0:0|0:0,1:2:0:0:
304,256,25517,2,2,L|208:264,1,90,8|8,0:0|0:0,1:2:0:0:
320,108,25907,6,0,B|416:72|492:152,1,180,4|0,0:0|3:0,0:0:0:0:
485,145,26491,1,0,0:0:0:0:
392,304,26686,2,2,L|368:212,1,90,8|0,0:0|0:0,1:2:0:0:
192,84,27075,2,0,L|216:176,1,90,0|0,0:0|3:0,0:0:0:0:
188,308,27465,6,0,B|88:340|24:252,1,180,0|0,3:0|3:0,0:0:0:0:
28,257,28049,1,0,3:0:0:0:
263,224,28244,2,2,B|367:248|415:160,1,180,8|0,0:0|0:0,1:2:0:0:
416,160,29023,2,0,L|448:64,1,90,4|0,0:0|0:0,0:0:0:0:
348,92,29413,5,0,3:0:0:0:
276,160,29608,1,0,0:0:0:0:
184,128,29803,2,2,B|132:120|88:144,1,90,8|0,0:0|0:0,1:2:0:0:
20,88,30192,1,0,0:0:0:0:
88,220,30387,1,0,3:0:0:0:
184,128,30582,70,0,B|192:76|160:32,1,90,0|0,3:0|3:0,0:0:0:0:
184,128,30972,2,0,B|176:180|208:224,1,90,0|0,3:0|0:0,0:0:0:0:
268,156,31361,2,2,B|276:104|244:60,1,90,8|0,0:0|0:0,1:2:0:0:
280,244,31751,5,2,0:3:0:0:
368,272,31946,1,2,0:3:0:0:
436,208,32140,2,0,L|432:104,1,90,2|0,3:2|0:0,0:0:0:0:
340,120,32530,2,0,L|240:128,1,90,0|0,3:0|0:0,0:0:0:0:
88,64,32920,2,2,B|180:16|272:52,1,180,8|0,0:0|0:0,1:2:0:0:
262,48,33504,1,0,3:0:0:0:
184,192,33699,2,0,L|88:204,1,90,0|0,3:0|3:0,0:0:0:0:
16,64,34088,2,0,B|4:112|24:156,1,90,0|0,3:0|0:0,0:0:0:0:
260,264,34478,5,8,0:0:0:0:
288,140,34673,1,2,0:3:0:0:
260,264,34868,5,0,0:0:0:0:
136,232,35062,1,0,0:0:0:0:
260,264,35257,70,0,B|308:260|356:248,1,90,2|0,3:2|0:0,0:0:0:0:
448,116,35647,2,0,B|400:120|344:132,1,90,0|0,3:0|0:0,0:0:0:0:
260,88,36036,2,2,B|160:84|64:60,1,180,8|0,0:0|0:0,1:2:0:0:
8,124,36621,1,0,3:0:0:0:
8,124,36816,2,0,B|12:172|8:220,1,90,0|0,3:0|3:0,0:0:0:0:
56,296,37205,2,0,B|112:291|156:291,1,90,0|0,3:0|0:0,0:0:0:0:
236,276,37595,5,2,0:2:0:0:
324,288,37790,1,2,0:3:0:0:
336,200,37984,1,2,0:3:0:0:
248,188,38179,1,2,0:3:0:0:
408,260,38374,6,0,B|428:168|424:72,1,180,4|0,0:0|3:0,0:0:0:0:
336,80,38959,1,0,0:0:0:0:
256,40,39153,2,2,B|200:48|144:68,1,90,8|0,0:0|0:0,1:2:0:0:
80,52,39543,1,2,0:2:0:0:
120,132,39738,1,0,3:0:0:0:
56,192,39933,6,0,B|44:284|64:380,1,180,0|0,3:0|3:0,0:0:0:0:
136,320,40517,1,0,0:0:0:0:
136,320,40712,2,2,B|328:304,1,180,8|0,0:0|0:0,1:2:0:0:
464,160,41491,2,0,B|424:136|368:144,1,90,4|0,0:0|0:0,0:0:0:0:
288,192,41881,70,0,B|280:144|288:88,1,90,0|0,3:0|0:0,0:0:0:0:
352,32,42270,1,8,0:0:0:0:
208,232,42465,2,2,B|168:256|112:264,1,90,0|0,0:0|0:0,1:2:0:0:
144,168,42855,1,0,3:0:0:0:
48,344,43049,6,0,B|-36:284|12:172,1,180,0|2,3:0|3:2,0:0:0:0:
7,184,43634,1,0,3:0:0:0:
184,280,43829,2,2,B|204:324|188:372,1,90,8|0,0:0|0:0,1:2:0:0:
320,296,44218,2,2,B|300:252|316:204,1,90,2|2,0:3|0:3,0:0:0:0:
356,112,44608,6,0,L|256:120,1,90,2|0,3:2|0:0,0:0:0:0:
168,48,44997,2,0,L|272:40,1,90,0|0,3:0|0:0,0:0:0:0:
184,128,45387,2,2,L|-8:144,1,180,8|2,0:2|0:0,1:2:0:0:
56,64,45972,1,0,3:0:0:0:
288,176,46166,6,0,L|280:72,1,90,2|0,3:2|3:0,0:0:0:0:
385,150,46556,2,0,L|384:256,1,90,2|0,3:2|0:0,0:0:0:0:
472,184,46946,1,8,0:0:0:0:
288,176,47140,1,0,0:0:0:0:
472,184,47335,2,0,L|480:72,1,90,2|0,0:2|0:0,0:0:0:0:
312,256,47725,70,0,B|296:312|328:360,1,90,2|0,3:2|0:0,0:0:0:0:
224,296,48114,2,0,B|184:264|136:272,1,90,0|0,3:0|0:0,0:0:0:0:
392,280,48504,2,2,B|456:192|368:96,1,180,8|0,0:0|3:0,1:2:0:0:
383,114,49088,1,0,3:0:0:0:
272,144,49283,5,2,3:2:0:0:
264,48,49478,1,0,0:0:0:0:
272,144,49673,1,2,3:2:0:0:
176,152,49868,1,0,0:0:0:0:
272,144,50062,1,8,0:0:0:0:
232,232,50257,5,2,0:3:0:0:
216,72,50452,1,2,0:3:0:0:
360,136,50647,1,2,0:3:0:0:
320,216,50842,6,0,B|312:328|416:368,1,180,4|0,0:0|3:0,0:0:0:0:
416,256,51426,1,0,0:0:0:0:
232,328,51621,2,2,B|176:240|56:280,1,180,8|0,0:0|0:0,1:2:0:0:
74,274,52205,1,0,3:0:0:0:
216,192,52400,70,0,B|280:88|184:16,1,180,0|0,3:0|3:0,0:0:0:0:
320,176,53179,2,2,B|256:280|352:352,1,180,8|0,0:0|3:0,1:2:0:0:
488,112,53959,6,0,B|448:80|392:88,1,90,2|0,3:2|0:0,0:0:0:0:
424,176,54348,2,0,B|368:168|320:200,1,90,0|0,3:0|0:0,0:0:0:0:
392,264,54738,2,2,B|360:304|368:360,1,90,8|0,0:0|0:0,1:2:0:0:
256,240,55127,2,0,B|232:200|248:136,1,90,2|0,0:0|3:0,0:0:0:0:
152,216,55517,5,0,3:0:0:0:
160,312,55712,1,0,3:0:0:0:
72,272,55907,2,0,L|64:168,1,90,2|0,3:2|0:0,0:0:0:0:
120,104,56296,2,2,L|304:128,1,180,8|0,0:0|3:0,1:2:0:0:
464,48,57075,6,0,L|360:64,1,90,4|0,0:0|0:0,0:0:0:0:
280,232,57465,2,0,L|384:208,1,90,0|0,3:0|0:0,0:0:0:0:
216,112,57855,2,2,L|24:152,1,180,8|2,0:0|0:0,1:2:0:0:
39,148,58439,1,0,3:0:0:0:
48,272,58634,69,0,3:0:0:0:
136,280,58829,1,0,3:0:0:0:
216,232,59023,2,0,B|264:216|320:208,1,90,0|0,3:0|0:0,0:0:0:0:
376,56,59413,2,2,B|368:104|352:152,1,90,8|0,0:0|0:0,1:2:0:0:
368,312,59803,2,0,B|384:264|392:216,1,90,0|0,3:0|0:0,0:0:0:0:
303,210,60192,5,2,0:2:0:0:
390,224,60387,1,0,0:0:0:0:
354,143,60582,1,0,3:0:0:0:
303,210,60972,5,8,0:0:0:0:
264,80,61166,1,0,0:0:0:0:
168,176,61361,1,0,3:0:0:0:
303,210,61555,1,0,3:0:0:0:
176,104,61751,5,2,3:2:0:0:
303,210,61946,1,0,3:0:0:0:
152,288,62140,1,0,3:0:0:0:
152,288,62530,2,2,B|200:296|240:280,1,90,8|0,0:0|0:0,1:2:0:0:
472,352,62920,2,0,B|424:368|376:336,1,90,0|0,3:0|0:0,0:0:0:0:
288,208,63309,70,0,L|272:24,1,180,4|0,0:0|3:0,0:0:0:0:
368,104,63894,1,0,0:0:0:0:
184,72,64088,2,2,B|136:176|208:256,1,180,8|0,0:0|3:0,1:2:0:0:
196,241,64673,1,0,3:0:0:0:
280,296,64868,6,0,B|336:288|400:280,1,90,2|0,3:2|0:0,0:0:0:0:
192,352,65257,2,0,B|112:368|80:368,1,90,0|0,3:0|0:0,0:0:0:0:
16,208,65647,2,2,B|80:176|144:216|152:288,1,180,8|0,0:0|3:0,1:2:0:0:
208,216,66231,1,0,3:0:0:0:
288,256,66426,6,0,B|296:208|280:160,1,90,2|0,3:2|0:0,0:0:0:0:
192,48,66816,2,0,B|184:96|200:144,1,90,0|0,3:0|0:0,0:0:0:0:
96,48,67205,2,2,B|64:152|136:240,1,180,8|2,0:0|3:2,1:2:0:0:
192,272,67790,1,0,3:0:0:0:
376,192,67984,6,0,L|368:88,1,90,2|0,3:2|0:0,0:0:0:0:
288,160,68374,1,0,3:0:0:0:
288,160,68569,1,0,3:0:0:0:
240,240,68764,2,2,L|248:352,1,90,8|0,0:0|0:0,1:2:0:0:
336,288,69153,1,0,3:0:0:0:
336,288,69348,1,0,3:0:0:0:
424,320,69543,70,0,B|472:224|408:144,1,180,2|0,3:2|0:0,0:0:0:0:
112,144,70322,2,2,B|64:240|128:328,1,180,8|0,0:0|0:0,1:2:0:0:
119,315,70907,1,0,3:0:0:0:
256,176,71101,6,0,B|256:128|248:72,1,90,0|0,3:0|3:0,0:0:0:0:
64,80,71491,2,0,B|113:72|163:77,1,90
352,160,71881,2,2,B|344:96|352:48,1,90,8|0,0:0|0:0,1:2:0:0:
512,224,72270,2,0,B|464:240|408:232,1,90,0|0,3:1|3:1,0:1:0:0:
160,352,72660,6,0,B|248:296|352:336,1,180,4|0,0:0|3:0,0:0:0:0:
168,248,73439,2,2,B|104:232|88:144|144:96,1,180,8|0,0:0|0:0,1:2:0:0:
200,168,74023,1,0,3:0:0:0:
224,80,74218,6,0,B|272:64|336:72,1,90,0|0,3:0|0:0,0:0:0:0:
328,160,74608,2,0,B|384:168|424:144,1,90,0|0,3:0|0:0,0:0:0:0:
448,64,74997,2,2,B|448:184|456:272,1,180,10|8,0:0|0:0,1:2:0:0:
453,243,75582,1,8,0:0:0:0:
256,344,75777,5,12,0:0:0:0:
256,344,76361,1,8,0:0:0:0:
260,352,76459,1,0,3:0:0:0:
265,359,76556,1,0,3:0:0:0:
304,264,76751,1,0,3:0:0:0:
240,200,76946,1,8,0:0:0:0:
240,200,77335,1,0,0:0:0:0:
272,112,77530,5,8,0:0:0:0:
272,112,77627,1,0,3:0:0:0:
272,112,77725,1,0,3:0:0:0:
104,56,77920,1,0,3:0:0:0:
120,232,78114,1,8,0:0:0:0:
120,232,78504,1,0,0:0:0:0:
256,224,78699,1,4,0:2:0:0:
328,120,78894,102,0,B|345:210|320:304,1,180,4|0,0:0|0:0,0:0:0:0:
321,298,79673,2,0,B|376:312|433:290,1,90,8|0,0:0|0:0,0:0:0:0:
176,328,80062,2,0,B|192:280|160:232,1,90,8|0,0:0|0:0,0:0:0:0:
96,296,80452,1,0,0:0:0:0:
224,184,80647,2,0,B|184:152|128:168,1,90,8|0,0:0|0:0,0:0:0:0:
96,296,81036,1,0,0:0:0:0:
64,128,81231,2,0,B|48:176|72:224,1,90,8|0,0:0|0:0,0:0:0:0:
256,336,81621,6,0,B|304:344|352:336,1,90,10|0,0:0|0:0,0:0:0:0:
464,216,82010,2,0,B|408:208|368:216,1,90,6|0,0:0|0:0,0:0:0:0:
312,64,82400,2,0,L|304:160,1,90,2|0,0:0|0:0,0:0:0:0:
200,48,82790,2,0,L|208:144,1,90,10|0,0:0|0:0,0:0:0:0:
104,32,83179,2,2,L|80:216,1,180,10|2,0:0|0:2,0:0:0:0:
80,210,83764,1,8,0:0:0:0:
176,304,83959,2,2,B|208:264|192:208,1,90,2|0,0:0|0:0,0:0:0:0:
368,336,84348,102,2,L|264:288,1,90,8|2,0:0|0:2,0:0:0:0:
416,184,84738,2,2,L|312:208,1,90,6|2,0:2|0:2,0:0:0:0:
360,72,85127,2,0,B|320:104|264:88,1,90,4|0,0:0|0:0,0:0:0:0:
200,40,85517,2,0,B|264:56|280:152|224:200,2,180,0|8|8,0:0|0:0|0:0,0:0:0:0:
200,40,86686,5,2,0:2:0:0:
120,72,86881,1,8,0:0:0:0:
192,128,87075,1,0,0:0:0:0:
120,72,87270,1,0,0:0:0:0:
104,160,87465,2,0,L|96:256,1,90,10|0,0:0|0:0,0:0:0:0:
120,72,87855,2,2,B|64:88|16:112,1,90,6|0,0:2|0:0,0:0:0:0:
288,184,88244,102,0,B|296:88,1,90,6|0,0:0|0:0,0:0:0:0:
216,264,88634,2,2,B|304:320|392:264,1,180,2|8,0:0|0:0,0:0:0:0:
440,136,89218,1,0,0:0:0:0:
360,96,89413,2,2,B|344:144|360:192,1,90,8|0,0:0|0:0,0:0:0:0:
176,144,89803,5,2,0:2:0:0:
280,136,89997,1,8,0:0:0:0:
264,216,90192,101,2,0:2:0:0:
248,64,90387,1,0,0:0:0:0:
160,288,90582,5,12,0:0:0:0:
264,336,90777,1,0,0:0:0:0:
376,288,90972,1,8,0:0:0:0:
368,296,91166,1,8,0:0:0:0:
344,192,91361,102,2,B|256:152|160:192,1,180,4|0,0:0|0:0,0:0:0:0:
168,188,91946,1,0,0:0:0:0:
344,104,92140,2,2,B|392:88|448:96,1,90,8|0,0:0|0:0,0:0:0:0:
256,48,92530,2,2,B|208:32|152:40,1,90,4|0,0:2|0:0,0:0:0:0:
16,208,92920,5,2,0:0:0:0:
120,168,93114,1,8,0:0:0:0:
216,240,93309,2,0,B|232:288|200:336,1,90,2|0,0:0|0:0,0:0:0:0:
256,152,93699,2,0,B|240:104|264:64,1,90,10|0,0:0|0:0,0:0:0:0:
336,224,94088,2,2,L|320:328,1,90,4|0,0:2|0:0,0:0:0:0:
472,272,94478,102,2,L|448:88,1,180,4|2,0:0|0:0,0:0:0:0:
448,93,95257,2,0,B|400:88|360:104,1,90,10|0,0:0|0:0,0:0:0:0:
296,264,95647,2,0,B|304:216|296:168,1,90,10|0,0:0|0:0,0:0:0:0:
200,88,96036,1,8,0:0:0:0:
176,224,96231,1,8,0:0:0:0:
296,174,96426,1,0,0:0:0:0:
296,80,96621,5,0,0:0:0:0:
296,80,96718,1,8,0:0:0:0:
296,80,96816,1,8,0:0:0:0:
112,96,97010,1,8,0:3:0:0:
128,280,97205,1,4,0:3:0:0:
312,264,97400,1,4,0:2:0:0:
56,192,97595,102,0,B|-24:120|48:0,2,180,4|0|8,0:0|0:0|0:0,0:0:0:0:
304,144,98764,2,0,B|352:144|408:152,1,90,4|0,0:2|0:0,0:0:0:0:
480,120,99153,2,0,B|472:64|480:8,1,90,2|8,0:2|0:0,0:0:0:0:
272,232,99543,2,0,B|280:288|280:344,1,90
130,171,99933,2,0,B|168:136|232:144,1,90,8|0,0:0|0:0,0:0:0:0:
368,272,100322,2,0,B|392:320|368:376,1,90,10|0,0:0|0:0,0:0:0:0:
160,344,100712,6,2,B|40:328|72:176,2,180,4|2|8,0:0|0:0|0:0,0:0:0:0:
328,208,101686,1,0,0:0:0:0:
248,168,101881,2,0,B|240:224|256:272,1,90,2|0,0:0|0:0,0:0:0:0:
336,344,102270,1,2,0:2:0:0:
328,208,102465,1,8,0:0:0:0:
424,328,102660,2,0,B|424:272|416:224,1,90,2|0,0:0|0:0,0:0:0:0:
168,344,103049,2,0,B|224:360|264:336,1,90,8|0,0:0|0:0,0:0:0:0:
128,128,103439,2,0,L|120:224,1,90,10|2,0:0|0:0,0:0:0:0:
232,72,103829,102,0,L|240:256,2,180,4|0|8,0:0|0:0|0:0,0:0:0:0:
312,32,104803,1,0,0:0:0:0:
152,48,104997,2,0,B|104:56|48:48,1,90,8|0,0:0|0:0,0:0:0:0:
320,144,105387,2,0,B|376:136|424:144,1,90,2|8,0:2|0:0,0:0:0:0:
152,248,105777,2,0,B|104:264|56:248,1,90,2|0,0:2|0:0,0:0:0:0:
312,224,106166,2,2,B|360:264|344:360|264:376,1,180,10|4,0:0|0:2,0:0:0:0:
248,288,106751,1,0,0:0:0:0:
200,136,106946,6,0,L|224:24,1,90,4|0,0:0|0:0,0:0:0:0:
104,168,107335,2,0,L|80:280,1,90,2|0,0:0|0:0,0:0:0:0:
184,224,107725,2,0,L|280:240,1,90,10|2,0:0|0:0,0:0:0:0:
376,176,108114,2,2,B|304:112|200:136,1,180,4|2,0:0|0:2,0:0:0:0:
207,134,108699,1,8,0:0:0:0:
128,312,108894,101,2,0:0:0:0:
256,360,109088,1,0,0:0:0:0:
256,360,109186,1,8,0:0:0:0:
256,360,109283,1,8,0:0:0:0:
376,224,109478,5,8,0:3:0:0:
232,280,109673,1,8,0:3:0:0:
128,160,109868,1,4,0:2:0:0:
264,96,110062,2,0,B|344:112|456:136,1,180,4|0,0:0|0:0,0:0:0:0:
320,360,110842,102,0,L|304:256,1,90,8|0,0:1|0:0,0:0:0:0:
208,128,111231,2,2,L|224:232,1,90,12|0,0:0|0:0,0:0:0:0:
112,344,111621,2,2,L|136:240,1,90,2|8,0:2|0:0,0:0:0:0:
320,80,112010,2,2,L|296:184,1,90,2|0,0:2|0:0,0:0:0:0:
64,160,112400,2,0,L|160:136,1,90,10|0,0:0|0:0,0:0:0:0:
216,32,112790,2,0,L|120:56,1,90,10|0,0:0|0:0,0:0:0:0:
184,344,113179,5,4,0:0:0:0:
416,288,113569,1,2,0:2:0:0:
168,208,113959,1,12,0:0:0:0:
400,144,114348,1,12,0:0:0:0:
256,48,114738,101,8,1:0:0:0:
312,168,114933,1,8,1:0:0:0:
392,64,115127,1,8,0:0:0:0:
192,152,115322,5,2,2:0:0:0:
240,256,115517,1,8,2:3:0:0:
312,168,115712,1,8,2:3:0:0:
184,336,115907,101,12,2:3:0:0:
280,344,116101,1,0,2:0:0:0:
240,256,116296,1,4,2:0:0:0:
256,192,116394,12,0,119413,2:0:0:0:
256,192,127205,53,12,2:2:0:0:
256,192,127790,1,0,0:0:0:0:
252,200,127887,1,8,0:0:0:0:
249,208,127984,1,8,0:0:0:0:
256,104,128179,5,8,0:3:0:0:
360,192,128374,1,4,0:3:0:0:
256,280,128569,1,4,0:3:0:0:
152,192,128764,1,4,0:0:0:0:
152,192,129153,2,0,B|144:72,1,90,0|0,0:0|2:0,0:0:0:0:
146,102,129543,1,8,0:0:0:0:
48,160,129738,5,0,0:0:0:0:
48,160,129933,2,0,L|56:264,1,90,0|0,0:0|2:0,0:0:0:0:
240,336,130322,2,0,B|256:288|232:240,1,90,0|0,0:0|2:0,0:0:0:0:
176,104,130712,1,0,0:0:0:0:
256,120,130907,2,0,L|344:136,1,90,0|8,0:0|0:0,0:0:0:0:
392,208,131296,1,0,0:0:0:0:
464,160,131491,1,0,0:0:0:0:
416,88,131686,1,0,2:0:0:0:
296,224,131881,6,0,L|112:264,1,180
120,262,132465,1,0,0:0:0:0:
48,192,132660,2,0,B|96:176|152:168,1,90,8|0,0:0|2:0,0:0:0:0:
232,344,133049,2,0,B|280:336|336:320,1,90
376,224,133439,70,0,B|328:208|280:224,1,90,0|0,0:0|2:0,0:0:0:0:
208,264,133829,2,0,B|224:216|208:168,1,90
168,96,134218,2,0,B|216:112|264:96,1,90,8|0,0:0|2:0,0:0:0:0:
344,56,134608,2,0,B|328:104|344:152,1,90
341,144,134997,6,0,B|424:96|520:136,2,180,0|0|8,0:0|0:0|0:0,0:0:0:0:
341,144,135972,1,0,2:0:0:0:
200,232,136166,2,0,B|256:240|296:208,1,90,0|0,0:0|2:0,0:0:0:0:
88,272,136556,5,0,0:0:0:0:
232,152,136751,1,0,0:0:0:0:
88,272,136946,2,0,B|64:232|80:168,1,90,0|0,0:0|2:0,0:0:0:0:
144,32,137335,2,0,L|156:136,1,90,8|0,0:0|2:0,0:0:0:0:
245,240,137725,2,0,L|229:136,1,90
88,272,138114,6,0,B|128:304|176:296,1,90,0|0,0:0|2:0,0:0:0:0:
416,256,138504,2,0,B|376:224|328:232,1,90,0|0,0:0|2:0,0:0:0:0:
264,352,138894,69,8,0:0:0:0:
224,208,139088,1,0,0:0:0:0:
264,352,139283,1,0,0:0:0:0:
224,208,139478,1,0,0:0:0:0:
224,208,139575,1,0,0:0:0:0:
224,208,139673,2,0,L|248:112,1,90,0|0,0:0|2:0,0:0:0:0:
72,152,140062,2,0,B|56:200|80:240,1,90,0|0,0:0|2:0,0:0:0:0:
344,184,140452,5,8,0:0:0:0:
384,112,140647,2,0,B|280:72|216:168,1,180
264,336,141231,6,0,B|464:360,1,180,4|0,0:0|0:0,0:0:0:0:
442,357,141816,1,0,2:0:0:0:
464,232,142010,5,8,0:0:0:0:
368,216,142205,1,0,2:0:0:0:
328,128,142400,69,0,0:0:0:0:
368,216,142595,1,0,0:0:0:0:
296,280,142790,5,0,0:0:0:0:
368,216,142984,1,0,2:0:0:0:
272,192,143179,1,0,0:0:0:0:
200,256,143374,1,0,2:0:0:0:
344,128,143569,6,0,B|360:80|336:24,1,90,8|0,0:0|2:0,0:0:0:0:
264,88,143959,1,0,0:0:0:0:
176,64,144153,1,0,0:0:0:0:
176,64,144251,1,0,0:0:0:0:
176,64,144348,2,0,B|112:72|64:80,1,90,0|0,0:0|2:0,0:0:0:0:
24,168,144738,6,0,B|72:184|120:152,1,90,0|0,0:0|2:0,0:0:0:0:
216,120,145127,1,8,0:0:0:0:
160,272,145322,1,0,0:0:0:0:
224,216,145517,2,0,B|256:256|240:312,1,90
96,336,145907,2,0,B|64:296|80:240,1,90,0|0,0:0|2:0,0:0:0:0:
304,144,146296,70,0,B|320:40,1,90,0|0,0:0|2:0,0:0:0:0:
416,200,146686,2,0,B|431:259|395:310,1,90,8|0,0:0|2:0,0:0:0:0:
360,360,147075,1,0,0:0:0:0:
360,360,147270,1,0,0:0:0:0:
184,368,147465,6,0,L|288:352,1,90,0|0,0:0|2:0,0:0:0:0:
112,304,147855,2,0,B|88:256|128:192,1,90,0|0,0:0|2:0,0:0:0:0:
200,264,148244,2,0,B|312:304|360:184,1,180,8|0,0:0|0:0,0:0:0:0:
168,152,148829,5,0,0:0:0:0:
168,152,148926,1,0,0:0:0:0:
168,152,149023,2,0,B|144:104|160:48,1,90,0|0,0:0|2:0,0:0:0:0:
272,184,149413,2,0,B|280:128|256:88,1,90,0|0,0:0|2:0,0:0:0:0:
192,248,149803,2,0,B|88:296|24:192,1,180,8|0,0:0|0:0,0:0:0:0:
34,207,150387,1,0,0:0:0:0:
191,157,150582,6,0,B|295:133,1,90,0|0,0:0|2:0,0:0:0:0:
279,269,150972,2,0,L|183:245,1,90,0|0,0:0|2:0,2:0:0:0:
278,136,151361,2,0,L|262:34,1,90,8|0,0:0|2:0,0:0:0:0:
191,247,151751,2,0,L|207:349,1,90
128,168,152140,70,0,B|64:192|24:216,1,90,0|0,0:0|2:0,0:0:0:0:
224,96,152530,2,0,B|260:101|308:125,1,90,8|0,0:0|2:0,2:0:0:0:
160,272,152920,1,8,0:0:0:0:
232,192,153114,1,0,0:0:0:0:
128,168,153309,1,0,0:0:0:0:
256,288,153699,6,0,B|320:280|352:192|304:136,1,180,4|0,0:0|0:0,0:0:0:0:
311,146,154478,2,0,B|359:162|407:154,1,90,8|0,0:0|2:0,0:0:0:0:
232,64,154868,2,0,B|184:48|136:56,1,90,0|0,0:0|2:0,0:0:0:0:
256,240,155257,2,0,B|304:256|360:232,1,90,0|0,0:0|2:0,0:0:0:0:
168,144,155647,2,0,B|120:128|64:152,1,90,0|0,0:0|2:0,0:0:0:0:
192,336,156036,2,0,B|248:344|296:312,1,90,8|0,0:0|0:0,0:0:0:0:
96,240,156426,2,0,B|40:232|-8:264,1,90,0|0,0:0|2:0,0:0:0:0:
80,336,156816,5,0,0:0:0:0:
280,200,157205,1,0,0:0:0:0:
56,120,157595,1,8,0:0:0:0:
320,40,157984,1,0,0:0:0:0:
200,312,158374,5,0,0:0:0:0:
272,248,158569,1,8,0:0:0:0:
208,176,158764,1,0,0:0:0:0:
136,240,158959,1,0,2:0:0:0:
296,168,159153,69,8,0:0:0:0:
368,272,159348,1,0,2:0:0:0:
432,144,159543,5,0,0:0:0:0:
296,168,159738,1,0,0:0:0:0:
336,32,159933,5,4,0:0:0:0:
224,304,160322,1,0,0:0:0:0:
64,80,160712,1,8,0:0:0:0:
376,208,161101,2,0,B|392:256|384:304,1,90,0|0,0:0|1:0,0:0:0:0:
104,280,161491,6,0,L|208:272,1,90,0|0,0:0|2:0,0:0:0:0:
376,208,161881,2,0,L|272:216,1,90,0|0,0:0|2:0,0:0:0:0:
200,136,162270,2,0,L|192:24,1,90,8|0,0:0|2:0,0:0:0:0:
296,288,162660,2,0,L|304:392,1,90,0|0,0:0|1:0,0:0:0:0:
128,312,163049,70,0,B|104:208|168:224|144:120,2,180,0|0|8,0:0|0:0|0:0,0:0:0:0:
312,352,164023,1,0,0:0:0:0:
376,288,164218,2,0,B|336:256|272:264,1,90,0|0,0:0|2:0,0:0:0:0:
224,320,164608,1,0,0:0:0:0:
256,152,164803,1,0,0:0:0:0:
207,231,164997,2,0,L|223:319,1,90,4|0,0:2|2:0,0:0:0:0:
184,80,165387,5,8,0:0:0:0:
184,80,165777,1,8,0:0:0:0:
336,192,165972,1,8,0:0:0:0:
120,296,166166,2,0,L|104:96,2,180,4|0|8,0:0|0:0|0:0,0:0:0:0:
240,336,167140,1,0,2:0:0:0:
304,288,167335,2,0,B|312:240|304:192,1,90,0|0,0:0|2:0,0:0:0:0:
256,120,167725,5,0,0:0:0:0:
176,176,167920,1,8,0:0:0:0:
256,120,168114,1,0,2:0:0:0:
176,64,168309,1,0,1:0:0:0:
256,120,168504,2,0,L|368:112,1,90,8|0,0:0|2:0,0:0:0:0:
424,56,168894,5,0,0:0:0:0:
456,144,169088,1,0,0:0:0:0:
456,144,169186,1,0,0:0:0:0:
456,144,169283,1,0,0:0:0:0:
400,208,169478,1,8,0:0:0:0:
424,288,169673,2,0,B|440:336|432:384,1,90,0|0,0:0|2:0,0:0:0:0:
232,280,170062,2,0,B|224:240|224:184,1,90,8|0,0:0|2:0,0:0:0:0:
336,184,170452,2,0,B|344:232|344:288,1,90,0|0,0:0|1:0,0:0:0:0:
152,344,170842,70,0,B|112:264|136:168,1,180
135,168,171426,1,0,2:0:0:0:
48,200,171621,2,0,L|56:104,1,90,8|0,0:0|2:0,0:0:0:0:
240,248,172010,2,0,L|232:344,1,90,0|0,0:0|1:0,0:0:0:0:
112,368,172400,5,4,0:0:0:0:
112,368,172790,1,0,0:0:0:0:
432,264,173179,1,8,0:0:0:0:
432,264,173569,1,0,0:0:0:0:
360,200,173764,5,0,0:0:0:0:
360,200,173861,1,0,0:0:0:0:
360,200,173959,2,0,B|336:160|352:112,1,90,0|0,0:0|2:0,0:0:0:0:
264,168,174348,2,0,B|224:200|168:184,1,90,0|0,0:0|2:0,0:0:0:0:
88,160,174738,2,0,L|72:64,1,90,8|0,0:0|1:0,0:0:0:0:
232,264,175127,2,0,L|208:368,1,90,0|0,0:0|2:0,0:0:0:0:
424,240,175517,6,0,L|400:24,2,180,4|0|8,0:0|0:0|0:0,0:0:0:0:
432,328,176686,1,0,0:0:0:0:
216,224,177075,2,0,L|248:32,2,180,0|0|8,0:0|0:0|0:0,0:0:0:0:
192,352,178244,1,4,0:2:0:0:
104,88,178634,5,4,0:0:0:0:
104,88,178829,2,0,B|152:72|200:64,1,90
272,32,179218,1,0,0:0:0:0:
456,176,179413,2,0,B|408:160|352:152,1,90,4|0,0:0|0:0,0:0:0:0:
120,224,179803,2,0,B|176:208|232:200,1,90,4|0,0:0|0:0,0:0:0:0:
312,224,180192,6,0,L|304:320,2,60,0|8|8,3:0|0:0|0:0,0:0:0:0:
272,138,180582,102,0,L|264:66,2,60,8|8|8,0:0|0:0|0:0,0:0:0:0:
207,203,180972,6,0,L|195:295,2,60,0|8|8,3:0|0:0|0:0,0:0:0:0:
152,128,181361,102,0,B|142:97|149:55,2,60,8|8|4,0:0|0:0|2:2,0:0:0:0:
112,208,181751,6,0,B|48:304|144:384,2,180,4|0|8,0:0|0:0|0:0,0:0:0:0:
416,336,182920,1,8,0:0:0:0:
416,336,183114,1,0,0:0:0:0:
320,352,183309,2,0,L|344:256,1,90,0|8,0:0|0:0,0:0:0:0:
256,152,183699,2,0,L|224:264,1,90
368,152,184088,2,0,L|400:32,1,90,8|0,0:0|0:0,0:0:0:0:
248,320,184478,102,0,B|208:352|152:336,1,90,10|0,0:0|0:0,0:0:0:0:
64,184,184868,2,0,B|40:64|160:16,2,180,6|2|8,0:0|0:0|0:0,0:0:0:0:
64,184,185842,1,0,0:0:0:0:
256,232,186036,2,0,B|288:192|272:136,1,90,10|0,0:0|0:0,0:0:0:0:
232,64,186426,5,2,0:2:0:0:
360,184,186621,1,10,0:0:0:0:
280,336,186816,1,0,0:0:0:0:
152,224,187010,1,2,0:2:0:0:
344,88,187205,2,0,B|400:96|456:120,1,90,10|0,0:0|0:0,0:0:0:0:
480,304,187595,2,2,B|432:304|384:280,1,90,4|0,0:2|0:0,0:0:0:0:
264,184,187984,102,0,L|240:88,1,90,4|0,0:0|0:0,0:0:0:0:
88,184,188374,2,0,L|128:368,1,180,0|8,0:0|0:0,0:0:0:0:
24,328,188959,1,0,0:0:0:0:
232,240,189153,2,0,B|280:232|328:256,1,90,8|0,0:0|0:0,0:0:0:0:
296,120,189543,5,0,0:0:0:0:
216,160,189738,1,8,0:0:0:0:
128,144,189933,2,0,B|120:40,1,90
88,240,190322,2,0,B|8:296,1,90,10|0,0:0|0:0,0:0:0:0:
184,232,190712,2,0,B|272:280,1,90,10|0,0:0|0:0,0:0:0:0:
416,368,191101,102,2,B|360:280|424:184,1,180,6|0,0:0|0:0,0:0:0:0:
415,197,191686,1,0,0:0:0:0:
240,96,191881,2,0,B|184:88|144:112,1,90,8|0,0:0|0:0,0:0:0:0:
16,48,192270,2,0,L|8:144,1,90,10|0,0:0|0:0,0:0:0:0:
16,224,192660,5,2,0:2:0:0:
112,304,192855,1,8,0:0:0:0:
240,264,193049,2,2,B|248:216|240:160,1,90,2|0,0:2|0:0,0:0:0:0:
408,256,193439,2,0,B|403:145,1,90,12|0,0:0|0:0,0:0:0:0:
456,88,193829,101,10,0:0:0:0:
320,200,194023,1,8,0:0:0:0:
496,256,194218,2,0,B|504:312|504:352,1,90,4|0,0:0|0:0,0:0:0:0:
288,320,194608,2,0,B|328:288|384:296,1,90
184,256,194997,2,0,B|160:208|104:200,1,90,8|0,0:0|0:0,0:0:0:0:
120,360,195387,2,2,B|168:368|208:336,1,90,10|0,0:0|0:0,0:0:0:0:
336,192,195777,5,0,0:0:0:0:
336,192,195972,1,8,0:0:0:0:
296,112,196166,2,0,B|248:104|192:96,1,90,2|0,0:0|0:0,0:0:0:0:
322,280,196556,2,0,B|330:232|338:176,1,90,10|0,0:0|0:0,0:0:0:0:
152,296,196946,2,0,B|199:306|256:312,1,90,10|0,0:0|0:0,0:0:0:0:
192,192,197335,102,0,B|104:176|-8:168,2,180,6|2|10,0:0|0:1|0:0,0:0:0:0:
208,104,198309,1,0,0:0:0:0:
296,120,198504,1,10,0:0:0:0:
280,208,198699,1,0,0:0:0:0:
144,40,198894,5,8,0:0:0:0:
144,40,199283,1,8,0:0:0:0:
376,80,199478,1,8,2:1:0:0:
128,128,199673,101,8,0:0:0:0:
352,168,199868,1,8,0:3:0:0:
176,208,200062,5,4,0:3:0:0:
272,176,200257,1,4,0:3:0:0:
72,296,200452,102,0,B|160:368|248:304,2,180,4|0|8,0:0|0:0|0:0,0:0:0:0:
72,296,201426,1,0,0:0:0:0:
32,208,201621,1,12,0:0:0:0:
96,112,201816,1,0,0:0:0:0:
24,24,202010,1,2,0:2:0:0:
96,112,202205,1,8,0:0:0:0:
32,208,202400,2,0,B|8:168|16:112,1,90,2|0,0:2|0:0,0:0:0:0:
256,208,202790,2,0,B|312:216|344:192,1,90,8|0,0:0|0:0,0:0:0:0:
144,216,203179,5,10,0:0:0:0:
152,352,203374,1,0,0:0:0:0:
296,344,203569,2,0,B|288:152,2,180,6|2|8,0:0|0:2|0:0,0:0:0:0:
32,336,204543,1,0,0:0:0:0:
64,256,204738,2,2,B|72:208|56:160,1,90,10|0,0:0|0:0,0:0:0:0:
104,32,205127,101,2,0:2:0:0:
192,40,205322,1,8,0:0:0:0:
280,48,205517,1,2,0:0:0:0:
368,56,205712,1,0,0:0:0:0:
456,64,205907,2,0,B|504:144|456:248,1,180,8|4,0:0|0:2,0:0:0:0:
460,236,206491,1,2,0:0:0:0:
216,312,206686,5,4,0:0:0:0:
320,136,207075,1,2,0:2:0:0:
408,328,207465,1,8,0:0:0:0:
136,152,207855,101,8,0:0:0:0:
296,104,208049,1,0,0:0:0:0:
136,152,208244,1,2,0:2:0:0:
208,48,208439,1,8,0:0:0:0:
256,208,208634,2,0,B|312:224|360:192,1,90,2|0,0:2|0:0,0:0:0:0:
408,128,209023,2,0,L|400:16,1,90,10|0,0:0|0:0,0:0:0:0:
424,264,209413,2,0,L|432:368,1,90,10|0,0:0|0:0,0:0:0:0:
336,288,209803,6,2,B|288:200|328:104,1,180,6|2,0:0|0:0,0:0:0:0:
323,114,210387,1,0,0:0:0:0:
232,272,210582,2,0,B|192:304|136:288,1,90,8|0,0:0|0:0,0:0:0:0:
64,152,210972,2,0,B|56:104|64:40,1,90,14|0,0:0|0:0,0:0:0:0:
64,152,211361,101,2,0:2:0:0:
80,240,211556,1,8,0:0:0:0:
64,328,211751,2,2,B|112:312|168:320,1,90,2|2,0:2|0:0,0:0:0:0:
152,318,212043,1,8,0:0:0:0:
152,318,212140,1,0,0:0:0:0:
352,240,212335,1,0,0:0:0:0:
384,336,212530,2,0,B|336:352|288:320,1,90,8|4,0:3|0:3,0:0:0:0:
184,192,212920,6,0,B|128:88|232:16,2,180,4|0|8,0:0|0:0|0:0,0:0:0:0:
400,264,214088,2,0,L|424:152,1,90,12|0,0:0|0:0,0:0:0:0:
320,304,214478,1,2,0:2:0:0:
240,272,214673,1,8,0:0:0:0:
320,304,214868,1,4,0:2:0:0:
160,336,215062,1,0,0:0:0:0:
128,240,215257,2,0,L|144:144,1,90,8|0,0:0|0:0,0:0:0:0:
48,184,215647,2,0,L|32:288,1,90,8|0,0:0|0:0,0:0:0:0:
200,336,216036,101,12,0:0:0:0:
208,320,216231,1,0,0:0:0:0:
288,312,216426,5,0,0:0:0:0:
272,240,216621,1,0,0:0:0:0:
352,216,216816,101,8,0:0:0:0:
376,96,217010,1,8,0:0:0:0:
272,144,217205,5,8,0:0:0:0:
272,144,217400,1,8,0:0:0:0:
224,56,217595,102,0,B|176:48|128:64,1,90,8|0,0:0|0:0,0:0:0:0:
56,200,217984,5,8,0:3:0:0:
184,160,218179,1,4,0:3:0:0:
368,216,218374,101,8,0:3:0:0:
208,336,218569,1,4,0:3:0:0:
248,56,218764,5,8,0:3:0:0:
280,240,218959,1,4,0:3:0:0:
400,88,219153,38,0,B|456:120|464:200|416:248,2,180,4|0|4,0:0|0:0|0:0,0:0:0:0:
328,144,220127,1,0,0:0:0:0:
280,64,220322,1,0,0:0:0:0:
120,80,220517,1,8,0:0:0:0:
192,32,220712,5,0,0:0:0:0:
224,176,220907,1,8,0:0:0:0:
176,304,221101,1,0,0:0:0:0:
128,224,221296,1,0,0:0:0:0:
216,216,221491,1,8,0:0:0:0:
168,144,221686,5,0,0:0:0:0:
88,304,221881,1,2,0:2:0:0:
264,288,222075,1,2,0:2:0:0:
24,232,222270,6,0,L|8:136,1,90,4|0,0:0|0:0,0:0:0:0:
96,192,222660,2,0,L|128:40,1,135,0|0,0:0|2:0,0:0:0:0:
168,48,223049,2,0,B|216:56|240:112,1,90,8|0,0:0|0:0,0:0:0:0:
296,320,223439,2,0,L|312:224,1,90,4|8,0:0|0:0,0:0:0:0:
408,112,223829,69,0,0:0:0:0:
253,153,224023,1,8,0:0:0:0:
320,96,224218,5,2,0:2:0:0:
166,138,224413,1,2,0:2:0:0:
253,153,224608,5,8,0:0:0:0:
104,200,224803,1,0,0:0:0:0:
166,138,224997,5,10,0:0:0:0:
24,176,225192,1,0,0:0:0:0:
208,256,225387,70,0,B|272:232|320:224,1,90,4|0,0:0|0:0,0:0:0:0:
320,32,225777,2,0,B|256:56|208:64,1,90,2|0,0:2|0:0,0:0:0:0:
64,200,226166,2,0,B|160:200|240:136,1,180,8|4,0:0|0:2,0:0:0:0:
416,104,226751,5,8,0:0:0:0:
416,104,226848,1,0,0:0:0:0:
416,104,226946,2,0,B|376:112|328:136,1,90,0|8,0:0|0:0,0:0:0:0:
208,272,227335,1,2,0:2:0:0:
224,176,227530,1,2,0:2:0:0:
120,160,227725,2,0,B|104:112|120:64,1,90,8|0,0:0|0:0,0:0:0:0:
208,272,228114,5,2,0:2:0:0:
128,336,228309,1,0,0:0:0:0:
112,240,228504,2,0,B|72:240|8:248,1,90,4|0,0:0|0:0,0:0:0:0:
272,144,228894,2,0,B|280:48,1,90,2|0,0:2|0:0,0:0:0:0:
464,240,229283,6,0,B|416:267|357:251,1,107.999996704102,4|0,0:0|0:0,0:0:0:0:
168,136,229673,2,0,B|112:120|56:144,1,107.999996704102,4|0,0:0|0:0,0:0:0:0:
160,256,230062,69,0,0:0:0:0:
248,288,230249,1,8,0:0:0:0:
248,288,230343,1,8,0:0:0:0:
248,288,230437,1,8,0:0:0:0:
304,200,230624,1,4,0:3:0:0:
164,350,230812,5,8,0:0:0:0:
164,350,230905,1,8,0:0:0:0:
164,350,230999,1,8,0:0:0:0:
56,208,231187,5,8,0:0:0:0:
160,256,231374,1,4,0:3:0:0:
248,176,231562,2,2,B|280:72|184:24,1,180,4|2,0:0|0:2,0:0:0:0:
186,25,232170,1,2,0:2:0:0:
336,120,232372,2,0,L|432:96,1,90,4|0,0:0|0:0,0:0:0:0:
336,280,232778,2,0,L|232:272,1,90,8|0,0:0|0:0,0:0:0:0:
72,240,233179,2,0,B|120:216|176:224,1,90,2|0,0:2|0:0,0:0:0:0:
296,192,233568,1,2,0:2:0:0:
296,192,233763,1,2,0:2:0:0:
136,296,233958,5,4,0:2:0:0:
224,304,234153,1,0,0:0:0:0:
200,384,234347,2,0,B|312:376,1,90,2|0,0:2|0:0,0:0:0:0:
480,376,234737,2,0,B|368:352,1,90,4|0,0:0|0:0,0:0:0:0:
200,216,235127,2,0,B|304:240,1,90,2|0,0:2|0:0,0:0:0:0:
464,296,235516,2,0,L|392:224,1,90,2|0,0:2|0:0,0:0:0:0:
264,72,235906,2,0,L|312:160,1,90,4|0,0:0|0:0,0:0:0:0:
480,200,236295,70,0,L|464:56,1,120,4|8,0:2|0:0,0:0:0:0:
384,96,236685,2,0,B|344:96|304:104,2,60,8|8|8,0:0|0:0|0:0,0:0:0:0:
288,176,237075,2,0,B|329:180|364:172,2,60,8|8|8,0:0|0:0|0:3,0:0:0:0:
216,112,237464,2,0,L|208:40,2,60,8|4|8,0:3|0:3|0:3,0:0:0:0:
200,200,237854,6,0,B|172:279|220:344,2,135,6|2|2,0:0|0:0|0:0,0:0:0:0:
312,184,238633,2,0,B|350:113|296:40,2,135,2|2|2,0:0|0:0|0:0,0:0:0:0:
104,264,239412,2,0,B|32:248|8:152,2,135,2|2|2,0:0|0:0|0:0,0:0:0:0:
256,304,240191,2,0,B|311:265|400:288,2,135,6|2|2,0:0|0:0|0:0,0:0:0:0:
200,232,240971,6,0,B|192:184|192:136,1,90,8|0,0:0|0:0,0:0:0:0:
280,200,241360,2,0,B|384:208,1,90,4|0,0:0|0:0,0:0:0:0:
440,128,241750,2,0,L|344:128,1,90,4|0,2:2|0:0,0:0:0:0:
168,336,242140,6,0,L|368:304,1,180,4|2,0:0|0:2,0:0:0:0:
345,307,242724,1,0,0:0:0:0:
432,280,242919,1,2,0:2:0:0:
432,280,243114,1,0,0:0:0:0:
472,200,243308,2,0,B|480:153|472:106,1,90,4|0,0:0|0:0,0:0:0:0:
336,152,243698,2,0,L|232:160,1,90,2|2,0:2|0:2,0:0:0:0:
152,168,244088,70,0,B|128:240|160:312,1,135,4|0,0:0|2:0,0:0:0:0:
168,312,244477,1,2,0:2:0:0:
272,240,244672,1,0,0:0:0:0:
56,224,244867,2,0,L|40:88,1,135,4|0,0:0|2:0,0:0:0:0:
40,89,245256,2,0,B|80:124|141:103,1,90,2|0,0:2|0:0,0:0:0:0:
296,96,245646,6,0,L|408:72,1,90,8|0,0:0|0:0,0:0:0:0:
224,192,246036,2,0,L|136:176,1,90,4|0,0:3|0:0,0:0:0:0:
320,280,246425,2,0,L|416:264,1,90,8|0,0:3|0:0,0:0:0:0:
208,344,246815,2,0,L|64:312,1,135,4|0,0:0|2:0,0:0:0:0:
76,314,247204,2,0,B|32:216,1,90,2|0,0:2|0:0,0:0:0:0:
336,144,247594,2,0,L|240:168,1,90,2|0,0:2|0:0,0:0:0:0:
88,128,247984,2,0,B|128:96|176:104,1,90,12|0,0:0|0:0,0:0:0:0:
288,56,248373,37,2,0:2:0:0:
376,272,248568,1,0,0:0:0:0:
472,128,248763,6,2,B|432:88|368:104,1,107.999996704102,12|0,0:0|2:0,0:0:0:0:
192,304,249153,102,2,B|248:328|304:288,1,107.999996704102,12|0,0:0|2:0,0:0:0:0:
192,80,249542,6,2,L|72:96,1,107.999996704102,12|0,0:0|2:0,0:0:0:0:
416,328,249932,102,2,L|408:200,1,107.999996704102,12|0,0:0|0:0,0:0:0:0:
72,304,250321,22,2,B|168:328|256:280,1,180,4|0,0:0|0:0,0:0:0:0:
328,336,250906,1,0,0:0:0:0:
480,200,251101,2,2,B|433:191|391:214,1,90,8|0,0:0|0:0,0:0:0:0:
216,152,251490,2,2,B|262:166|286:217,1,90,14|0,0:0|0:0,0:0:0:0:
408,64,251880,6,0,B|358:75|329:116,1,90,0|10,0:0|0:0,0:0:0:0:
224,304,252269,2,0,B|273:319|324:294,1,90,0|2,0:0|0:0,0:0:0:0:
64,232,252659,2,2,L|40:336,1,90,10|0,0:0|0:0,0:0:0:0:
168,232,253049,2,0,L|184:136,1,90,10|0,0:0|0:0,0:0:0:0:
432,232,253438,70,0,B|454:276|437:325,1,90,6|0,0:0|0:0,0:0:0:0:
264,168,253828,2,2,B|344:120|448:144,1,180,2|10,0:0|0:0,0:0:0:0:
437,141,254412,1,0,0:0:0:0:
216,320,254607,2,0,L|208:208,1,90,10|0,0:0|0:0,0:0:0:0:
408,320,254997,2,0,B|368:344|312:328,1,90,2|10,0:2|0:0,0:0:0:0:
104,144,255386,2,0,B|153:125|212:115,1,90,2|0,0:0|0:0,0:0:0:0:
304,48,255776,5,8,0:0:0:0:
272,144,255971,1,0,0:0:0:0:
296,240,256166,1,10,0:0:0:0:
264,336,256360,1,2,0:0:0:0:
88,224,256555,6,2,L|64:120,1,90,4|0,0:0|0:0,0:0:0:0:
240,184,256945,2,0,L|176:256,1,90
136,80,257334,2,2,B|184:88|232:104,1,90,10|0,0:0|0:0,0:0:0:0:
368,288,257724,2,0,B|320:280|272:264,1,90,8|2,0:0|0:0,0:0:0:0:
160,168,258114,5,0,0:0:0:0:
160,168,258308,1,10,0:0:0:0:
344,200,258504,1,0,0:0:0:0:
344,200,258698,1,2,0:0:0:0:
128,344,258893,70,2,B|116:297|120:248,1,90,10|0,0:0|0:0,0:0:0:0:
400,40,259282,2,2,B|412:87|408:136,1,90,10|2,0:0|0:0,0:0:0:0:
405,147,259575,1,0,0:0:0:0:
399,164,259672,2,0,B|372:251|417:343,2,180,6|2|8,0:0|0:0|0:0,0:0:0:0:
144,72,260646,1,0,0:0:0:0:
144,72,260841,2,0,B|128:112|136:168,1,90,14|2,0:0|0:0,0:0:0:0:
240,268,261230,5,0,0:0:0:0:
399,164,261425,1,10,0:0:0:0:
376,292,261620,1,2,0:2:0:0:
264,140,261815,1,2,0:0:0:0:
320,216,262009,1,12,0:0:0:0:
472,128,262204,5,2,0:0:0:0:
360,48,262399,1,10,0:0:0:0:
224,56,262594,1,8,0:0:0:0:
144,168,262789,6,0,B|104:264|168:336,2,180,4|0|10,0:0|0:0|0:0,0:0:0:0:
168,80,263764,1,0,0:0:0:0:
336,104,263958,2,2,L|240:128,1,90,14|0,0:0|0:0,0:0:0:0:
432,72,264347,69,2,0:2:0:0:
408,304,264542,1,8,0:0:0:0:
440,216,264737,2,0,L|352:232,1,90,2|0,0:0|0:0,0:0:0:0:
432,72,265127,2,0,L|384:160,1,90,10|2,0:0|0:0,0:0:0:0:
192,120,265516,2,0,B|246:113|295:100,1,90,10|0,0:0|0:0,0:0:0:0:
224,224,265906,6,0,B|128:192|40:240,2,180,6|2|10,0:0|0:0|0:0,0:0:0:0:
288,288,266880,1,0,0:0:0:0:
224,80,267075,1,10,0:0:0:0:
224,80,267172,1,8,0:0:0:0:
224,80,267269,1,8,0:0:0:0:
320,208,267464,6,0,L|304:272,1,45,8|0,0:3|0:0,0:0:0:0:
160,216,267756,1,8,0:0:0:0:
168,199,267854,1,8,0:0:0:0:
157,308,268049,5,8,0:0:0:0:
162,325,268146,1,8,0:0:0:0:
169,341,268243,1,8,0:0:0:0:
175,357,268341,1,8,0:0:0:0:
240,120,268536,1,0,0:0:0:0:
240,120,268633,2,0,B|288:112|344:120,1,90,4|4,0:3|0:2,0:0:0:0:
464,56,269023,70,2,L|472:248,1,180,4|0,0:0|0:0,0:0:0:0:
408,296,269607,1,0,0:0:0:0:
160,248,269802,2,0,B|200:240|256:240,1,90,10|0,0:0|0:0,0:0:0:0:
376,48,270191,2,2,B|384:104|376:144,1,90,12|0,0:0|0:0,0:0:0:0:
64,128,270581,6,0,B|112:112|160:120,1,90,2|10,0:2|0:0,0:0:0:0:
144,344,270971,2,0,B|96:360|48:352,1,90,2|2,0:2|0:0,0:0:0:0:
320,80,271360,2,0,B|336:120|328:168,1,90,10|0,0:0|0:0,0:0:0:0:
256,344,271750,2,2,B|232:296|256:240,1,90,10|0,0:0|0:0,0:0:0:0:
488,184,272140,6,2,B|448:216|400:200,1,90,4|0,0:0|0:0,0:0:0:0:
120,208,272529,2,2,B|192:136|288:160,1,180,2|8,0:0|0:0,0:0:0:0:
284,159,273114,1,0,0:0:0:0:
88,120,273309,2,0,B|56:80|64:24,1,90,10|0,0:0|0:0,0:0:0:0:
216,272,273698,2,2,B|264:304|328:272,1,90,2|8,0:2|0:0,0:0:0:0:
416,144,274088,2,0,B|368:112|312:136,1,90,2|0,0:0|0:0,0:0:0:0:
120,200,274477,5,10,0:0:0:0:
120,200,274867,1,10,0:0:0:0:
120,200,275256,2,2,L|134:392,1,180,4|0,0:0|0:0,0:0:0:0:
48,328,275841,1,2,0:0:0:0:
216,232,276036,2,0,B|224:176|208:136,1,90,8|2,0:0|0:0,0:0:0:0:
179,58,276425,2,2,L|211:146,1,90,8|0,0:0|0:0,0:0:0:0:
280,64,276815,69,2,0:2:0:0:
312,192,277010,1,10,0:0:0:0:
248,312,277204,2,0,L|368:296,1,90,0|2,0:0|0:0,0:0:0:0:
416,144,277594,2,0,L|376:232,1,90,10|0,0:0|0:0,0:0:0:0:
472,368,277984,2,2,L|408:288,1,90,10|0,0:0|0:0,0:0:0:0:
128,360,278373,6,2,B|72:272|144:184,1,180,6|0,0:0|0:0,0:0:0:0:
137,192,278958,1,2,0:0:0:0:
224,40,279153,2,0,B|272:64|304:112,1,90,8|2,0:0|0:0,0:0:0:0:
64,120,279542,2,0,B|32:168|24:216,1,90,10|0,0:0|0:0,0:0:0:0:
256,352,279932,5,2,0:2:0:0:
272,168,280127,1,10,0:0:0:0:
120,248,280321,1,2,0:2:0:0:
256,352,280516,1,2,0:0:0:0:
280,64,280711,5,14,0:0:0:0:
112,144,280905,1,0,0:0:0:0:
264,264,281101,1,14,0:0:0:0:
280,64,281295,1,2,0:0:0:0:
224,160,281490,70,0,B|312:144|408:152,2,180,4|0|8,0:0|0:0|0:0,0:0:0:0:
152,272,282464,1,2,0:0:0:0:
152,272,282659,2,0,L|144:400,1,90,12|2,0:0|0:0,0:0:0:0:
56,176,283049,6,2,L|160:152,1,90,2|8,0:2|0:0,0:0:0:0:
448,256,283438,2,0,L|336:224,1,90,2|0,0:0|0:0,0:0:0:0:
216,352,283828,2,2,L|240:248,1,90,12|2,0:0|0:0,0:0:0:0:
312,32,284217,2,2,B|360:120|272:208,1,180,10|4,0:0|0:0,0:0:0:0:
64,280,284997,5,0,0:0:0:0:
282,196,285386,1,4,0:0:0:0:
176,32,285776,1,0,0:0:0:0:
168,160,286166,69,8,0:0:0:0:
320,104,286360,1,8,0:0:0:0:
376,256,286555,1,8,0:3:0:0:
224,312,286750,1,2,2:2:0:0:
243,132,286945,101,8,0:3:0:0:
345,182,287140,1,2,2:2:0:0:
300,288,287334,1,4,0:3:0:0:
196,238,287529,1,2,2:2:0:0:
269,212,287724,101,4,0:0:0:0:
256,192,287821,12,2,311880,2:2:0:0:
