osu file format v14

[General]
AudioFilename: audio.mp3
AudioLeadIn: 0
PreviewTime: 1443
Countdown: 0
SampleSet: Soft
StackLeniency: 0.7
Mode: 0
LetterboxInBreaks: 0
WidescreenStoryboard: 1

[Editor]
Bookmarks: 24031,35325,46619,52090,114205,125676,125677,153736,249911,306735
DistanceSpacing: 1.1
BeatDivisor: 4
GridSize: 4
TimelineZoom: 2.2

[Metadata]
Title:Find the blue
TitleUnicode:Find the blue
Artist:Ito Kanako
ArtistUnicode:いとう かなこ
Creator:wajinshu
Version:Delusion
Source:CHAOS;HEAD
Tags:ChäoS;HEAd opening theme Collab Komore カオスヘッド visual novel nitroplus 5pb science adventure Toshimichi Isoe Chiyomaru Shikura 志倉千代丸 磯江俊道
BeatmapID:1409814
BeatmapSetID:612658

[Difficulty]
HPDrainRate:5.5
CircleSize:3.8
OverallDifficulty:8.5
ApproachRate:9.2
SliderMultiplier:1.75
SliderTickRate:1

[Events]
//Background and Video events
0,0,"hi.jpg",0,0
//Break Periods
//Storyboard Layer 0 (Background)
//Storyboard Layer 1 (Fail)
//Storyboard Layer 2 (Pass)
//Storyboard Layer 3 (Foreground)
//Storyboard Sound Samples

[TimingPoints]
1443,352.9412,4,2,1,50,1,0
1443,-200,4,2,1,50,0,0
8325,-200,4,2,1,50,0,0
9384,-200,4,2,1,30,0,0
9913,-200,4,2,1,50,0,0
10972,-200,4,2,1,30,0,0
11148,-153.8462,4,2,1,50,0,0
11942,-153.8462,4,2,3,10,0,0
12031,-111.1111,4,2,1,60,0,0
12737,-100,4,2,1,70,0,0
22442,-100,4,2,1,10,0,0
22619,-100,4,2,1,70,0,0
24031,-111.1111,4,2,6,50,0,0
24119,-111.1111,4,2,1,50,0,0
26854,-111.1111,4,2,6,50,0,0
26942,-111.1111,4,2,1,50,0,0
27384,-111.1111,4,2,6,50,0,0
27472,-111.1111,4,2,1,50,0,0
29148,-90.90909,4,2,1,70,0,0
29501,-111.1111,4,2,1,50,0,0
29678,-111.1111,4,2,6,50,0,0
29766,-111.1111,4,2,1,50,0,0
30207,-111.1111,4,2,6,50,0,0
30295,-111.1111,4,2,1,50,0,0
32501,-111.1111,4,2,6,50,0,0
32590,-111.1111,4,2,1,50,0,0
32766,-111.1111,4,2,1,5,0,0
32854,-111.1111,4,2,1,50,0,0
33031,-111.1111,4,2,6,50,0,0
33119,-111.1111,4,2,1,50,0,0
33737,-111.1111,4,2,6,50,0,0
33825,-111.1111,4,2,1,50,0,0
37795,-111.1111,4,2,6,50,0,0
38060,-111.1111,4,2,1,50,0,0
40442,-83.33334,4,2,1,50,0,0
40972,-111.1111,4,2,1,50,0,0
41501,-111.1111,4,2,6,50,0,0
41590,-111.1111,4,2,1,50,0,0
43795,-111.1111,4,2,6,50,0,0
43884,-111.1111,4,2,1,50,0,0
44325,-111.1111,4,2,6,50,0,0
44413,-111.1111,4,2,1,50,0,0
45031,-111.1111,4,2,6,50,0,0
45119,-111.1111,4,2,1,50,0,0
46354,-111.1111,4,2,1,10,0,0
46443,-111.1111,4,2,1,50,0,0
46531,-111.1111,4,2,1,10,0,0
46619,-166.6667,4,2,1,70,0,0
52090,-111.1111,4,2,1,70,0,0
63207,-83.33334,4,2,1,70,0,0
63560,-111.1111,4,2,1,70,0,0
64795,-111.1111,4,2,6,70,0,0
64884,-111.1111,4,2,1,70,0,0
65501,-111.1111,4,2,6,70,0,0
65590,-111.1111,4,2,1,70,0,0
66384,-111.1111,4,2,6,70,0,0
66472,-111.1111,4,2,1,70,0,0
66913,-111.1111,4,2,6,70,0,0
67001,-111.1111,4,2,1,70,0,0
67619,-111.1111,4,2,6,70,0,0
67884,-111.1111,4,2,1,70,0,0
68325,-111.1111,4,2,6,70,0,0
68413,-111.1111,4,2,1,70,0,0
69207,-83.33334,4,2,1,70,0,0
72031,-90.90909,4,2,1,70,0,0
72295,-90.90909,4,2,1,10,0,0
72384,-90.90909,4,2,1,70,0,0
72560,-83.33334,4,2,1,70,0,0
72825,-83.33334,4,2,1,10,0,0
72913,-83.33334,4,2,1,70,0,0
73090,-76.92308,4,2,1,70,0,0
73354,-76.92308,4,2,1,10,0,0
73442,-76.92308,4,2,1,70,0,0
73619,-71.42857,4,2,1,70,0,0
73884,-71.42857,4,2,1,10,0,0
73972,-71.42857,4,2,1,50,0,0
74148,-111.1111,4,2,1,70,0,0
74854,-111.1111,4,2,1,60,0,0
75155,352.9412,4,2,0,50,1,0
75860,-200,4,2,0,50,0,0
76037,-200,4,2,0,10,0,0
76266,352.9412,4,2,1,70,1,1
76266,-100,4,2,1,70,0,1
76530,-100,4,2,1,10,0,1
76618,-100,4,2,1,70,0,1
90648,-100,4,2,1,10,0,1
90736,-100,4,2,1,70,0,1
95854,-125,4,2,1,70,0,1
96030,-125,4,2,1,70,0,0
96736,-125,4,2,1,60,0,0
97265,-125,4,2,1,70,0,0
98324,-125,4,2,1,60,0,0
98854,-133.3333,4,2,1,60,0,0
99118,-133.3333,4,2,1,60,0,0
99207,-133.3333,4,2,1,60,0,0
101677,-100,4,2,1,70,0,0
102471,-100,4,2,1,10,0,0
102560,-100,4,2,1,70,0,0
103972,-100,4,2,1,55,0,0
104501,-100,4,2,1,70,0,0
109795,-142.8571,4,2,1,70,0,0
110060,-142.8571,4,2,1,10,0,0
110148,-100,4,2,1,70,0,0
112972,-142.8571,4,2,1,70,0,0
113589,-142.8571,4,2,1,10,0,0
113677,-142.8571,4,2,1,70,0,0
114207,-100,4,2,1,70,0,0
124971,-100,4,2,1,50,0,0
125148,-100,4,2,1,40,0,0
125325,-100,4,2,1,40,0,0
125589,-100,4,2,1,40,0,0
125678,-111.1111,4,2,6,50,0,0
125766,-111.1111,4,2,1,50,0,0
128501,-111.1111,4,2,6,50,0,0
128590,-111.1111,4,2,1,50,0,0
129031,-111.1111,4,2,6,50,0,0
129119,-111.1111,4,2,1,50,0,0
129560,-111.1111,4,2,6,50,0,0
129648,-111.1111,4,2,1,50,0,0
130795,-83.33334,4,2,1,50,0,0
131148,-111.1111,4,2,1,50,0,0
131854,-111.1111,4,2,6,50,0,0
131942,-111.1111,4,2,1,50,0,0
133442,-111.1111,4,2,6,50,0,0
133530,-111.1111,4,2,1,50,0,0
134148,-111.1111,4,2,6,50,0,0
134237,-111.1111,4,2,1,50,0,0
134678,-111.1111,4,2,6,50,0,0
134766,-111.1111,4,2,1,50,0,0
136618,-111.1111,4,2,6,50,0,0
136707,-111.1111,4,2,1,50,0,0
136971,-111.1111,4,2,6,50,0,0
137060,-111.1111,4,2,1,50,0,0
139795,-111.1111,4,2,6,50,0,0
139884,-111.1111,4,2,1,50,0,0
140325,-111.1111,4,2,6,50,0,0
140413,-111.1111,4,2,1,50,0,0
142090,-83.33334,4,2,1,50,0,0
142266,-111.1111,4,2,1,50,0,0
143148,-111.1111,4,2,6,50,0,0
143237,-111.1111,4,2,1,50,0,0
145442,-111.1111,4,2,6,50,0,0
145531,-111.1111,4,2,1,50,0,0
145972,-111.1111,4,2,6,50,0,0
146060,-111.1111,4,2,1,50,0,0
147383,-111.1111,4,2,6,50,0,0
147471,-111.1111,4,2,1,50,0,0
148266,-166.6667,4,2,1,50,0,0
153737,-111.1111,4,2,1,70,0,0
165207,-111.1111,4,2,6,70,0,0
165295,-111.1111,4,2,1,70,0,0
166442,-111.1111,4,2,6,70,0,0
166531,-111.1111,4,2,1,70,0,0
167148,-111.1111,4,2,6,70,0,0
167237,-111.1111,4,2,1,70,0,0
168031,-111.1111,4,2,6,70,0,0
168119,-111.1111,4,2,1,70,0,0
169266,-111.1111,4,2,6,70,0,0
169354,-111.1111,4,2,1,70,0,0
169972,-111.1111,4,2,6,70,0,0
170060,-111.1111,4,2,1,70,0,0
170854,-83.33334,4,2,1,70,0,0
173678,-90.90909,4,2,1,70,0,0
173942,-90.90909,4,2,1,10,0,0
174031,-83.33334,4,2,1,70,0,0
174472,-83.33334,4,2,1,10,0,0
174560,-83.33334,4,2,1,70,0,0
174737,-76.92308,4,2,1,50,0,0
175001,-76.92308,4,2,1,10,0,0
175090,-76.92308,4,2,1,70,0,0
175266,-71.42857,4,2,1,50,0,0
175531,-71.42857,4,2,1,10,0,0
175619,-71.42857,4,2,1,70,0,0
176830,352.9412,4,2,1,50,1,0
177535,-200,4,2,0,50,0,0
177800,-200,4,2,0,10,0,0
177913,352.9412,4,2,1,70,1,1
186648,-100,4,2,1,10,0,1
186737,-80,4,2,1,70,0,1
187001,-80,4,2,1,10,0,1
187090,-100,4,2,1,70,0,1
189118,-100,4,2,1,10,0,1
189207,-100,4,2,1,70,0,1
191060,-100,4,2,1,10,0,1
191148,-100,4,2,1,70,0,1
192295,-100,4,2,1,10,0,1
192383,-100,4,2,1,70,0,1
197501,-100,4,2,1,70,0,0
198917,352.9412,4,2,1,70,1,0
199976,-100,4,2,1,55,0,0
200505,352.9412,4,2,1,60,1,0
200505,-133.3333,4,2,1,60,0,0
200769,-133.3333,4,2,1,10,0,0
200858,-133.3333,4,2,1,60,0,0
203328,-100,4,2,1,70,0,0
204122,-100,4,2,1,10,0,0
204210,-100,4,2,1,70,0,0
205623,-100,4,2,1,55,0,0
206152,-111.1111,4,2,1,70,0,0
207475,-111.1111,4,2,1,10,0,0
207563,-111.1111,4,2,1,70,0,0
211710,-111.1111,4,2,1,10,0,0
211799,-111.1111,4,2,1,70,0,0
214622,-200,4,2,1,70,0,0
215240,-200,4,2,1,10,0,0
215328,-200,4,2,1,70,0,0
215858,-100,4,2,1,70,0,0
227328,-83.33334,4,2,1,70,0,0
235357,-83.33334,4,2,1,10,0,0
235446,-83.33334,4,2,1,70,0,0
238622,-200,4,2,1,50,0,0
248152,-66.66666,4,2,1,70,0,0
248416,-66.66666,4,2,1,10,0,0
248505,-90.90909,4,2,1,70,0,0
249034,-76.92308,4,2,1,70,0,0
249564,-71.42857,4,2,1,70,0,0
249916,-100,4,2,1,70,0,1
253004,-100,4,2,1,70,0,1
253093,-100,4,2,1,70,0,1
255564,-100,4,2,1,70,0,1
256799,-100,4,2,1,70,0,1
257329,-100,4,2,1,70,0,1
258652,-100,4,2,1,10,0,1
258740,-100,4,2,1,70,0,1
259622,-125,4,2,1,70,0,1
260682,-100,4,2,1,55,0,1
261210,-125,4,2,1,60,0,0
264034,-100,4,2,1,70,0,0
266328,-100,4,2,1,55,0,0
266857,-100,4,2,1,70,0,0
272152,-142.8571,4,2,1,70,0,0
272417,-100,4,2,1,70,0,0
275328,-142.8571,4,2,1,70,0,0
275946,-100,4,2,1,70,0,0
287681,-200,4,2,1,70,0,0
287946,-200,4,2,1,10,0,0
288034,-100,4,2,1,70,0,0
292358,-100,4,2,1,10,0,0
292446,-100,4,2,1,70,0,0
292535,-100,4,2,1,10,0,0
292623,-100,4,2,1,70,0,0
292711,-100,4,2,1,10,0,0
292799,-100,4,2,1,70,0,0
292888,-100,4,2,1,10,0,0
292975,-100,4,2,1,70,0,0
293328,-200,4,2,1,70,0,0
293681,-100,4,2,1,70,0,0
298181,-100,4,2,1,10,0,0
298269,-100,4,2,1,70,0,0
299329,-600,4,2,1,70,0,0
306564,-600,4,2,1,40,0,0

[Colours]
Combo1 : 11,134,244
Combo2 : 198,143,201
Combo3 : 174,210,255
Combo4 : 249,181,220

[HitObjects]
188,149,1443,6,0,P|240:138|290:132,1,87.5,2|0,3:0|0:0,0:0:0:0:
346,237,1972,2,0,P|294:226|244:220,1,87.5,2|0,0:0|0:0,0:0:0:0:
160,240,2501,2,0,P|164:271|166:292,1,43.75,2|0,0:0|0:0,0:0:0:0:
102,363,2855,5,2,3:0:0:0:
32,290,3031,1,2,0:0:0:0:
69,196,3208,1,2,0:0:0:0:
160,155,3384,1,2,0:0:0:0:
251,198,3560,1,2,0:0:0:0:
250,299,3737,1,2,0:0:0:0:
423,197,4090,6,0,P|372:214|323:235,1,87.5,2|2,3:0|0:0,0:0:0:0:
270,298,4619,2,0,P|233:307|216:310,1,43.75,2|2,0:0|0:0,0:0:0:0:
137,217,4972,2,0,P|146:262|150:291,2,65.625,2|2|2,0:0|0:0|0:0,0:0:0:0:
91,123,5678,6,0,B|146:99|204:133|204:133|177:103|170:83,1,175,2|0,3:0|0:0,0:0:0:0:
171,86,6737,1,2,0:0:0:0:
308,192,7090,6,0,L|253:187,1,43.75,2|2,3:0|0:0,0:0:0:0:
214,82,7442,1,2,0:0:0:0:
312,0,7619,2,0,P|325:67|329:103,1,87.5,2|2,0:0|0:0,0:0:0:0:
199,232,8325,6,0,B|236:232|269:212|269:212|316:229|316:229|356:213|407:229|407:229|393:192|341:161,1,306.25,2|0,3:0|0:0,0:0:0:0:
303,70,9913,6,0,B|334:55|375:64|375:64|313:21|253:21|185:61,1,262.5,2|0,3:0|0:0,0:0:0:0:
97,216,11148,6,0,P|135:123|174:216,1,255.9375,2|0,3:0|0:0,0:0:0:0:
125,291,12031,5,8,0:0:0:0:
153,312,12119,1,8,0:0:0:0:
182,331,12207,1,4,3:0:0:0:
363,258,12384,1,8,0:0:0:0:
351,224,12472,1,8,0:0:0:0:
352,188,12560,1,4,3:0:0:0:
364,154,12648,1,4,3:0:0:0:
379,123,12737,6,0,P|317:104|279:95,1,87.5,12|0,0:0|0:0,0:0:0:0:
124,229,13090,2,0,P|186:210|224:201,1,87.5,8|0,0:0|0:0,0:0:0:0:
400,267,13442,1,8,0:0:0:0:
266,337,13619,1,0,0:0:0:0:
295,98,13795,2,0,P|311:147|324:200,1,87.5,8|0,0:0|0:0,0:0:0:0:
182,288,14148,6,0,P|193:245|207:204,1,87.5,12|0,0:0|0:0,0:0:0:0:
299,44,14501,1,8,0:0:0:0:
351,192,14678,1,0,0:0:0:0:
184,101,14854,1,8,0:0:0:0:
339,35,15031,1,0,0:0:0:0:
367,213,15207,2,0,P|323:206|280:198,1,87.5,8|0,0:0|0:0,0:0:0:0:
153,27,15560,6,0,P|161:70|167:113,1,87.5,12|0,0:0|0:0,0:0:0:0:
25,283,15913,1,8,0:0:0:0:
84,197,16090,1,0,0:0:0:0:
201,384,16266,1,8,0:0:0:0:
142,298,16443,1,0,0:0:0:0:
280,198,16619,2,0,P|269:264|263:310,1,87.5,8|0,0:0|0:0,0:0:0:0:
424,244,16972,6,0,P|417:200|410:157,1,87.5,12|0,0:0|0:0,0:0:0:0:
258,49,17325,2,0,P|298:71|355:90,1,87.5,8|0,0:0|0:0,0:0:0:0:
512,15,17678,2,0,P|472:33|435:56,1,87.5,8|0,0:0|0:0,0:0:0:0:
362,240,18031,1,8,0:0:0:0:
471,148,18207,1,0,0:0:0:0:
304,164,18384,6,0,P|293:121|286:78,1,87.5,12|0,0:0|0:0,0:0:0:0:
180,292,18737,2,0,P|190:250|199:207,1,87.5,8|0,0:0|0:0,0:0:0:0:
42,377,19090,2,0,P|31:334|23:291,1,87.5,8|0,0:0|0:0,0:0:0:0:
76,135,19442,2,0,P|155:112|187:104,1,87.5,8|0,0:0|0:0,0:0:0:0:
344,29,19795,6,0,P|265:6|233:-2,1,87.5,12|0,0:0|0:0,0:0:0:0:
305,183,20148,2,0,P|347:171|389:158,1,87.5,8|0,0:0|0:0,0:0:0:0:
510,111,20501,1,8,0:0:0:0:
344,29,20678,1,0,0:0:0:0:
277,166,20854,2,0,P|266:217|259:260,1,87.5,8|0,0:0|0:0,0:0:0:0:
427,330,21207,6,0,P|419:286|410:244,1,87.5,12|0,0:0|0:0,0:0:0:0:
350,48,21560,1,8,0:0:0:0:
472,163,21737,1,0,0:0:0:0:
283,126,21913,1,8,0:0:0:0:
449,45,22090,1,0,0:0:0:0:
362,227,22266,6,0,P|297:219|232:212,1,116.6667,8|0,0:0|0:0,0:0:0:0:
221,208,22619,5,12,0:0:0:0:
76,317,22795,1,0,0:0:0:0:
59,169,22972,2,0,P|56:90|52:49,1,87.5,8|0,0:0|0:0,0:0:0:0:
238,57,23325,5,8,0:0:0:0:
280,59,23413,1,8,0:0:0:0:
312,88,23501,1,8,0:0:0:0:
317,131,23589,1,8,0:0:0:0:
293,166,23677,1,8,0:0:0:0:
252,178,23766,1,8,0:0:0:0:
213,161,23854,1,8,0:0:0:0:
194,122,23942,1,8,0:0:0:0:
209,79,24031,5,6,0:0:0:0:
313,246,24207,1,2,0:0:0:0:
139,181,24384,1,8,0:0:0:0:
317,131,24560,1,2,0:0:0:0:
207,271,24737,1,4,3:0:0:0:
97,116,24913,2,0,P|50:97|19:88,1,78.75,2|8,0:0|0:0,0:0:0:0:
178,22,25266,1,2,0:0:0:0:
235,168,25442,6,0,P|295:142|336:131,1,78.75,4|2,3:0|0:0,0:0:0:0:
493,164,25795,1,8,0:0:0:0:
340,254,25972,1,2,0:0:0:0:
404,78,26148,2,0,P|399:38|392:0,1,78.75,4|2,3:0|0:0,0:0:0:0:
307,138,26501,1,8,0:0:0:0:
441,234,26678,1,2,0:0:0:0:
293,328,26854,6,0,P|258:309|222:293,1,78.75,2|0,0:0|0:0,0:0:0:0:
64,326,27207,1,8,0:0:0:0:
206,184,27384,2,0,P|240:165|276:149,1,78.75,2|4,0:0|3:0,0:0:0:0:
71,204,27737,2,0,P|56:167|44:129,1,78.75,2|8,0:0|0:0,0:0:0:0:
146,6,28090,1,2,0:0:0:0:
254,161,28266,6,0,P|217:155|176:146,1,78.75,4|0,3:0|0:0,0:0:0:0:
286,37,28619,1,8,0:0:0:0:
329,202,28795,1,2,0:0:0:0:
409,31,28972,1,4,3:0:0:0:
421,233,29148,6,0,B|436:215|464:204|464:204|386:238|315:193,1,192.5,4|0,1:0|0:0,0:0:0:0:
155,272,29678,6,0,P|164:220|175:184,1,78.75,6|0,0:0|0:0,0:0:0:0:
242,29,30031,1,10,0:0:0:0:
328,201,30207,1,2,0:0:0:0:
475,62,30384,2,0,P|410:55|384:51,1,78.75,4|0,3:0|0:0,0:0:0:0:
242,29,30737,1,10,0:0:0:0:
103,222,30913,6,0,P|181:205|261:199,1,157.5,10|0,0:0|0:0,0:0:0:0:
375,309,31442,2,0,P|365:264|364:232,1,78.75,8|0,0:0|0:0,0:0:0:0:
512,118,31795,2,0,P|509:160|499:208,1,78.75,4|0,3:0|0:0,0:0:0:0:
336,23,32148,1,8,0:0:0:0:
488,23,32325,1,2,0:0:0:0:
337,125,32501,6,0,P|276:112|218:107,1,118.125,2|0,0:0|0:0,0:0:0:0:
183,110,32854,1,8,0:0:0:0:
159,284,33031,2,0,P|211:271|248:260,1,78.75,2|4,0:0|3:0,0:0:0:0:
75,182,33384,1,2,0:0:0:0:
159,375,33560,1,10,0:0:0:0:
339,280,33737,6,0,P|326:213|241:160,1,157.500016822817,2|0,0:0|0:0,0:0:0:0:
105,97,34266,1,8,0:0:0:0:
82,300,34442,2,0,P|133:290|249:259,1,157.5,8|0,0:0|0:0,0:0:0:0:
424,85,34972,1,8,0:0:0:0:
424,85,35325,6,0,P|433:124|440:163,1,78.75,6|0,0:0|0:0,0:0:0:0:
399,305,35678,1,4,3:0:0:0:
510,228,35854,1,2,0:0:0:0:
352,165,36031,1,4,3:0:0:0:
322,322,36207,2,0,P|371:310|400:304,1,78.75,2|4,0:0|3:0,0:0:0:0:
258,184,36560,1,2,0:0:0:0:
200,338,36737,6,0,P|161:328|123:320,1,78.75,4|0,3:0|0:0,0:0:0:0:
33,154,37090,1,4,3:0:0:0:
163,242,37266,1,2,0:0:0:0:
0,282,37442,1,4,3:0:0:0:
65,148,37619,1,2,0:0:0:0:
233,215,37795,2,0,P|271:205|309:197,1,78.75,2|0,0:0|0:0,0:0:0:0:
464,164,38148,5,4,3:0:0:0:
352,270,38325,1,2,0:0:0:0:
487,345,38501,1,4,3:0:0:0:
324,384,38678,1,2,0:0:0:0:
253,280,38854,2,0,P|239:224|233:194,1,78.75,4|2,3:0|0:0,0:0:0:0:
271,12,39207,1,4,3:0:0:0:
369,105,39384,1,2,0:0:0:0:
249,155,39560,6,0,P|205:148|160:141,1,78.75,4|0,3:0|0:0,0:0:0:0:
1,50,39913,1,4,3:0:0:0:
150,0,40090,1,2,0:0:0:0:
91,169,40266,1,4,3:0:0:0:
99,294,40442,6,0,B|67:320|67:320|13:243|95:164,1,210,4|0,0:0|0:0,0:0:0:0:
256,36,40972,6,0,L|245:138,1,78.75,6|0,0:0|0:0,0:0:0:0:
263,299,41325,1,10,0:0:0:0:
113,191,41501,1,2,0:0:0:0:
266,144,41678,2,0,P|326:136|366:133,1,78.75,4|0,3:0|0:0,0:0:0:0:
491,159,42031,1,8,0:0:0:0:
368,287,42207,6,0,B|369:231|369:231|338:183|345:118,1,157.5,10|0,0:0|0:0,0:0:0:0:
224,52,42737,2,0,L|241:146,1,78.75,8|0,0:0|0:0,0:0:0:0:
180,266,43090,1,4,3:0:0:0:
238,129,43266,1,2,0:0:0:0:
312,335,43442,1,8,0:0:0:0:
318,208,43619,1,0,0:0:0:0:
180,266,43795,6,0,P|140:252|96:243,1,78.75,2|0,0:0|0:0,0:0:0:0:
4,110,44148,1,8,0:0:0:0:
120,12,44325,1,2,0:0:0:0:
131,170,44501,2,0,P|116:211|101:254,1,78.75,4|2,3:0|0:0,0:0:0:0:
241,140,44854,1,10,0:0:0:0:
144,24,45031,6,0,P|67:49|-4:86,1,157.5,2|0,0:0|0:0,0:0:0:0:
179,22,45560,1,10,0:0:0:0:
241,140,45737,2,0,P|202:146|163:155,1,78.75,10|2,0:0|0:0,0:0:0:0:
68,258,46090,1,2,0:0:0:0:
175,353,46266,2,0,L|218:373,1,39.375,8|0,0:0|0:0,0:0:0:0:
314,253,46442,2,0,L|271:273,1,39.375,2|0,0:0|0:0,0:0:0:0:
117,116,46619,6,0,P|148:144|201:197,1,105,4|2,0:0|0:0,0:0:0:0:
435,62,47325,2,0,P|404:90|351:143,1,105,8|2,0:0|0:0,0:0:0:0:
292,235,47854,2,0,P|328:222|355:215,1,52.5,4|0,3:0|0:0,0:0:0:0:
492,286,48207,2,0,P|467:295|442:302,1,52.5,4|0,3:0|0:0,0:0:0:0:
450,177,48560,1,8,3:0:0:0:
339,84,48737,2,0,P|247:80|219:79,1,105,8|2,0:0|0:0,0:0:0:0:
104,292,49442,6,0,P|196:298|224:297,1,105,4|2,0:0|0:0,0:0:0:0:
440,171,50148,2,0,P|348:167|320:166,1,105,8|2,0:0|0:0,0:0:0:0:
198,165,50678,2,0,P|205:135|211:103,1,52.5,4|2,3:0|0:0,0:0:0:0:
346,217,51031,2,0,P|339:187|333:155,1,52.5,4|2,3:0|0:0,0:0:0:0:
473,309,51384,5,4,3:0:0:0:
234,378,51560,1,8,0:0:0:0:
474,208,51737,1,8,0:0:0:0:
194,254,51913,1,8,0:0:0:0:
359,60,52090,6,0,P|349:141|345:237,1,157.5,4|2,0:0|0:0,0:0:0:0:
510,64,52619,1,10,0:0:0:0:
512,268,52795,1,2,0:0:0:0:
432,157,52972,1,4,3:0:0:0:
359,321,53148,2,0,P|320:312|281:308,1,78.75,2|8,0:0|0:0,0:0:0:0:
103,226,53501,6,0,P|81:186|140:71,1,157.5,2|2,0:0|0:0,0:0:0:0:
191,281,54031,1,10,0:0:0:0:
177,162,54207,1,2,0:0:0:0:
303,101,54384,2,0,P|357:94|409:79,1,78.75,4|0,3:0|0:0,0:0:0:0:
461,74,54648,2,0,P|454:109|452:131,1,39.375,2|8,0:0|0:0,0:0:0:0:
512,258,54913,6,0,P|437:232|360:217,1,157.5,2|0,0:0|0:0,0:0:0:0:
170,285,55442,1,8,0:0:0:0:
316,349,55619,1,2,0:0:0:0:
241,185,55795,2,0,P|228:137|214:86,1,78.75,4|0,3:0|0:0,0:0:0:0:
73,27,56148,1,10,0:0:0:0:
89,225,56325,6,0,P|163:199|240:184,1,157.5,2|0,0:0|0:0,0:0:0:0:
445,242,56854,1,8,0:0:0:0:
260,146,57031,1,0,0:0:0:0:
264,352,57207,1,4,3:0:0:0:
316,236,57384,5,2,0:0:0:0:
121,290,57560,1,10,0:0:0:0:
177,113,57737,1,2,0:0:0:0:
335,242,57913,6,0,P|352:295|361:337,1,78.75,4|2,0:0|0:0,0:0:0:0:
358,113,58266,1,10,0:0:0:0:
240,240,58442,1,2,0:0:0:0:
425,201,58619,1,4,3:0:0:0:
249,68,58795,2,0,P|258:120|260:151,1,78.75,2|8,0:0|0:0,0:0:0:0:
118,270,59148,6,0,P|121:230|128:192,1,78.75,2|4,0:0|3:0,0:0:0:0:
225,335,59501,1,2,0:0:0:0:
43,372,59678,1,10,0:0:0:0:
216,226,59854,1,2,0:0:0:0:
28,187,60031,2,0,P|25:130|23:86,1,78.75,4|0,3:0|0:0,0:0:0:0:
81,61,60295,2,0,P|109:64|128:68,1,39.3750042057042,2|8,0:0|0:0,0:0:0:0:
216,226,60560,6,0,P|185:174|227:84,1,157.5,2|0,0:0|0:0,0:0:0:0:
146,293,61090,1,8,0:0:0:0:
268,159,61266,1,2,0:0:0:0:
354,304,61442,2,0,P|296:297|254:295,1,78.75,4|0,3:0|0:0,0:0:0:0:
438,189,61795,1,10,0:0:0:0:
287,82,61972,6,0,P|270:140|266:172,1,78.75,2|4,0:0|3:0,0:0:0:0:
329,7,62325,1,2,0:0:0:0:
127,55,62501,1,10,0:0:0:0:
130,205,62678,2,0,P|209:215|283:240,1,157.5,2|0,0:0|0:0,0:0:0:0:
416,345,63207,1,8,0:0:0:0:
416,345,63560,6,0,P|332:328|248:320,1,157.5,4|8,0:0|0:0,0:0:0:0:
139,205,64090,2,0,P|86:197|59:194,1,78.75,2|4,0:0|3:0,0:0:0:0:
151,343,64442,2,0,P|98:351|71:354,1,78.75,2|8,0:0|0:0,0:0:0:0:
239,267,64795,6,0,P|241:187|250:96,1,157.5,2|0,0:0|0:0,0:0:0:0:
394,346,65325,1,8,0:0:0:0:
327,214,65501,1,2,0:0:0:0:
275,358,65678,1,4,3:0:0:0:
423,228,65854,5,0,0:0:0:0:
248,109,66031,1,8,0:0:0:0:
353,283,66207,1,0,0:0:0:0:
383,89,66384,5,2,0:0:0:0:
259,225,66560,1,2,0:0:0:0:
459,141,66737,1,10,0:0:0:0:
256,81,66913,2,0,P|215:69|150:66,1,78.75,2|4,0:0|3:0,0:0:0:0:
67,225,67266,2,0,P|108:213|173:210,1,78.75,2|8,0:0|0:0,0:0:0:0:
305,246,67619,6,0,B|342:222|384:239|384:239|421:226|421:226|468:242|480:240,1,157.5,2|2,0:0|0:0,0:0:0:0:
351,351,68149,1,10,0:0:0:0:
213,151,68325,2,0,B|176:127|134:144|134:144|97:131|97:131|50:147|38:145,1,157.5,2|0,0:0|0:0,0:0:0:0:
122,311,68854,2,0,P|111:273|96:236,1,78.75,8|0,0:0|0:0,0:0:0:0:
183,51,69207,6,0,P|206:105|212:166,1,105,12|0,0:0|0:0,0:0:0:0:
316,279,69560,2,0,P|323:227|345:179,1,105,8|0,0:0|0:0,0:0:0:0:
410,72,69913,1,8,0:0:0:0:
212,150,70089,1,0,0:0:0:0:
396,297,70266,2,0,B|453:285|453:285|508:298,1,105,8|0,0:0|0:0,0:0:0:0:
312,149,70619,6,0,B|262:163|262:163|211:149,1,105,8|0,0:0|0:0,0:0:0:0:
410,72,70971,1,8,0:0:0:0:
270,43,71148,1,0,0:0:0:0:
214,234,71325,2,0,B|265:248|265:248|316:232,1,105,8|0,0:0|0:0,0:0:0:0:
121,384,71678,2,0,B|107:333|107:333|123:281,1,105,8|0,0:0|0:0,0:0:0:0:
257,142,72031,6,0,P|339:129|424:115,1,144.375004405975,4|0,1:0|0:0,0:0:0:0:
399,119,72384,1,8,0:0:0:0:
340,369,72560,6,0,P|301:322|319:226,1,157.499980773928,4|0,1:0|0:0,0:0:0:0:
395,287,72913,1,8,0:0:0:0:
187,357,73090,6,0,B|151:337|115:345|115:345|107:349|107:349|103:345|103:345|95:349|95:349|59:365|12:344,1,170.624992189408,4|0,1:0|0:0,0:0:0:0:
57,258,73442,1,8,0:0:0:0:
232,131,73619,6,0,B|298:103|370:135|370:135|349:148|333:164,1,183.749994392395,4|0,1:0|0:0,0:0:0:0:
247,225,73972,1,8,0:0:0:0:
474,382,74148,5,8,0:0:0:0:
497,126,74325,1,8,0:0:0:0:
389,302,74501,1,8,0:0:0:0:
348,286,74589,1,8,0:0:0:0:
307,270,74677,1,8,0:0:0:0:
267,256,74765,1,8,0:0:0:0:
267,256,75155,5,2,0:0:0:0:
171,228,75331,1,2,0:0:0:0:
106,348,75507,1,2,0:0:0:0:
202,320,75684,1,2,0:0:0:0:
68,207,75860,2,0,P|81:252|88:282,1,65.625,2|0,0:0|0:0,0:0:0:0:
106,348,76266,6,0,P|195:339|253:335,1,131.25,6|0,0:0|0:0,0:0:0:0:
272,341,76619,1,8,0:0:0:0:
345,114,76795,2,0,P|390:187|334:262,1,175,2|2,0:0|0:0,0:0:0:0:
459,122,77324,2,0,P|436:84|406:53,1,87.5,10|0,0:0|0:0,0:0:0:0:
301,186,77677,5,4,1:0:0:0:
493,273,77854,1,2,0:0:0:0:
236,335,78030,1,10,0:0:0:0:
405,188,78207,1,2,0:0:0:0:
215,115,78383,2,0,L|113:96,1,87.5,2|2,0:0|0:0,0:0:0:0:
323,0,78736,1,8,0:0:0:0:
405,188,78913,6,0,L|491:171,1,87.5,4|0,1:0|0:0,0:0:0:0:
314,344,79266,1,2,0:0:0:0:
228,201,79442,2,0,P|220:137|208:95,1,87.5,10|2,0:0|0:0,0:0:0:0:
75,305,79795,2,0,P|117:295|161:291,1,87.5,4|0,3:0|0:0,0:0:0:0:
227,330,80060,2,0,P|240:332|283:335,1,43.75,2|8,0:0|0:0,0:0:0:0:
383,311,80325,1,2,0:0:0:0:
228,201,80501,6,0,B|254:151|222:98|222:98|212:58|245:19,1,175,4|8,1:0|0:0,0:0:0:0:
140,156,81030,1,0,0:0:0:0:
322,81,81207,1,4,3:0:0:0:
432,208,81384,1,0,0:0:0:0:
321,306,81560,2,0,P|276:294|223:280,1,87.5,10|2,0:0|0:0,0:0:0:0:
72,141,81913,6,0,B|111:139|139:109|139:109|184:134|246:120,1,175,4|10,1:0|0:0,0:0:0:0:
67,40,82443,1,2,0:0:0:0:
159,253,82618,1,4,3:0:0:0:
195,23,82795,1,2,0:0:0:0:
61,226,82972,1,10,0:0:0:0:
311,179,83148,6,0,P|330:126|266:31,1,175,4|2,1:0|0:0,0:0:0:0:
234,122,83678,1,10,0:0:0:0:
341,275,83854,2,0,B|386:272|423:243|423:243|467:256|467:256|513:239,1,175,4|0,1:0|0:0,0:0:0:0:
277,344,84383,2,0,P|260:304|260:248,1,87.5,8|2,0:0|0:0,0:0:0:0:
300,111,84736,6,0,B|354:136|402:87|402:87|447:98|457:130,1,175,4|10,1:0|0:0,0:0:0:0:
221,45,85266,2,0,P|196:103|247:202,1,175,2|10,0:0|0:0,0:0:0:0:
392,302,85795,1,10,0:0:0:0:
392,302,86148,5,4,1:0:0:0:
158,356,86325,1,2,0:0:0:0:
319,186,86501,1,4,3:0:0:0:
66,123,86677,2,0,P|55:70|42:22,1,87.5,4|4,1:0|3:0,0:0:0:0:
67,288,87030,1,2,0:0:0:0:
234,164,87207,1,4,1:0:0:0:
234,164,87560,5,4,1:3:0:0:
371,0,87736,1,2,0:0:0:0:
340,236,87913,1,4,3:0:0:0:
252,20,88089,1,2,0:0:0:0:
232,248,88266,1,4,3:0:0:0:
426,183,88442,2,0,P|469:185|512:194,1,87.5,2|8,0:0|0:0,0:0:0:0:
360,120,88795,1,0,0:0:0:0:
232,248,88971,6,0,L|208:127,1,87.5,4|2,1:0|0:0,0:0:0:0:
133,322,89324,1,4,3:0:0:0:
350,250,89500,1,2,0:0:0:0:
142,114,89678,1,4,3:0:0:0:
313,28,89854,2,0,L|396:1,1,87.5,2|8,0:0|0:0,0:0:0:0:
454,134,90207,1,2,0:0:0:0:
344,310,90383,6,0,P|338:231|320:156,1,131.25,4|0,1:0|0:0,0:0:0:0:
304,152,90736,1,4,3:0:0:0:
141,68,90913,2,0,P|97:61|54:55,1,87.5,2|4,0:0|3:0,0:0:0:0:
152,239,91265,2,0,P|195:232|238:226,1,87.5,2|8,0:0|0:0,0:0:0:0:
268,50,91619,1,2,0:0:0:0:
127,153,91795,6,0,P|69:214|84:297,1,175,4|8,1:0|0:0,0:0:0:0:
238,226,92325,1,0,0:0:0:0:
54,55,92501,1,4,3:0:0:0:
152,239,92678,1,0,0:0:0:0:
287,31,92854,1,10,0:0:0:0:
287,31,93207,5,4,1:0:0:0:
318,239,93384,1,2,0:0:0:0:
179,133,93560,1,10,0:0:0:0:
393,185,93736,2,0,P|408:235|422:285,1,87.5,2|4,0:0|3:0,0:0:0:0:
261,114,94089,2,0,P|274:71|286:30,1,87.5,2|4,0:0|3:0,0:0:0:0:
208,251,94442,1,4,1:0:0:0:
144,151,94618,6,0,P|131:108|118:67,1,87.5,4|0,3:0|0:0,0:0:0:0:
119,281,94971,1,8,0:0:0:0:
269,167,95148,1,0,0:0:0:0:
366,293,95324,2,0,P|418:296|482:298,1,87.5,4|0,3:0|0:0,0:0:0:0:
279,384,95677,1,10,0:0:0:0:
224,280,95854,1,2,0:0:0:0:
335,163,96030,6,0,P|357:77|379:17,1,140,4|8,1:0|0:0,0:0:0:0:
256,0,96560,1,2,0:0:0:0:
193,74,96736,5,12,3:0:0:0:
221,182,96913,1,12,3:0:0:0:
248,288,97089,1,12,3:0:0:0:
376,162,97265,6,0,P|418:152|516:132,1,140,4|0,1:0|0:0,0:0:0:0:
389,23,97795,1,10,0:0:0:0:
276,112,97972,2,0,L|256:208,1,70,4|8,1:0|0:0,0:0:0:0:
239,269,98324,5,12,3:0:0:0:
139,319,98501,1,12,3:0:0:0:
37,367,98678,1,12,3:0:0:0:
116,238,98854,6,0,P|125:177|131:117,1,98.4375,4|0,1:0|0:0,0:0:0:0:
129,103,99207,2,0,P|165:100|194:95,1,65.625,2|0,0:0|0:0,0:0:0:0:
354,28,99560,1,8,0:0:0:0:
275,192,99736,2,0,P|278:156|283:127,1,65.625,2|2,0:0|0:0,0:0:0:0:
407,196,100089,6,0,P|441:261|439:327,1,131.25,4|4,3:0|3:0,0:0:0:0:
218,307,100618,2,0,P|283:273|349:275,1,131.25,4|10,3:0|0:0,0:0:0:0:
144,380,101324,2,0,P|138:347|128:316,1,65.625,2|0,0:0|0:0,0:0:0:0:
36,156,101677,6,0,B|64:120|64:120|44:196|68:272,1,175,4|8,1:0|0:0,0:0:0:0:
220,48,102207,2,0,B|196:17|196:17|216:76|193:144,1,131.25,4|0,1:0|0:0,0:0:0:0:
200,144,102560,2,0,P|259:148|320:160,1,87.5,4|8,3:0|0:0,0:0:0:0:
454,249,102913,6,0,P|368:244|266:243,1,175,4|0,1:0|0:0,0:0:0:0:
279,242,103354,1,8,0:0:0:0:
279,242,103442,1,0,0:0:0:0:
185,136,103618,1,8,0:0:0:0:
155,129,103707,1,8,0:0:0:0:
124,123,103795,1,8,0:0:0:0:
93,117,103883,1,8,0:0:0:0:
62,111,103971,2,0,L|69:187,1,43.75,4|4,3:0|3:0,0:0:0:0:
78,250,104148,5,4,3:0:0:0:
79,258,104236,1,4,3:0:0:0:
80,266,104324,1,4,3:0:0:0:
81,274,104412,1,0,0:0:0:0:
83,284,104501,6,0,B|187:299|149:244|253:258,1,175,4|8,1:0|0:0,0:0:0:0:
391,181,105030,2,0,B|286:196|324:141|220:155,1,175,2|2,0:0|0:0,0:0:0:0:
363,290,105560,1,10,0:0:0:0:
363,290,105913,5,4,1:0:0:0:
493,153,106090,1,2,0:0:0:0:
261,170,106266,2,0,P|255:213|251:256,1,87.5,10|0,0:0|0:0,0:0:0:0:
366,110,106619,1,2,0:0:0:0:
236,58,106795,1,2,0:0:0:0:
365,201,106972,1,8,0:0:0:0:
323,41,107148,1,2,0:0:0:0:
181,206,107324,6,0,P|134:187|0:145,2,175,4|8|2,1:0|0:0|0:0,0:0:0:0:
341,330,108383,1,8,0:0:0:0:
341,330,108737,5,2,0:0:0:0:
468,131,108913,1,0,0:0:0:0:
282,110,109089,1,8,0:0:0:0:
393,251,109265,2,0,P|436:260|479:271,1,87.5,8|2,0:0|0:0,0:0:0:0:
341,330,109618,1,0,0:0:0:0:
282,110,109795,2,0,P|294:171|297:216,1,91.875,8|0,0:0|0:0,0:0:0:0:
294,240,110148,6,0,B|398:206|370:268|472:237,1,175,4|10,1:0|0:0,0:0:0:0:
424,2,110678,2,0,P|382:74|425:146,1,175,2|2,0:0|0:0,0:0:0:0:
338,315,111207,2,0,P|313:268|274:216,1,87.5,10|0,0:0|0:0,0:0:0:0:
148,117,111560,5,4,1:0:0:0:
165,321,111737,1,0,0:0:0:0:
245,147,111913,1,8,0:0:0:0:
338,315,112089,2,0,P|346:270|356:213,1,87.5,2|4,0:0|3:0,0:0:0:0:
443,112,112442,5,8,0:0:0:0:
472,88,112531,1,8,0:0:0:0:
473,49,112619,1,8,0:0:0:0:
444,25,112707,1,8,0:0:0:0:
406,31,112795,1,8,0:0:0:0:
387,64,112884,1,8,0:0:0:0:
405,101,112972,6,0,B|377:221|448:200|412:337,1,214.375,12|0,0:0|0:0,0:0:0:0:
385,383,113678,5,8,0:0:0:0:
218,213,113854,1,8,0:0:0:0:
504,146,114031,1,8,0:0:0:0:
245,65,114207,6,0,P|200:112|218:213,1,175,4|0,1:0|0:0,0:0:0:0:
136,37,114737,1,8,0:0:0:0:
311,145,114913,1,0,0:0:0:0:
156,281,115090,2,0,P|199:300|251:299,1,87.5,8|0,0:0|0:0,0:0:0:0:
311,145,115442,2,0,P|267:147|228:165,1,87.5,8|0,0:0|0:0,0:0:0:0:
461,246,115795,6,0,P|490:199|493:153,1,87.5,12|0,0:0|0:0,0:0:0:0:
373,9,116148,1,8,0:0:0:0:
393,170,116325,1,0,0:0:0:0:
512,0,116501,1,8,0:0:0:0:
344,101,116678,1,0,0:0:0:0:
471,270,116854,2,0,P|500:223|503:177,1,87.5,8|0,0:0|0:0,0:0:0:0:
336,286,117207,6,0,P|344:328|369:364,1,87.5,12|0,0:0|0:0,0:0:0:0:
393,170,117560,1,8,0:0:0:0:
231,293,117737,1,0,0:0:0:0:
306,92,117913,1,8,0:0:0:0:
336,286,118089,1,0,0:0:0:0:
182,178,118266,2,0,L|84:171,1,87.5,8|0,0:0|0:0,0:0:0:0:
258,44,118619,5,12,0:0:0:0:
258,44,118795,1,0,0:0:0:0:
318,256,118972,1,8,0:0:0:0:
318,256,119148,1,0,0:0:0:0:
433,51,119325,1,8,0:0:0:0:
433,51,119501,1,0,0:0:0:0:
479,242,119678,1,8,0:0:0:0:
479,242,119854,1,0,0:0:0:0:
288,173,120031,6,0,L|275:86,1,87.5,12|0,0:0|0:0,0:0:0:0:
129,279,120384,2,0,L|141:192,1,87.5,8|0,0:0|0:0,0:0:0:0:
275,86,120737,2,0,P|319:74|372:87,1,87.5,8|0,0:0|0:0,0:0:0:0:
214,284,121090,2,0,P|171:290|129:279,1,87.5,8|0,0:0|0:0,0:0:0:0:
319,170,121442,6,0,P|352:205|379:252,1,87.5,12|0,0:0|0:0,0:0:0:0:
161,352,121795,2,0,P|184:315|214:283,1,87.5,8|0,0:0|0:0,0:0:0:0:
394,118,122148,1,8,0:0:0:0:
411,309,122325,1,0,0:0:0:0:
235,162,122501,1,8,0:0:0:0:
306,22,122678,1,0,0:0:0:0:
477,51,122854,6,0,P|495:105|498:147,1,87.5,12|0,0:0|0:0,0:0:0:0:
392,344,123207,1,8,0:0:0:0:
330,188,123384,1,0,0:0:0:0:
235,380,123560,1,8,0:0:0:0:
173,224,123737,1,0,0:0:0:0:
41,377,123913,1,8,0:0:0:0:
173,224,124090,1,0,0:0:0:0:
61,89,124266,5,12,0:0:0:0:
61,89,124354,1,8,0:0:0:0:
61,89,124442,1,8,0:0:0:0:
189,31,124619,1,8,0:0:0:0:
189,31,124707,1,8,0:0:0:0:
189,31,124795,1,8,0:0:0:0:
308,108,124972,6,0,L|317:150,2,43.75,4|4|4,3:0|3:0|3:0,0:0:0:0:
428,185,125325,6,0,L|418:227,3,43.75,4|4|4|0,3:0|3:0|3:0|0:0,0:0:0:0:
330,282,125678,5,2,0:0:0:0:
305,380,125854,1,2,0:0:0:0:
196,211,126031,1,4,3:0:0:0:
221,309,126207,1,2,0:0:0:0:
319,190,126384,1,4,3:0:0:0:
110,275,126560,2,0,P|69:274|27:262,1,78.75,2|4,0:0|3:0,0:0:0:0:
185,376,126913,6,0,P|250:336|324:356,1,157.5,2|2,0:0|0:0,0:0:0:0:
451,281,127442,1,4,3:0:0:0:
451,281,127619,1,2,0:0:0:0:
332,183,127795,2,0,P|344:221|347:275,1,78.75,4|2,3:0|0:0,0:0:0:0:
347,259,128060,1,2,0:0:0:0:
347,259,128148,1,4,3:0:0:0:
481,174,128325,5,2,0:0:0:0:
310,77,128501,2,0,P|274:84|207:104,1,78.75,2|0,0:0|0:0,0:0:0:0:
420,0,128854,2,0,P|413:36|405:108,1,78.75,4|2,3:0|0:0,0:0:0:0:
481,174,129207,1,4,3:0:0:0:
344,262,129383,2,0,P|341:223|329:163,1,78.75,2|2,3:0|0:0,0:0:0:0:
460,301,129737,5,2,0:0:0:0:
235,208,129913,2,0,P|223:246|220:286,1,78.75,6|2,3:0|0:0,0:0:0:0:
399,125,130266,1,6,3:0:0:0:
319,266,130442,1,0,0:0:0:0:
201,109,130619,1,6,3:0:0:0:
410,219,130795,2,0,P|463:199|521:193,1,105,4|0,1:0|0:0,0:0:0:0:
303,358,131148,5,2,0:0:0:0:
177,261,131325,2,0,P|100:281|27:309,1,157.5,4|8,0:0|0:0,0:0:0:0:
126,187,131854,1,2,0:0:0:0:
13,140,132031,2,0,P|21:178|29:216,1,78.75,4|0,3:0|0:0,0:0:0:0:
89,286,132295,2,0,P|84:318|79:357,1,39.375,2|8,0:0|0:0,0:0:0:0:
126,187,132560,6,0,B|215:163|190:220|279:196,1,157.5,2|0,3:0|0:0,0:0:0:0:
457,124,133090,2,0,P|439:197|437:232,1,78.75,8|0,0:0|0:0,0:0:0:0:
249,114,133442,2,0,P|286:101|353:76,1,78.75,2|0,0:0|0:0,0:0:0:0:
266,303,133795,1,8,0:0:0:0:
140,358,133972,5,2,0:0:0:0:
210,206,134148,2,0,P|204:157|191:109,1,78.75,6|0,0:0|0:0,0:0:0:0:
81,257,134501,1,10,3:2:0:0:
265,303,134678,2,0,P|305:290|349:297,1,78.75,2|4,0:0|3:0,0:0:0:0:
506,143,135031,2,0,P|466:145|407:133,1,78.75,2|8,0:0|0:0,0:0:0:0:
371,314,135384,6,0,P|424:266|527:302,1,157.5,2|0,3:0|0:0,0:0:0:0:
274,174,135913,1,8,0:0:0:0:
372,102,136090,2,0,P|381:137|386:188,1,78.75,4|0,0:0|0:0,0:0:0:0:
211,357,136442,2,0,P|201:318|197:279,1,78.75,2|2,0:0|0:0,0:0:0:0:
231,83,136795,5,2,3:0:0:0:
76,198,136972,2,0,P|36:186|-29:172,1,78.75,2|2,0:0|0:0,0:0:0:0:
231,83,137325,2,0,P|225:121|220:161,1,78.75,4|2,3:0|0:0,0:0:0:0:
116,80,137678,1,4,3:0:0:0:
302,0,137854,2,0,P|315:38|314:77,1,78.75,2|4,0:0|3:0,0:0:0:0:
239,281,138207,6,0,P|353:250|376:285,1,157.5,2|2,0:0|0:0,0:0:0:0:
431,332,138648,1,2,0:0:0:0:
430,332,138737,2,0,P|469:324|508:321,1,78.75,4|2,3:0|3:0,0:0:0:0:
465,208,139001,1,2,3:0:0:0:
465,208,139090,2,0,P|457:242|453:283,1,39.375,4|0,3:0|0:0,0:0:0:0:
385,302,139265,2,0,P|347:287|276:285,1,78.75,2|4,0:0|3:0,0:0:0:0:
187,363,139619,5,2,0:0:0:0:
187,363,139707,1,2,0:0:0:0:
187,363,139795,1,2,0:0:0:0:
229,245,139972,1,2,0:0:0:0:
86,159,140148,1,4,3:0:0:0:
128,277,140325,1,2,0:0:0:0:
215,120,140501,1,4,3:0:0:0:
22,261,140677,2,0,P|30:298|41:344,1,78.75,2|4,3:0|3:0,0:0:0:0:
230,276,141031,5,2,0:0:0:0:
86,159,141207,2,0,P|44:161|-5:182,1,78.75,6|2,3:0|0:0,0:0:0:0:
226,42,141560,2,0,L|214:119,1,78.75,6|2,3:0|0:0,0:0:0:0:
80,47,141913,1,8,0:0:0:0:
324,73,142090,2,0,P|375:62|427:54,1,105,4|0,0:0|0:0,0:0:0:0:
250,265,142442,5,2,0:0:0:0:
381,214,142619,2,0,B|489:226|489:226|518:257|465:295,1,157.5,4|8,0:0|0:0,0:0:0:0:
374,122,143148,1,2,0:0:0:0:
490,65,143325,2,0,L|478:172,1,78.75,4|0,3:0|0:0,0:0:0:0:
412,204,143590,2,0,P|416:223|423:258,1,39.375,2|8,0:0|0:0,0:0:0:0:
305,347,143854,6,0,B|260:320|260:320|213:355|151:350,1,157.5,12|0,0:0|0:0,0:0:0:0:
27,253,144384,2,0,P|65:247|114:264,1,78.75,8|0,0:0|0:0,0:0:0:0:
253,164,144737,2,0,L|159:149,1,78.75,2|0,0:0|0:0,0:0:0:0:
241,295,145090,1,8,0:0:0:0:
95,379,145266,5,2,0:0:0:0:
48,179,145442,2,0,P|33:206|29:267,1,78.75,6|0,0:0|0:0,0:0:0:0:
159,152,145795,1,8,0:0:0:0:
38,86,145972,1,2,0:0:0:0:
120,240,146148,2,0,P|161:232|230:225,1,78.75,4|0,3:0|0:0,0:0:0:0:
273,274,146413,2,0,P|280:298|283:330,1,39.375,2|8,0:0|0:0,0:0:0:0:
465,112,146677,6,0,B|356:125|356:125|322:103|330:71,1,157.5,4|0,0:0|0:0,0:0:0:0:
150,244,147383,2,0,P|144:205|135:146,1,78.75,6|0,0:0|0:0,0:0:0:0:
270,237,147737,1,4,3:0:0:0:
40,295,147913,1,4,3:0:0:0:
113,73,148090,1,4,3:0:0:0:
344,162,148266,6,0,P|398:153|448:146,1,105,4|2,1:0|0:0,0:0:0:0:
221,316,148971,2,0,P|204:274|222:205,1,105,8|2,0:0|0:0,0:0:0:0:
333,315,149501,2,0,P|330:338|326:371,1,52.5,4|2,3:0|0:0,0:0:0:0:
344,192,149854,1,4,3:0:0:0:
214,216,150030,5,2,0:0:0:0:
413,120,150207,2,0,P|378:95|308:99,1,105,4|0,3:0|0:0,0:0:0:0:
233,191,150736,2,0,P|237:217|244:260,1,52.5,2|0,0:0|0:0,0:0:0:0:
148,319,151089,6,0,P|55:303|24:302,1,105,4|2,0:0|0:0,0:0:0:0:
368,362,151795,2,0,P|361:309|353:249,1,105,8|2,0:0|0:0,0:0:0:0:
512,274,152324,2,0,P|507:300|503:334,1,52.5,4|2,0:0|0:0,0:0:0:0:
421,189,152677,2,0,L|431:251,1,52.5,4|2,3:0|0:0,0:0:0:0:
512,193,153030,1,12,3:0:0:0:
285,75,153207,5,8,0:0:0:0:
350,358,153384,1,8,0:0:0:0:
285,75,153560,1,8,0:0:0:0:
101,265,153737,6,0,B|151:245|205:265|205:265|236:253|244:222,1,157.5,4|2,0:0|0:0,0:0:0:0:
398,98,154266,2,0,P|359:87|313:85,1,78.75,8|2,0:0|0:0,0:0:0:0:
240,231,154619,2,0,P|245:269|255:334,1,78.75,4|2,3:0|0:0,0:0:0:0:
276,329,154884,2,0,P|273:356|269:395,1,39.375,2|8,0:0|0:0,0:0:0:0:
158,246,155148,6,0,P|17:277|-6:282,1,157.5,2|2,0:0|0:0,0:0:0:0:
190,136,155678,2,0,P|229:145|272:150,1,78.75,8|0,0:0|0:0,0:0:0:0:
483,32,156030,1,4,3:0:0:0:
312,71,156207,1,2,0:0:0:0:
501,159,156384,1,8,0:0:0:0:
367,246,156560,6,0,P|345:178|395:101,1,157.5,4|0,0:0|0:0,0:0:0:0:
501,159,157090,1,8,0:0:0:0:
390,25,157266,1,2,0:0:0:0:
256,173,157442,2,0,P|263:210|273:263,1,78.75,4|0,3:0|0:0,0:0:0:0:
405,196,157795,5,8,0:0:0:0:
175,99,157972,2,0,B|80:79|80:79|58:104|32:115,1,157.5,2|0,0:0|0:0,0:0:0:0:
301,81,158501,2,0,P|301:45|287:-13,1,78.75,8|0,0:0|0:0,0:0:0:0:
175,99,158854,1,4,3:0:0:0:
327,209,159031,2,0,P|387:198|435:190,1,78.75,2|8,0:0|0:0,0:0:0:0:
217,342,159384,6,0,P|162:304|66:334,1,157.5,4|2,0:0|0:0,0:0:0:0:
23,138,159913,2,0,P|30:178|40:240,1,78.75,10|2,0:0|0:0,0:0:0:0:
286,187,160266,2,0,P|240:180|184:164,1,78.75,4|2,3:0|0:0,0:0:0:0:
136,223,160531,2,0,P|139:245|146:291,1,39.375,2|8,0:0|0:0,0:0:0:0:
357,331,160795,6,0,B|476:312|476:312|467:333|464:354,1,157.5,2|2,0:0|0:0,0:0:0:0:
296,176,161325,1,10,0:0:0:0:
462,233,161501,1,2,0:0:0:0:
271,308,161678,1,4,3:0:0:0:
435,137,161854,2,0,P|484:136|534:156,1,78.75,2|8,0:0|0:0,0:0:0:0:
292,217,162207,6,0,P|281:128|268:40,1,157.5,4|0,0:0|0:0,0:0:0:0:
393,165,162737,1,10,0:0:0:0:
176,93,162913,1,2,0:0:0:0:
363,2,163090,2,0,P|357:40|352:80,1,78.75,4|0,3:0|0:0,0:0:0:0:
481,270,163442,5,8,0:0:0:0:
316,183,163619,2,0,P|356:171|408:163,1,78.75,2|4,0:0|3:0,0:0:0:0:
307,293,163972,1,2,0:0:0:0:
457,245,164148,1,8,0:0:0:0:
270,96,164325,2,0,P|227:133|235:229,1,157.5,2|8,0:0|0:0,0:0:0:0:
233,226,164766,1,8,0:0:0:0:
233,226,164854,1,8,0:0:0:0:
497,78,165031,1,8,0:0:0:0:
497,78,165119,1,8,0:0:0:0:
497,78,165207,6,0,B|386:90|386:90|336:57,1,157.5,6|8,0:0|0:0,0:0:0:0:
431,249,165737,2,0,P|434:208|444:155,1,78.75,2|4,0:0|3:0,0:0:0:0:
243,40,166090,2,0,P|250:78|253:117,1,78.75,2|8,0:0|0:0,0:0:0:0:
292,330,166442,6,0,P|250:295|152:326,1,157.5,2|2,0:0|0:0,0:0:0:0:
0,232,166972,2,0,P|39:229|77:220,1,78.75,8|2,0:0|0:0,0:0:0:0:
209,134,167325,1,4,3:0:0:0:
155,249,167501,1,0,0:0:0:0:
292,183,167678,1,8,0:0:0:0:
117,112,167854,1,0,0:0:0:0:
241,259,168031,5,2,0:0:0:0:
354,75,168207,1,2,0:0:0:0:
142,201,168384,1,10,0:0:0:0:
415,274,168560,2,0,P|456:262|520:259,1,78.75,2|4,0:0|3:0,0:0:0:0:
121,351,168913,2,0,P|80:339|15:336,1,78.75,2|8,0:0|0:0,0:0:0:0:
262,185,169266,6,0,P|276:255|296:373,1,157.5,2|2,0:0|0:0,0:0:0:0:
347,157,169795,1,8,0:0:0:0:
149,261,169972,2,0,B|106:259|77:240|77:240|43:270|-10:272,1,157.5,2|0,0:0|0:0,0:0:0:0:
164,136,170501,2,0,P|208:140|259:146,1,78.75,8|0,0:0|0:0,0:0:0:0:
423,37,170854,6,0,B|440:83|440:83|428:137,1,105,12|0,0:0|0:0,0:0:0:0:
209,293,171207,2,0,B|191:246|191:246|203:192,1,105,8|0,0:0|0:0,0:0:0:0:
359,311,171560,1,8,0:0:0:0:
126,384,171736,1,0,0:0:0:0:
335,213,171913,2,0,P|383:216|440:250,1,105,8|0,0:0|0:0,0:0:0:0:
214,88,172265,6,0,P|208:140|202:192,1,105,8|0,0:0|0:0,0:0:0:0:
344,138,172618,1,8,0:0:0:0:
81,108,172795,1,0,0:0:0:0:
329,252,172971,2,0,P|380:238|453:250,1,105,8|0,0:0|0:0,0:0:0:0:
162,355,173324,2,0,P|111:341|38:353,1,105,8|0,0:0|0:0,0:0:0:0:
298,44,173678,6,0,P|226:50|154:56,1,144.375,4|0,1:0|0:0,0:0:0:0:
154,56,174031,1,8,0:0:0:0:
312,217,174207,6,0,P|374:170|450:179,1,157.5,4|0,1:0|0:0,0:0:0:0:
512,243,174560,1,8,0:0:0:0:
177,363,174737,6,0,B|161:298|161:298|175:269|175:269|158:193,1,170.625,4|0,1:0|0:0,0:0:0:0:
98,121,175090,1,8,0:0:0:0:
252,311,175266,6,0,B|359:331|319:263|428:282,1,183.75,4|0,1:0|0:0,0:0:0:0:
502,367,175619,1,8,0:0:0:0:
285,222,175795,5,8,0:0:0:0:
279,185,175883,1,8,0:0:0:0:
285,148,175971,1,8,0:0:0:0:
303,116,176059,1,8,0:0:0:0:
331,91,176147,1,8,0:0:0:0:
365,77,176236,1,8,0:0:0:0:
402,74,176324,1,8,0:0:0:0:
438,84,176412,1,8,0:0:0:0:
121,320,176830,5,2,0:0:0:0:
71,210,177006,1,2,0:0:0:0:
196,248,177182,1,2,0:0:0:0:
27,319,177359,1,2,0:0:0:0:
216,363,177535,2,0,P|253:359|297:356,1,65.625,2|0,0:0|0:0,0:0:0:0:
347,293,177913,6,0,P|337:228|327:163,1,131.25,4|0,0:0|0:0,0:0:0:0:
327,163,178266,1,8,0:0:0:0:
152,67,178442,2,0,P|103:77|97:192,1,175,2|0,0:0|0:0,0:0:0:0:
282,85,178972,2,0,P|276:41|265:0,1,87.5,8|0,0:0|0:0,0:0:0:0:
205,223,179325,5,4,1:0:0:0:
424,82,179501,1,2,0:0:0:0:
193,195,179678,1,4,3:0:0:0:
425,320,179854,1,2,0:0:0:0:
181,169,180031,1,4,3:0:0:0:
454,67,180207,2,0,P|459:108|466:163,1,87.5,2|8,0:0|0:0,0:0:0:0:
284,341,180560,6,0,P|241:337|197:334,1,87.5,4|4,1:0|3:0,0:0:0:0:
39,192,180913,2,0,P|90:143|183:165,1,131.25,2|0,0:0|0:0,0:0:0:0:
181,169,181266,1,2,0:0:0:0:
108,370,181442,2,0,P|102:325|94:266,1,87.5,4|0,3:0|0:0,0:0:0:0:
189,247,181707,2,0,P|182:268|181:300,1,43.75,2|8,0:0|0:0,0:0:0:0:
80,181,181972,1,2,0:0:0:0:
314,244,182148,6,0,B|373:205|444:216|444:216|419:277,1,175,4|8,1:0|0:0,0:0:0:0:
198,90,182678,1,0,0:0:0:0:
375,134,182854,1,4,3:0:0:0:
188,240,183031,1,0,0:0:0:0:
278,18,183207,2,0,P|285:61|292:104,1,87.5,8|0,0:0|0:0,0:0:0:0:
188,240,183560,6,0,P|65:257|-26:275,1,175,4|8,1:0|0:0,0:0:0:0:
213,224,184090,1,2,0:0:0:0:
107,357,184266,1,4,3:0:0:0:
328,265,184442,1,2,0:0:0:0:
126,147,184619,1,10,0:0:0:0:
284,365,184795,6,0,P|301:332|426:346,1,175,4|0,1:0|0:0,0:0:0:0:
512,95,185325,1,4,3:0:0:0:
368,170,185501,2,0,B|265:186|301:122|202:138,1,175,4|0,1:0|0:0,0:0:0:0:
33,37,186031,2,0,P|76:32|119:22,1,87.5,8|0,0:0|0:0,0:0:0:0:
101,312,186384,6,0,P|90:225|80:156,1,131.25,4|0,1:0|0:0,0:0:0:0:
140,96,186737,2,0,P|199:81|240:186,1,164.0625,4|0,1:0|0:0,0:0:0:0:
241,191,187090,1,4,1:0:0:0:
438,96,187266,2,0,P|394:89|351:80,1,87.5,2|8,0:0|0:0,0:0:0:0:
241,191,187619,1,2,0:0:0:0:
180,21,187795,5,4,1:0:0:0:
276,341,187972,1,2,0:0:0:0:
180,21,188148,1,8,0:0:0:0:
16,205,188325,6,0,P|57:188|100:180,1,87.5,4|0,1:0|0:0,0:0:0:0:
342,272,188678,1,2,0:0:0:0:
209,8,188854,2,0,P|196:72|184:137,1,131.25,4|0,1:0|0:0,0:0:0:0:
163,240,189207,5,4,1:0:0:0:
343,145,189384,1,2,0:0:0:0:
90,28,189560,1,12,3:0:0:0:
318,132,189737,1,2,0:0:0:0:
33,188,189913,1,4,3:0:0:0:
252,0,190090,2,0,P|246:43|241:86,1,87.5,2|8,0:0|0:0,0:0:0:0:
387,270,190442,6,0,P|433:265|490:254,1,87.5,4|4,1:0|3:0,0:0:0:0:
204,353,190795,2,0,P|147:323|83:332,1,131.25,2|0,0:0|0:0,0:0:0:0:
56,353,191148,1,2,0:0:0:0:
240,152,191325,2,0,P|236:195|232:239,1,87.5,4|0,3:0|0:0,0:0:0:0:
259,256,191590,2,0,L|251:315,1,43.75,2|8,0:0|0:0,0:0:0:0:
71,226,191854,1,2,0:0:0:0:
350,194,192031,6,0,P|415:182|496:174,1,131.25,4|0,1:0|0:0,0:0:0:0:
512,189,192384,1,8,0:0:0:0:
260,99,192560,1,2,0:0:0:0:
441,13,192736,2,0,P|434:56|427:99,1,87.5,4|0,3:0|0:0,0:0:0:0:
479,175,193001,2,0,P|507:166|536:167,1,43.75,2|0,0:0|0:0,0:0:0:0:
440,323,193266,1,2,0:0:0:0:
272,234,193442,6,0,B|210:227|158:260|158:260|109:232,1,175,4|8,1:0|0:0,0:0:0:0:
0,128,193972,1,0,0:0:0:0:
206,198,194148,1,4,3:0:0:0:
10,285,194325,1,0,0:0:0:0:
179,93,194501,2,0,P|174:50|165:6,1,87.5,8|0,0:0|0:0,0:0:0:0:
92,208,194854,5,4,1:0:0:0:
294,117,195031,1,2,0:0:0:0:
42,62,195207,1,10,0:0:0:0:
293,228,195384,2,0,P|334:212|379:208,1,87.5,2|8,0:0|3:0,0:0:0:0:
69,179,195737,2,0,P|56:222|36:260,1,87.5,2|8,0:0|0:0,0:0:0:0:
203,151,196090,6,0,P|177:71|232:8,1,175,4|0,1:0|0:0,0:0:0:0:
415,159,196619,1,8,0:0:0:0:
210,230,196795,1,0,0:0:0:0:
388,59,196972,2,0,P|430:67|473:75,1,87.5,4|0,3:0|0:0,0:0:0:0:
390,315,197325,5,8,0:0:0:0:
275,103,197501,2,0,P|222:123|223:244,1,175,4|0,1:0|0:0,0:0:0:0:
389,126,198031,2,0,P|380:80|365:5,1,87.5,10|2,0:0|0:0,0:0:0:0:
283,186,198384,1,4,3:0:0:0:
507,128,198560,1,4,3:0:0:0:
274,0,198737,1,4,3:0:0:0:
158,197,198917,6,0,B|125:207|115:234|115:234|149:269|132:368,1,175,4|0,1:0|0:0,0:0:0:0:
66,160,199446,1,4,1:0:0:0:
337,261,199622,2,0,P|383:247|428:240,1,87.5,4|8,1:0|0:0,0:0:0:0:
243,72,199975,5,4,3:0:0:0:
200,80,200063,1,4,3:0:0:0:
163,103,200151,1,4,3:0:0:0:
138,139,200239,1,4,3:0:0:0:
128,181,200327,1,4,3:0:0:0:
135,224,200416,1,4,3:0:0:0:
157,261,200505,6,0,P|222:252|278:246,1,98.4375,4|0,1:0|0:0,0:0:0:0:
286,259,200857,2,0,P|282:291|278:324,1,65.625,2|0,0:0|0:0,0:0:0:0:
379,261,201211,1,8,0:0:0:0:
200,188,201387,2,0,P|203:220|207:253,1,65.625,2|2,0:0|0:0,0:0:0:0:
324,174,201740,6,0,B|372:161|411:181|411:181|431:172|444:139,1,131.25,4|0,3:0|0:0,0:0:0:0:
296,20,202269,2,0,P|259:36|264:135,1,131.25,4|10,3:0|0:0,0:0:0:0:
71,229,202975,2,0,P|63:193|53:142,1,65.625,2|0,0:0|0:0,0:0:0:0:
28,345,203328,6,0,B|87:306|158:317|158:317|130:379,1,175,4|10,1:0|0:0,0:0:0:0:
397,193,203857,2,0,B|304:213|304:213|243:183,1,131.25,4|0,1:0|0:0,0:0:0:0:
241,180,204210,2,0,P|248:219|254:272,1,87.5,4|10,3:0|0:0,0:0:0:0:
21,161,204564,6,0,P|64:98|177:127,1,175,4|0,1:0|0:0,0:0:0:0:
154,103,205005,1,8,0:0:0:0:
154,103,205093,1,8,0:0:0:0:
454,63,205269,1,8,0:0:0:0:
424,56,205358,1,8,0:0:0:0:
393,50,205446,1,8,0:0:0:0:
362,44,205534,1,0,3:0:0:0:
331,38,205622,2,0,L|338:114,1,43.75,4|4,3:0|3:0,0:0:0:0:
347,174,205799,5,4,3:0:0:0:
348,182,205887,1,4,3:0:0:0:
349,190,205975,1,4,3:0:0:0:
350,198,206063,1,4,3:0:0:0:
351,205,206152,6,0,P|373:199|507:187,1,157.5,4|8,1:0|0:0,0:0:0:0:
256,242,206681,2,0,P|233:201|272:79,1,157.5,2|2,0:0|0:0,0:0:0:0:
407,237,207210,2,0,P|401:295|395:354,1,118.125,10|0,0:0|0:0,0:0:0:0:
409,384,207563,5,4,1:0:0:0:
244,282,207740,1,2,0:0:0:0:
407,236,207916,1,10,0:0:0:0:
316,326,208093,1,2,0:0:0:0:
280,181,208269,1,4,3:0:0:0:
426,252,208445,1,2,0:0:0:0:
217,362,208622,1,10,0:0:0:0:
217,362,208798,1,2,0:0:0:0:
32,244,208975,6,0,B|81:215|81:215|124:254|183:247,1,157.5,4|8,1:0|0:0,0:0:0:0:
269,142,209504,1,0,0:0:0:0:
182,53,209681,2,0,P|169:91|172:131,1,78.75,4|0,3:0|0:0,0:0:0:0:
348,227,210034,2,0,P|362:188|357:148,1,78.75,8|0,0:0|0:0,0:0:0:0:
305,34,210387,5,4,1:0:0:0:
449,142,210563,1,0,0:0:0:0:
276,310,210740,1,8,0:0:0:0:
276,310,211093,2,0,P|238:304|194:306,1,78.75,4|0,3:0|0:0,0:0:0:0:
4,219,211446,2,0,B|79:195|79:195|118:212,1,118.125,10|0,0:0|0:0,0:0:0:0:
193,156,211799,6,0,P|211:94|139:10,1,157.5,4|10,1:0|0:0,0:0:0:0:
115,210,212328,2,0,B|160:189|160:189|210:226|270:210,1,157.5,2|2,0:0|0:0,0:0:0:0:
416,97,212857,2,0,P|375:95|338:85,1,78.75,8|0,0:0|0:0,0:0:0:0:
341,350,213211,6,0,P|348:279|366:189,1,157.5,4|10,1:0|0:0,0:0:0:0:
433,67,213740,1,0,0:0:0:0:
250,202,213916,1,8,0:0:0:0:
227,215,214004,1,8,0:0:0:0:
202,223,214092,1,8,0:0:0:0:
175,225,214180,1,8,0:0:0:0:
149,221,214268,1,8,0:0:0:0:
125,211,214357,1,8,0:0:0:0:
103,196,214445,1,8,0:0:0:0:
86,176,214533,1,8,0:0:0:0:
71,159,214622,6,0,B|58:215|58:215|72:251|72:251|58:309,1,153.125,12|0,0:0|0:0,0:0:0:0:
0,377,215328,5,8,0:0:0:0:
274,180,215504,1,8,0:0:0:0:
0,58,215681,1,8,0:0:0:0:
207,343,215858,6,0,B|323:313|323:313|354:322|348:362,1,175,4|0,1:0|0:0,0:0:0:0:
474,180,216387,2,0,P|465:225|461:278,1,87.5,8|0,0:0|0:0,0:0:0:0:
262,142,216740,2,0,P|304:147|349:130,1,87.5,8|0,0:0|0:0,0:0:0:0:
512,308,217093,2,0,L|416:302,1,87.5,8|0,0:0|0:0,0:0:0:0:
218,354,217446,6,0,P|209:273|195:180,2,175,12|8|8,0:0|0:0|0:0,0:0:0:0:
485,213,218504,2,0,P|441:211|400:196,1,87.5,8|0,0:0|0:0,0:0:0:0:
373,186,218769,1,0,0:0:0:0:
373,185,218857,6,0,P|379:229|385:272,1,87.5,12|0,0:0|0:0,0:0:0:0:
198,136,219210,2,0,P|204:85|220:44,1,87.5,8|0,0:0|0:0,0:0:0:0:
277,265,219563,2,0,P|224:281|188:280,1,87.5,8|0,0:0|0:0,0:0:0:0:
394,163,219916,2,0,P|437:164|478:178,1,87.5,8|0,0:0|0:0,0:0:0:0:
227,136,220269,6,0,P|221:93|215:50,1,87.5,12|0,0:0|0:0,0:0:0:0:
394,163,220622,2,0,P|388:206|382:249,1,87.5,8|0,0:0|0:0,0:0:0:0:
205,328,220975,2,0,P|160:316|109:319,1,87.5,8|0,0:0|0:0,0:0:0:0:
425,379,221328,2,0,P|470:367|521:370,1,87.5,8|0,0:0|0:0,0:0:0:0:
369,105,221681,6,0,P|358:191|349:278,1,175,12|8,0:0|0:0,0:0:0:0:
49,142,222387,2,0,B|93:130|121:94|121:94|161:114|215:99,1,175,8|8,0:0|0:0,0:0:0:0:
153,362,223093,6,0,P|113:352|39:369,1,87.5,12|0,0:0|0:0,0:0:0:0:
154,148,223445,2,0,L|144:234,1,87.5,8|0,0:0|0:0,0:0:0:0:
353,102,223798,2,0,P|347:59|331:16,1,87.5,8|0,0:0|0:0,0:0:0:0:
277,229,224151,2,0,P|342:224|393:262,1,131.25,8|0,0:0|0:0,0:0:0:0:
406,297,224504,5,12,0:0:0:0:
226,89,224857,1,8,0:0:0:0:
502,222,225210,1,8,0:0:0:0:
207,378,225563,1,8,0:0:0:0:
36,235,225916,5,12,0:0:0:0:
29,219,226093,1,0,0:0:0:0:
126,164,226269,5,8,0:0:0:0:
119,180,226446,1,0,0:0:0:0:
224,234,226622,5,8,0:0:0:0:
217,218,226799,1,0,0:0:0:0:
314,163,226975,5,8,0:0:0:0:
280,349,227151,1,8,0:0:0:0:
42,296,227328,6,0,P|89:281|148:276,1,105,12|2,0:0|0:0,0:0:0:0:
38,79,227681,2,0,B|20:132|20:132|34:189,1,105,10|2,0:0|0:0,0:0:0:0:
249,80,228034,1,10,0:0:0:0:
128,121,228210,1,2,0:0:0:0:
226,205,228387,1,8,0:0:0:0:
386,104,228563,6,0,P|379:44|373:0,1,105,2|8,0:0|0:0,0:0:0:0:
505,239,228916,2,0,P|459:212|404:214,1,105,2|10,0:0|0:0,0:0:0:0:
212,360,229269,1,2,0:0:0:0:
434,307,229446,1,8,0:0:0:0:
268,156,229622,2,0,B|251:208|251:208|266:262|266:262,1,105,2|8,0:0|0:0,0:0:0:0:
361,213,229975,1,0,0:0:0:0:
204,360,230152,6,0,B|164:339|156:296|156:296|84:304|56:364,1,210,14|10,0:0|0:0,0:0:0:0:
250,273,230681,1,2,0:0:0:0:
83,124,230857,2,0,B|69:172|69:172|84:226,1,105,10|2,0:0|0:0,0:0:0:0:
321,123,231210,2,0,B|334:70|334:70|316:18,1,105,8|2,0:0|0:0,0:0:0:0:
169,110,231563,5,14,0:0:0:0:
316,224,231740,2,0,B|362:238|411:211|411:211|427:225|427:225|473:220|521:253,1,210,2|2,0:0|0:0,0:0:0:0:
259,134,232269,1,8,0:0:0:0:
451,103,232445,1,2,0:0:0:0:
349,318,232622,2,0,P|296:305|242:304,1,105,8|0,0:0|0:0,0:0:0:0:
154,341,232887,1,2,0:0:0:0:
154,341,232975,5,14,0:0:0:0:
0,190,233152,2,0,P|54:184|104:178,1,105,2|10,0:0|0:0,0:0:0:0:
54,302,233504,1,2,0:0:0:0:
253,180,233681,1,8,0:0:0:0:
41,92,233857,1,2,0:0:0:0:
201,267,234034,2,0,B|250:285|250:285|300:268,1,105,10|2,0:0|0:0,0:0:0:0:
465,100,234387,5,14,0:0:0:0:
253,180,234563,1,2,0:0:0:0:
454,317,234740,2,0,P|460:264|467:212,1,105,10|0,0:0|0:0,0:0:0:0:
221,347,235093,2,0,B|124:313|124:313|105:341|83:350,1,157.5,8|0,0:0|0:0,0:0:0:0:
43,268,235445,2,0,B|31:220|31:220|44:165,1,105,8|0,0:0|0:0,0:0:0:0:
128,19,235798,5,14,0:0:0:0:
170,236,235975,1,2,0:0:0:0:
271,112,236151,5,10,0:0:0:0:
221,347,236328,1,2,0:0:0:0:
389,206,236504,5,10,0:0:0:0:
156,116,236681,1,0,0:0:0:0:
279,286,236857,5,8,0:0:0:0:
512,196,237034,1,2,0:0:0:0:
345,44,237210,5,8,0:0:0:0:
349,69,237298,1,8,0:0:0:0:
354,94,237387,1,8,0:0:0:0:
493,301,237563,5,8,0:0:0:0:
464,278,237651,1,8,0:0:0:0:
427,269,237740,1,8,0:0:0:0:
173,147,237916,5,8,0:0:0:0:
209,144,238004,1,8,0:0:0:0:
245,141,238093,1,8,0:0:0:0:
281,138,238181,1,8,0:0:0:0:
317,135,238269,1,8,0:0:0:0:
353,132,238357,1,8,0:0:0:0:
389,129,238445,1,8,0:0:0:0:
425,125,238534,1,8,0:0:0:0:
454,126,238622,6,0,P|466:89|436:31,1,87.5,2|0,3:0|0:0,0:0:0:0:
373,107,239152,2,0,P|377:150|383:193,1,87.5,2|0,0:0|0:0,0:0:0:0:
461,254,239681,2,0,P|460:275|456:297,1,43.75,2|0,0:0|0:0,0:0:0:0:
368,362,240034,5,2,3:0:0:0:
304,284,240210,1,2,0:0:0:0:
206,256,240387,1,2,0:0:0:0:
108,281,240563,1,2,0:0:0:0:
213,231,240740,1,2,0:0:0:0:
123,155,240916,2,0,P|117:179|111:206,1,43.75,2|0,0:0|0:0,0:0:0:0:
107,320,241269,6,0,P|143:303|200:314,1,87.5,2|2,3:0|0:0,0:0:0:0:
294,238,241798,2,0,P|268:235|242:232,1,43.75,2|2,0:0|0:0,0:0:0:0:
185,150,242151,2,0,P|189:117|193:84,2,65.625,2|2|2,0:0|0:0|0:0,0:0:0:0:
250,232,242858,6,0,B|306:255|349:209|349:209|397:219|404:255,1,175,2|2,3:0|0:0,0:0:0:0:
400,244,244093,1,2,0:0:0:0:
455,161,244269,6,0,P|411:147|368:150,1,87.5,2|2,3:0|0:0,0:0:0:0:
230,127,244798,1,2,0:0:0:0:
314,59,244975,2,0,P|311:80|308:102,1,43.75,2|2,0:0|0:0,0:0:0:0:
292,198,245328,1,2,0:0:0:0:
400,237,245505,6,0,P|443:227|486:218,1,87.5,2|0,3:0|0:0,0:0:0:0:
400,331,246034,1,2,0:0:0:0:
400,331,246211,2,0,P|354:317|306:323,1,87.5,2|0,0:0|0:0,0:0:0:0:
95,354,246916,1,2,0:0:0:0:
29,277,247093,6,0,P|25:229|17:186,1,87.5,2|0,3:0|0:0,0:0:0:0:
174,89,247622,2,0,P|166:129|160:183,1,87.5,2|0,0:0|0:0,0:0:0:0:
250,289,248152,6,0,B|328:248|403:263|403:263|382:297,1,196.875,12|0,0:0|0:0,0:0:0:0:
488,212,248505,6,0,P|482:164|477:116,1,96.25,12|0,0:0|0:0,0:0:0:0:
477,116,248769,1,0,0:0:0:0:
477,116,248858,1,2,0:0:0:0:
382,295,249034,2,0,P|446:296|502:330,1,113.75,12|0,0:0|0:0,0:0:0:0:
240,156,249387,1,2,0:0:0:0:
464,11,249564,2,0,P|460:72|455:133,1,122.5,12|0,0:0|0:0,0:0:0:0:
331,342,249916,5,4,1:0:0:0:
511,247,250093,1,2,0:0:0:0:
258,130,250269,1,10,0:0:0:0:
486,234,250446,1,2,0:0:0:0:
222,262,250622,1,4,3:0:0:0:
407,110,250799,2,0,P|452:94|499:80,1,87.5,2|8,0:0|0:0,0:0:0:0:
225,70,251151,1,4,1:0:0:0:
347,251,251328,6,0,L|329:163,1,87.5,2|2,0:0|0:0,0:0:0:0:
191,32,251680,1,10,0:0:0:0:
225,239,251857,1,2,0:0:0:0:
282,0,252034,1,4,3:0:0:0:
140,182,252210,2,0,P|125:246|111:300,1,87.5,2|8,0:0|0:0,0:0:0:0:
85,70,252563,1,2,0:0:0:0:
225,239,252740,6,0,P|267:219|360:168,1,131.25,4|0,1:0|0:0,0:0:0:0:
360,163,253093,1,10,0:0:0:0:
228,20,253269,2,0,P|217:69|213:130,1,87.5,2|4,0:0|3:0,0:0:0:0:
374,249,253622,2,0,P|369:205|359:162,1,87.5,2|8,0:0|0:0,0:0:0:0:
290,327,253975,1,2,0:0:0:0:
456,247,254152,6,0,P|448:166|425:70,1,175,4|8,1:0|0:0,0:0:0:0:
255,5,254681,1,0,0:0:0:0:
506,31,254857,1,4,3:0:0:0:
325,163,255034,1,0,0:0:0:0:
488,0,255210,1,10,0:0:0:0:
488,0,255563,5,4,1:0:0:0:
363,201,255740,1,2,0:0:0:0:
343,39,255916,1,10,0:0:0:0:
479,180,256092,2,0,P|494:230|508:280,1,87.5,2|4,0:0|3:0,0:0:0:0:
278,220,256446,2,0,P|322:205|375:201,1,87.5,2|4,0:0|3:0,0:0:0:0:
193,317,256798,1,4,1:0:0:0:
139,229,256975,6,0,P|153:184|182:140,1,87.5,2|0,0:0|0:0,0:0:0:0:
331,0,257328,1,4,3:0:0:0:
322,175,257504,1,0,0:0:0:0:
180,45,257681,2,0,P|128:48|64:50,1,87.5,4|0,3:0|0:0,0:0:0:0:
174,246,258033,1,10,0:0:0:0:
50,178,258210,1,4,1:0:0:0:
205,142,258387,6,0,P|297:119|346:110,1,131.25,4|0,3:0|0:0,0:0:0:0:
353,115,258739,1,8,0:0:0:0:
484,272,258916,1,2,0:0:0:0:
320,217,259093,1,4,3:0:0:0:
468,144,259269,1,2,0:0:0:0:
364,340,259445,1,8,0:0:0:0:
235,196,259622,6,0,P|228:118|230:49,1,140,4|0,1:0|0:0,0:0:0:0:
329,157,260151,1,10,0:0:0:0:
232,275,260328,2,0,L|159:264,1,70,14|0,0:0|3:0,0:0:0:0:
54,146,260681,5,12,3:0:0:0:
71,142,260769,1,12,3:0:0:0:
88,138,260857,1,12,3:0:0:0:
105,134,260945,1,12,3:0:0:0:
122,131,261033,1,12,3:0:0:0:
139,127,261122,1,12,3:0:0:0:
152,122,261210,6,0,P|223:111|298:104,1,140,4|2,1:0|0:0,0:0:0:0:
413,138,261740,1,0,0:0:0:0:
307,205,261916,2,0,P|296:274|289:343,1,140,8|2,0:0|0:0,0:0:0:0:
152,122,262446,6,0,P|162:191|169:260,1,140,4|4,3:0|3:0,0:0:0:0:
66,106,262975,2,0,P|91:62|197:42,1,140,4|8,3:0|0:0,0:0:0:0:
379,63,263681,1,2,0:0:0:0:
379,63,264034,6,0,B|404:35|404:35|443:118|392:200,1,175,4|10,1:0|0:0,0:0:0:0:
286,269,264563,2,0,B|251:218|290:135|290:135|315:163,1,175,4|0,1:0|0:0,0:0:0:0:
369,349,265093,1,10,0:0:0:0:
211,363,265269,6,0,P|170:339|106:316,1,87.5,4|0,1:0|0:0,0:0:0:0:
60,240,265622,1,0,0:0:0:0:
44,216,265710,1,8,0:0:0:0:
32,187,265799,2,8,P|34:164|36:143,1,43.75,8|0,0:0|0:0,0:0:0:0:
55,66,265975,1,8,0:0:0:0:
85,59,266064,1,8,0:0:0:0:
116,53,266152,1,8,0:0:0:0:
147,47,266240,1,8,0:0:0:0:
178,41,266328,2,0,P|174:73|171:117,1,43.75,8|0,0:0|0:0,0:0:0:0:
162,180,266505,5,12,3:0:0:0:
161,188,266593,1,4,3:0:0:0:
160,196,266681,1,4,3:0:0:0:
158,204,266769,1,4,3:0:0:0:
158,212,266857,6,0,P|229:184|330:162,1,175,4|8,1:0|0:0,0:0:0:0:
419,352,267387,2,0,P|333:333|251:302,1,175,2|2,0:0|0:0,0:0:0:0:
93,142,267916,1,10,0:0:0:0:
93,142,268269,5,4,1:0:0:0:
43,292,268446,1,2,0:0:0:0:
215,219,268622,2,0,P|220:175|224:132,1,87.5,10|0,0:0|0:0,0:0:0:0:
58,50,268975,1,4,3:0:0:0:
124,227,269151,1,2,0:0:0:0:
172,39,269328,1,10,0:0:0:0:
31,173,269504,1,2,0:0:0:0:
215,219,269681,6,0,P|296:187|380:162,2,175,4|8|2,1:0|0:0|0:0,0:0:0:0:
74,325,270740,1,8,0:0:0:0:
74,325,271093,5,4,1:0:0:0:
8,209,271269,1,0,0:0:0:0:
150,116,271446,1,8,0:0:0:0:
156,297,271622,2,0,P|131:252|117:208,1,87.5,4|0,1:0|0:0,0:0:0:0:
150,116,271975,1,0,0:0:0:0:
270,165,272152,2,0,P|327:166|370:158,1,91.875,10|0,0:0|0:0,0:0:0:0:
365,118,272505,6,0,P|338:180|321:290,1,175,4|10,1:0|0:0,0:0:0:0:
199,43,273034,2,0,P|231:123|243:210,1,175,2|2,0:0|0:0,0:0:0:0:
365,118,273563,2,0,P|406:100|457:85,1,87.5,8|0,0:0|0:0,0:0:0:0:
446,296,273916,6,0,P|405:283|365:266,1,87.5,4|0,1:0|0:0,0:0:0:0:
218,158,274269,1,10,0:0:0:0:
269,359,274446,1,2,0:0:0:0:
331,122,274622,1,4,3:0:0:0:
176,288,274798,6,0,L|166:238,1,43.75,8|8,0:0|0:0,0:0:0:0:
102,114,274975,2,0,L|93:156,1,43.75,8|8,0:0|0:0,0:0:0:0:
31,284,275151,2,0,L|21:234,1,43.75,8|8,0:0|0:0,0:0:0:0:
176,144,275328,6,0,B|211:162|256:140|256:140|264:144|264:144|272:140|272:140|280:144|280:144|288:140|288:140|296:144|296:144|339:124|380:140,1,214.375,14|0,0:0|0:0,0:0:0:0:
344,232,276034,5,8,0:0:0:0:
211,52,276210,1,8,0:0:0:0:
160,344,276387,1,8,0:0:0:0:
420,302,276563,6,0,P|443:219|404:144,1,175,4|0,1:0|0:0,0:0:0:0:
258,252,277093,2,0,P|322:236|366:228,1,87.5,8|0,0:0|0:0,0:0:0:0:
288,364,277445,1,8,0:0:0:0:
208,152,277622,1,0,0:0:0:0:
148,312,277798,2,0,P|86:293|48:284,1,87.5,8|0,0:0|0:0,0:0:0:0:
208,152,278151,6,0,P|270:133|308:124,1,87.5,12|0,0:0|0:0,0:0:0:0:
456,76,278504,1,8,0:0:0:0:
348,304,278681,1,0,0:0:0:0:
376,144,278857,1,8,0:0:0:0:
480,339,279034,2,0,L|484:296,1,43.75,2|0,0:0|0:0,0:0:0:0:
488,243,279210,2,0,P|444:239|401:231,1,87.5,8|0,0:0|0:0,0:0:0:0:
216,148,279563,6,0,P|176:152|113:164,1,87.5,12|0,0:0|0:0,0:0:0:0:
56,324,279916,1,8,0:0:0:0:
108,144,280093,1,0,0:0:0:0:
200,360,280269,1,8,0:0:0:0:
280,148,280445,1,0,0:0:0:0:
376,368,280622,2,0,P|332:352|278:343,1,87.5,8|0,0:0|0:0,0:0:0:0:
472,200,280975,6,0,P|429:208|388:223,1,87.5,12|0,0:0|0:0,0:0:0:0:
288,56,281328,2,0,P|330:64|371:79,1,87.5,8|0,0:0|0:0,0:0:0:0:
472,200,281681,2,0,L|496:304,1,87.5,8|0,0:0|0:0,0:0:0:0:
300,200,282034,1,12,0:0:0:0:
456,112,282210,1,0,0:0:0:0:
372,348,282387,6,0,P|328:360|260:352,1,87.5,12|0,0:0|0:0,0:0:0:0:
150,171,282740,2,0,P|194:165|251:177,1,87.5,8|0,0:0|0:0,0:0:0:0:
149,372,283093,2,0,P|141:328|148:285,1,87.5,8|0,0:0|0:0,0:0:0:0:
377,134,283445,2,0,P|383:178|370:235,1,87.5,8|0,0:0|0:0,0:0:0:0:
264,53,283798,6,0,L|372:37,1,87.5,12|0,0:0|0:0,0:0:0:0:
196,200,284151,2,0,L|304:216,1,87.5,8|0,0:0|0:0,0:0:0:0:
467,284,284504,1,8,0:0:0:0:
409,134,284681,1,0,0:0:0:0:
298,366,284857,1,8,0:0:0:0:
370,254,285034,1,0,0:0:0:0:
211,63,285210,6,0,L|200:177,1,87.5,12|0,0:0|0:0,0:0:0:0:
80,314,285563,2,0,L|71:226,1,87.5,8|0,0:0|0:0,0:0:0:0:
247,54,285916,2,0,L|238:141,1,87.5,8|0,0:0|0:0,0:0:0:0:
181,335,286269,1,8,0:0:0:0:
141,165,286445,1,0,0:0:0:0:
316,269,286622,6,0,P|345:289|390:333,1,87.5,12|0,0:0|0:0,0:0:0:0:
489,158,286975,2,0,P|460:178|415:222,1,87.5,8|0,0:0|0:0,0:0:0:0:
311,49,287328,2,0,P|340:69|385:113,1,87.5,8|0,0:0|0:0,0:0:0:0:
505,268,287681,6,0,L|420:256,1,65.625,8|0,0:0|0:0,0:0:0:0:
351,297,288034,6,0,L|253:315,1,87.5,12|0,0:0|0:0,0:0:0:0:
136,137,288387,1,8,0:0:0:0:
269,201,288563,1,2,0:0:0:0:
139,286,288740,1,8,0:0:0:0:
227,97,288916,1,2,0:0:0:0:
341,254,289093,1,8,0:0:0:0:
185,190,289269,1,0,0:0:0:0:
345,134,289445,6,0,P|384:118|452:112,1,87.5,12|0,0:0|0:0,0:0:0:0:
452,282,289798,1,8,0:0:0:0:
265,203,289975,2,0,P|244:162|243:104,1,87.5,2|8,0:0|0:0,0:0:0:0:
345,134,290328,1,2,0:0:0:0:
255,309,290504,2,0,P|211:293|171:251,1,87.5,10|0,0:0|0:0,0:0:0:0:
44,105,290857,6,0,L|49:203,1,87.5,4|0,0:0|0:0,0:0:0:0:
134,21,291210,1,8,0:0:0:0:
178,188,291387,1,0,0:0:0:0:
254,19,291563,1,8,0:0:0:0:
308,187,291740,1,0,0:0:0:0:
184,276,291916,2,0,P|181:227|177:172,1,87.5,8|0,0:0|0:0,0:0:0:0:
90,58,292269,6,0,L|43:42,1,43.75,10|0,0:0|0:0,0:0:0:0:
266,199,292446,2,0,L|316:186,1,43.75,2|0,3:0|0:0,0:0:0:0:
104,149,292622,2,0,L|52:134,1,43.75,8|0,0:0|0:0,0:0:0:0:
220,90,292799,2,0,L|269:80,1,43.75,2|0,3:0|0:0,0:0:0:0:
423,64,292975,2,0,L|439:159,1,87.5,12|0,0:0|0:0,0:0:0:0:
422,362,293328,6,0,L|406:289,1,65.625,8|0,0:0|0:0,0:0:0:0:
389,215,293681,6,0,B|345:195|345:195|304:196,1,87.5,12|0,0:0|0:0,0:0:0:0:
205,344,294034,2,0,B|248:363|248:363|290:363,1,87.5,8|0,0:0|0:0,0:0:0:0:
214,131,294387,2,0,B|194:174|194:174|195:216,1,87.5,8|0,0:0|0:0,0:0:0:0:
408,298,294740,2,0,B|408:257|408:257|388:214,1,87.5,8|0,0:0|0:0,0:0:0:0:
214,131,295093,6,0,L|120:124,1,87.5,12|0,0:0|0:0,0:0:0:0:
232,277,295445,2,0,L|326:270,1,87.5,8|0,0:0|0:0,0:0:0:0:
450,67,295798,1,8,0:0:0:0:
428,231,295975,1,0,0:0:0:0:
298,106,296152,2,0,P|289:63|277:22,1,87.5,8|0,0:0|0:0,0:0:0:0:
169,160,296505,6,0,P|156:201|147:244,1,87.5,12|0,0:0|0:0,0:0:0:0:
268,367,296857,2,0,P|309:354|352:345,1,87.5,8|0,0:0|0:0,0:0:0:0:
478,143,297210,1,8,0:0:0:0:
316,257,297387,1,0,0:0:0:0:
420,52,297563,1,8,0:0:0:0:
258,166,297740,1,0,0:0:0:0:
102,99,297916,6,0,P|92:56|79:14,1,87.5,12|0,0:0|0:0,0:0:0:0:
175,199,298269,2,0,P|162:240|152:283,1,87.5,8|0,0:0|0:0,0:0:0:0:
215,74,298622,1,8,0:0:0:0:
250,64,298710,1,8,0:0:0:0:
288,58,298798,1,8,0:0:0:0:
326,58,298886,1,8,0:0:0:0:
363,67,298974,5,8,0:0:0:0:
398,81,299063,1,8,0:0:0:0:
436,88,299151,1,8,0:0:0:0:
473,85,299239,1,8,0:0:0:0:
510,76,299327,5,12,0:0:0:0:
256,192,299416,12,4,306681,3:0:0:0:
