osu file format v14

[General]
AudioFilename: audio.mp3
AudioLeadIn: 0
PreviewTime: 61620
Countdown: 0
SampleSet: Soft
StackLeniency: 0.7
Mode: 0
LetterboxInBreaks: 0
WidescreenStoryboard: 0

[Editor]
DistanceSpacing: 1.4
BeatDivisor: 4
GridSize: 4
TimelineZoom: 1

[Metadata]
Title:Fatima (TV size)
TitleUnicode:ファティマ
Artist:Ito Kanako
ArtistUnicode:いとうかなこ
Creator:PantyDev
Version:Normal
Source:STEINS;GATE 0
Tags:Kurisu Makise Christina 2036 Second Season tv size amadeus opening Zero Divergence Okarin worldline beta Okabe Rintarou TheMefisto シュタインズ・ゲート ゼロ
BeatmapID:1553693
BeatmapSetID:735428

[Difficulty]
HPDrainRate:4
CircleSize:3
OverallDifficulty:4
ApproachRate:5
SliderMultiplier:1
SliderTickRate:1

[Events]
//Background and Video events
0,0,"bg.jpg",0,0
Video,0,"op.mp4"
//Break Periods
//Storyboard Layer 0 (Background)
//Storyboard Layer 1 (Fail)
//Storyboard Layer 2 (Pass)
//Storyboard Layer 3 (Foreground)
//Storyboard Sound Samples

[TimingPoints]
196,335.195530726257,4,2,4,55,1,0
196,-133.333333333333,4,2,4,55,0,0
866,-133.333333333333,4,2,6,55,0,0
1201,-133.333333333333,4,2,5,55,0,0
1536,-133.333333333333,4,2,4,55,0,0
2207,-133.333333333333,4,2,6,55,0,0
2542,-133.333333333333,4,2,5,55,0,0
2877,-133.333333333333,4,2,4,50,0,0
3547,-133.333333333333,4,2,6,40,0,0
3883,-133.333333333333,4,2,5,35,0,0
4218,-125,4,2,1,60,0,0
5559,-117.647058823529,4,2,1,80,0,0
14944,-117.647058823529,4,2,1,70,0,0
16285,-117.647058823529,4,2,2,60,0,0
27011,-117.647058823529,4,2,3,70,0,0
35056,-117.647058823529,4,2,3,70,0,0
37737,-117.647058823529,4,2,3,70,0,0
45782,-117.647058823529,4,2,3,70,0,0
48463,-117.647058823529,4,2,2,80,0,0
56508,-117.647058823529,4,2,2,85,0,0
60530,-117.647058823529,4,2,4,80,0,0
61704,-117.647058823529,4,2,1,95,0,1
77960,-117.647058823529,4,2,1,95,0,1
83324,-117.647058823529,4,2,2,80,0,0
88687,-117.647058823529,4,2,4,90,0,0
89022,-117.647058823529,4,2,5,80,0,0
89357,-117.647058823529,4,2,6,70,0,0
89692,-117.647058823529,4,2,5,60,0,0
90027,-117.647058823529,4,2,4,85,0,0
90363,-117.647058823529,4,2,5,45,0,0
90698,-117.647058823529,4,2,6,15,0,0
91033,-117.647058823529,4,2,5,5,0,0

[Colours]
Combo1 : 77,77,77
Combo2 : 155,55,30
Combo3 : 224,219,209
Combo4 : 176,166,153

[HitObjects]
52,124,196,6,0,P|124:103|200:137,1,150.000005722046,10|8,0:0|0:0,0:0:0:0:
256,192,1201,1,8,0:0:0:0:
304,268,1536,2,0,P|372:294|443:273,1,150,8|8,0:0|0:0,0:0:0:0:
376,212,2542,2,0,L|376:160,1,37.5000014305115,8|0,0:0|0:0,0:0:0:0:
376,128,2877,6,0,B|317:98|300:167|228:134,1,150.000005722046,10|8,0:0|0:0,0:0:0:0:
164,80,3883,1,8,0:0:0:0:
72,108,4218,2,0,P|59:148|79:191,1,80,2|2,0:0|0:0,0:0:0:0:
108,272,4888,2,0,L|52:272,1,40,8|8,0:0|0:0,0:0:0:0:
304,308,5559,6,0,P|324:280|382:264,1,85.0000016212464,6|8,0:0|0:0,0:0:0:0:
428,256,6061,1,2,0:0:0:0:
456,140,6397,1,0,0:0:0:0:
376,52,6732,1,0,0:0:0:0:
260,80,7067,2,0,P|224:83|171:53,2,85.0000016212464
88,120,8240,6,0,P|67:166|71:215,1,85.0000016212464,2|0,0:0|0:0,0:0:0:0:
84,256,8743,1,2,0:0:0:0:
148,356,9078,1,0,0:0:0:0:
208,252,9413,1,2,0:0:0:0:
272,352,9748,1,0,0:0:0:0:
340,252,10084,1,0,0:0:0:0:
404,352,10419,2,0,P|436:320|460:272,1,85.0000016212464,2|0,0:0|0:0,0:0:0:0:
476,232,10922,6,0,P|432:248|380:232,1,85.0000016212464,2|8,0:0|0:0,0:0:0:0:
340,252,11425,2,0,P|301:229|249:235,2,85.0000016212464,2|0|0,0:0|0:0|0:0,0:0:0:0:
364,136,12430,2,0,P|402:158|452:151,2,85.0000016212464
212,44,13603,6,0,P|162:75|199:255,1,255.000004863739,2|0,0:0|0:0,0:0:0:0:
263,332,14944,2,0,B|283:335|311:321|311:321|349:339|367:389,1,127.50000243187,8|8,0:0|0:0,0:0:0:0:
243,233,16285,6,0,P|205:162|226:74,1,170.000003242493,2|0,0:0|0:0,0:0:0:0:
332,28,17290,1,8,0:0:0:0:
436,88,17626,2,0,P|442:137|418:181,1,85.0000016212464,2|8,0:0|0:0,0:0:0:0:
328,233,18296,2,0,L|231:233,1,85.0000016212464,2|8,0:0|0:0,0:0:0:0:
124,228,18966,6,0,B|100:264|100:264|108:324,1,85.0000016212464,2|8,0:0|0:0,0:0:0:0:
216,356,19637,1,2,0:0:0:0:
336,356,19972,1,8,0:0:0:0:
336,356,20140,2,0,L|436:356,1,85.0000016212464,0|2,0:0|0:0,0:0:0:0:
460,312,20642,2,0,B|484:276|484:276|476:216,2,85.0000016212464,8|2|2,0:0|0:0|0:0,0:0:0:0:
360,244,21648,6,0,B|288:207|267:291|179:251,1,170.000003242493,2|2,0:0|0:0,0:0:0:0:
104,332,22654,1,8,0:0:0:0:
24,244,22989,2,0,L|24:142,1,85.0000016212464,2|8,0:0|0:0,0:0:0:0:
116,84,23659,2,0,P|164:77|208:101,1,85.0000016212464,2|8,0:0|0:0,0:0:0:0:
300,148,24330,6,0,P|348:154|392:130,1,85.0000016212464,2|8,0:0|0:0,0:0:0:0:
472,64,25000,1,2,0:0:0:0:
500,180,25335,1,8,0:0:0:0:
500,180,25503,2,0,L|500:282,1,85.0000016212464,0|8,0:0|0:0,0:0:0:0:
452,304,26006,2,0,B|379:289|379:289|306:318|306:318|233:304,1,212.500004053116,8|2,0:0|0:0,0:0:0:0:
196,292,27011,5,6,0:0:0:0:
58,302,27514,2,0,B|54:203|158:224|159:107,1,212.500004053116,2|2,0:0|0:0,0:0:0:0:
104,20,28855,2,0,L|5:20,2,85.0000016212464,2|2|2,0:0|0:0|0:0,0:0:0:0:
148,20,29693,5,2,0:0:0:0:
316,24,30363,2,0,P|362:80|330:174,1,170.000003242493,8|2,0:0|0:0,0:0:0:0:
388,284,31536,2,0,L|474:284,2,85.0000016212464,2|2|2,0:0|0:0|0:0,0:0:0:0:
344,284,32374,5,2,0:0:0:0:
184,336,33045,2,0,B|100:298|80:382|8:346,1,170.000003242493,8|2,0:0|0:0,0:0:0:0:
52,228,34218,2,0,L|56:91,1,127.50000243187,2|8,0:0|0:0,0:0:0:0:
128,56,35056,6,0,B|170:56|170:56|216:86,1,85.0000016212464,2|8,0:0|0:0,0:0:0:0:
240,104,35559,1,2,0:0:0:0:
240,188,35894,2,0,L|240:246,1,42.5000008106232,2|8,0:0|0:0,0:0:0:0:
244,272,36229,2,0,L|328:272,1,85.0000016212464,2|0,0:0|0:0,0:0:0:0:
412,268,36899,2,0,P|433:232|436:177,1,85.0000016212464
420,152,37402,2,0,P|412:116|420:61,1,85.0000016212464,0|6,0:0|0:0,0:0:0:0:
252,60,38408,6,0,B|174:24|155:104|87:69,1,170.000003242493,8|2,0:0|0:0,0:0:0:0:
68,196,39581,2,0,P|99:204|156:196,2,85.0000016212464,2|2|2,0:0|0:0|0:0,0:0:0:0:
32,176,40419,5,2,0:0:0:0:
40,344,41089,2,0,P|92:360|212:332,1,170.000003242493,8|2,0:0|0:0,0:0:0:0:
292,244,42263,2,0,L|388:244,2,85.0000016212464,2|2|2,0:0|0:0|0:0,0:0:0:0:
248,244,43101,5,2,0:0:0:0:
176,92,43771,2,0,B|97:55|77:136|9:101,1,170.000003242493,8|2,0:0|0:0,0:0:0:0:
8,232,44944,2,0,L|8:332,1,85.0000016212464,2|8,0:0|0:0,0:0:0:0:
136,328,45782,6,0,P|179:340|232:324,1,85.0000016212464,2|8,0:0|0:0,0:0:0:0:
256,312,46285,1,2,0:0:0:0:
308,244,46620,2,0,L|308:187,1,42.5000008106232,2|8,0:0|0:0,0:0:0:0:
308,160,46955,2,0,P|348:148|396:162,2,85.0000016212464,2|2|2,0:0|0:0|0:0,0:0:0:0:
268,176,47793,2,0,P|223:188|179:176,1,85.0000016212464,8|8,0:0|0:0,0:0:0:0:
76,160,48464,6,0,B|65:111|65:111|71:65,1,85.0000016212464,2|8,0:0|0:0,0:0:0:0:
80,24,48966,2,0,L|140:24,1,42.5000008106232,2|2,0:0|0:0,0:0:0:0:
172,48,49302,2,0,L|264:48,1,85.0000016212464,8|2,0:0|0:0,0:0:0:0:
300,80,49804,2,0,B|354:50|376:114|429:87,1,127.50000243187,2|8,0:0|0:0,0:0:0:0:
472,248,50810,1,8,0:0:0:0:
408,340,51145,6,0,L|311:340,1,85.0000016212464,2|8,0:0|0:0,0:0:0:0:
268,336,51648,2,0,P|261:305|268:281,1,42.5000008106232,2|2,0:0|0:0,0:0:0:0:
244,244,51983,2,0,P|252:204|244:155,1,85.0000016212464,8|2,0:0|0:0,0:0:0:0:
220,112,52486,2,0,B|163:81|140:148|85:120,2,127.50000243187,8|8|8,0:0|0:0|0:0,0:0:0:0:
328,84,53827,6,0,P|347:138|325:204,1,127.50000243187,2|2,0:0|0:0,0:0:0:0:
236,264,54665,2,0,L|236:356,1,85.0000016212464,2|2,0:0|0:0,0:0:0:0:
292,360,55168,2,0,P|368:356|416:320,1,127.50000243187,2|2,0:0|0:0,0:0:0:0:
476,240,56006,2,0,L|476:142,1,85.0000016212464,2|0,0:0|0:0,0:0:0:0:
476,100,56508,5,8,0:0:0:0:
356,212,57011,1,8,0:0:0:0:
284,60,57514,1,8,0:0:0:0:
164,172,58017,1,8,0:0:0:0:
64,40,58520,2,0,L|64:137,1,85.0000016212464,8|8,0:0|0:0,0:0:0:0:
256,192,59190,12,8,60531,0:0:0:0:
88,248,61704,6,0,P|134:258|185:248,1,85.0000016212464,6|0,0:0|0:0,0:0:0:0:
228,244,62206,2,0,L|228:316,1,50,8|0,0:0|0:0,0:0:0:0:
232,344,62541,2,0,L|289:344,1,42.5000008106232,2|0,0:0|0:0,0:0:0:0:
392,336,63044,1,0,0:0:0:0:
452,232,63379,2,0,B|488:162|407:135|442:67,1,170.000003242493
440,69,64385,6,0,L|342:68,1,85.0000016212464,2|0,0:0|0:0,0:0:0:0:
296,73,64888,2,0,P|292:99|297:134,1,42.5000008106232,8|0,0:0|0:0,0:0:0:0:
304,173,65223,2,0,P|311:195|304:230,1,42.5000008106232,2|0,0:0|0:0,0:0:0:0:
340,332,65726,1,0,0:0:0:0:
220,352,66061,2,0,B|167:372|167:372|49:338,1,170.000003242493
58,340,67067,6,0,P|68:291|56:243,1,85.0000016212464,6|0,0:0|0:0,0:0:0:0:
60,196,67569,2,0,P|49:147|61:99,1,85.0000016212464,8|2,0:0|0:0,0:0:0:0:
92,64,68072,1,0,0:0:0:0:
208,36,68407,1,2,0:0:0:0:
280,132,68743,2,0,L|280:191,1,42.5000008106232,0|8,0:0|0:0,0:0:0:0:
284,236,69078,1,0,0:0:0:0:
356,332,69413,2,0,L|412:332,1,42.5000008106232,0|8,0:0|0:0,0:0:0:0:
448,300,69748,5,2,0:0:0:0:
448,300,69916,2,0,B|440:250|440:250|469:163,2,127.50000243187,0|8|8,0:0|0:0|0:0,0:0:0:0:
312,184,71424,2,0,L|340:96,1,85.0000016212464,0|2,0:0|0:0,0:0:0:0:
348,44,71927,2,0,L|296:44,1,42.5000008106232,8|2,0:0|0:0,0:0:0:0:
188,44,72430,6,0,P|177:87|188:142,1,85.0000016212464,6|0,0:0|0:0,0:0:0:0:
192,184,72933,2,0,L|252:184,1,42.5000008106232,2|0,0:0|0:0,0:0:0:0:
272,220,73268,2,0,P|277:243|272:272,1,42.5000008106232,2|0,0:0|0:0,0:0:0:0:
252,380,73771,1,0,0:0:0:0:
372,372,74106,2,0,P|452:319|449:242,1,170.000003242493
428,136,75111,6,0,B|386:126|386:126|335:136,1,85.0000016212464,2|0,0:0|0:0,0:0:0:0:
284,144,75614,2,0,L|284:84,1,42.5000008106232,8|2,0:0|0:0,0:0:0:0:
240,60,75949,2,0,B|184:60,1,42.5000008106232,2|0,0:0|0:0,0:0:0:0:
80,64,76452,1,0,0:0:0:0:
20,168,76787,2,0,P|26:253|101:294,1,170.000003242493
272,284,77960,6,0,B|337:247|363:325|433:290,1,170.000003242493,6|0,0:0|0:0,0:0:0:0:
336,176,79134,1,2,0:0:0:0:
396,96,79469,2,0,P|359:79|310:75,2,85.0000016212464,2|0|0,0:0|0:0|0:0,0:0:0:0:
440,120,80307,1,8,0:0:0:0:
460,220,80642,6,0,B|452:276|452:276|464:348,2,127.50000243187,8|8|8,0:0|0:0|0:0,0:0:0:0:
380,148,81983,2,0,B|388:92|388:92|376:20,2,127.50000243187,8|8|8,0:0|0:0|0:0,0:0:0:0:
348,244,83324,6,0,L|260:244,1,85.0000016212464,6|0,0:0|0:0,0:0:0:0:
172,200,83994,1,0,0:0:0:0:
116,116,84329,2,0,P|78:172|184:304,1,255.000004863739
272,280,85670,1,0,0:0:0:0:
344,352,86005,6,0,L|432:352,1,85.0000016212464,2|0,0:0|0:0,0:0:0:0:
480,264,86675,2,0,L|480:176,1,85.0000016212464
484,76,87346,1,2,0:0:0:0:
484,76,87681,2,0,B|412:36|383:120|308:83,1,170.000003242493
240,24,88687,5,10,0:0:0:0:
256,192,88854,12,10,91033,0:0:0:0:
