osu file format v14

[General]
AudioFilename: audio.mp3
AudioLeadIn: 0
PreviewTime: 60840
Countdown: 0
SampleSet: Soft
StackLeniency: 0.6
Mode: 0
LetterboxInBreaks: 0
WidescreenStoryboard: 0

[Editor]
DistanceSpacing: 1.4
BeatDivisor: 4
GridSize: 16
TimelineZoom: 1.8

[Metadata]
Title:Fatima (TV Size)
TitleUnicode:ファティマ (TV Size)
Artist:Ito Kanako
ArtistUnicode:いとうかなこ
Creator:Sotarks
Version:Shunao's Hard
Source:Steins;Gate 0
Tags:Itou opening シュタインズ・ゲート reform kujinn shunao shogunmoon akitoshi corinn -laura- ゼロ anime japanese 2
BeatmapID:1876017
BeatmapSetID:898005

[Difficulty]
HPDrainRate:5
CircleSize:3.7
OverallDifficulty:6
ApproachRate:8
SliderMultiplier:1.4
SliderTickRate:1

[Events]
//Background and Video events
0,0,"bg.jpg",0,0
//Break Periods
//Storyboard Layer 0 (Background)
//Storyboard Layer 1 (Fail)
//Storyboard Layer 2 (Pass)
//Storyboard Layer 3 (Foreground)
//Storyboard Sound Samples

[TimingPoints]
595,335.195530726257,4,2,22,32,1,0
595,-125,4,2,22,32,0,0
4617,-125,4,2,22,42,0,0
5287,-125,4,2,22,52,0,0
5952,335.195530726257,4,2,22,62,1,0
5952,-100,4,2,22,62,0,0
16007,-100,4,2,22,32,0,0
16678,-111.111111111111,4,2,22,52,0,0
27404,-125,4,2,22,52,0,0
48857,-100,4,2,22,52,0,0
56901,-100,4,2,22,72,0,0
62097,-83.3333333333333,4,2,22,82,0,1
83717,-111.111111111111,4,2,22,72,0,0
83801,-111.111111111111,4,2,22,42,0,0

[Colours]
Combo1 : 157,134,134
Combo2 : 226,109,109
Combo3 : 255,156,21
Combo4 : 255,247,74

[HitObjects]
73,174,595,6,0,L|61:107,2,56,2|0|0,1:2|0:2|3:2,0:0:0:0:
99,259,1097,1,0,0:2:0:0:
99,259,1265,2,0,P|126:253|171:251,1,56,2|0,3:2|0:2,0:0:0:0:
239,279,1600,2,0,P|266:285|311:287,1,56,0|0,3:2|0:2,0:0:0:0:
383,276,1935,6,0,P|410:270|455:268,2,56,2|0|0,1:2|0:2|3:2,0:0:0:0:
316,215,2438,1,0,0:2:0:0:
316,215,2606,2,0,L|321:142,1,56,2|0,3:2|0:2,0:0:0:0:
387,100,2941,2,0,L|381:30,1,56,0|0,3:2|0:2,0:0:0:0:
468,20,3276,6,0,P|499:22|529:38,2,56,2|0|0,1:2|0:2|3:2,0:0:0:0:
378,32,3779,1,0,0:2:0:0:
378,32,3946,2,0,L|313:26,1,56,2|0,3:2|0:2,0:0:0:0:
233,9,4282,2,0,L|165:17,1,56,0|0,3:2|0:2,0:0:0:0:
100,61,4617,6,0,L|32:53,3,56,2|0|0|0,1:2|0:2|3:2|0:2,0:0:0:0:
167,134,5287,1,10,0:2:0:0:
127,227,5455,1,10,0:2:0:0:
250,92,5790,1,2,0:2:0:0:
250,92,5874,1,2,0:2:0:0:
250,92,5952,6,0,B|324:76|315:117|395:99,1,140,6|10,1:2|0:2,0:0:0:0:
483,110,6454,2,0,L|490:181,1,70,2|0,0:2|1:2,0:0:0:0:
509,269,6789,2,0,L|502:347,1,70,2|8,0:2|0:2,0:0:0:0:
415,366,7125,6,0,L|408:296,1,70,2|0,0:2|1:2,0:0:0:0:
321,270,7460,2,0,L|314:339,1,70,2|8,0:2|0:2,0:0:0:0:
228,368,7795,2,0,L|221:298,1,70,2|0,0:2|1:2,0:0:0:0:
155,235,8130,2,0,P|122:223|80:226,2,70,2|8|0,0:2|0:2|0:2,0:0:0:0:
228,180,8633,6,0,P|239:126|180:63,1,140,2|10,1:2|0:2,0:0:0:0:
100,39,9136,2,0,L|1:29,1,70,2|0,0:2|1:2,0:0:0:0:
14,122,9471,2,0,P|19:162|21:206,1,70,2|8,0:2|0:2,0:0:0:0:
20,282,9806,6,0,P|54:270|97:274,1,70,2|0,0:2|1:2,0:0:0:0:
159,327,10141,2,0,P|193:339|236:335,1,70,2|8,0:2|0:2,0:0:0:0:
317,333,10477,2,0,L|310:263,1,70,2|0,0:2|1:2,0:0:0:0:
396,235,10812,2,0,L|406:147,2,70,2|8|0,0:2|0:2|3:2,0:0:0:0:
310,263,11315,6,0,P|266:251|239:149,1,140,6|10,1:2|0:2,0:0:0:0:
260,83,11817,2,0,L|339:77,1,70,2|0,0:2|1:2,0:0:0:0:
404,24,12153,2,0,L|483:30,1,70,2|8,0:2|0:2,0:0:0:0:
502,115,12488,6,0,P|510:151|503:187,1,70,2|0,0:2|1:2,0:0:0:0:
430,236,12823,2,0,P|423:272|432:309,1,70,2|8,0:2|0:2,0:0:0:0:
367,370,13158,2,0,L|285:364,1,70,2|0,0:2|1:2,0:0:0:0:
225,308,13493,2,0,L|145:315,2,70,2|8|0,0:2|0:2|0:2,0:0:0:0:
266,226,13996,6,0,L|104:214,1,140,2|10,1:2|0:2,0:0:0:0:
72,142,14499,1,2,0:2:0:0:
72,142,14667,2,0,P|63:103|76:68,1,70,2|10,1:0|3:0,0:0:0:0:
152,32,15002,2,0,L|231:39,1,70,10|10,0:0|3:0,0:0:0:0:
311,51,15337,6,0,B|279:161|347:152|310:262,1,210,10|8,0:0|0:2,0:0:0:0:
311,256,16678,6,0,P|342:248|383:252,2,62.9999980773926,2|0|8,1:2|1:2|0:2,0:0:0:0:
227,284,17181,1,0,3:2:0:0:
227,284,17348,2,0,L|232:362,1,62.9999980773926,0|0,1:2|1:2,0:0:0:0:
145,370,17683,2,0,P|111:359|74:365,1,62.9999980773926,10|2,0:2|3:2,0:0:0:0:
14,305,18019,6,0,L|20:233,2,62.9999980773926,2|0|10,1:2|1:2|0:2,0:0:0:0:
101,292,18521,2,0,L|94:216,1,62.9999980773926,2|0,0:2|1:2,0:0:0:0:
162,171,18857,2,0,P|195:179|229:170,1,62.9999980773926,2|8,1:2|0:2,0:0:0:0:
300,130,19192,1,2,3:2:0:0:
300,130,19359,6,0,L|306:56,2,62.9999980773926,0|0|8,1:2|1:2|0:2,0:0:0:0:
361,193,19862,1,0,3:2:0:0:
361,193,20030,2,0,P|396:202|432:194,1,62.9999980773926,0|0,1:2|1:2,0:0:0:0:
503,231,20365,2,0,L|491:313,1,62.9999980773926,10|2,0:2|3:2,0:0:0:0:
422,345,20700,6,0,L|412:270,2,62.9999980773926,0|0|8,1:2|1:2|0:2,0:0:0:0:
337,371,21203,1,0,3:2:0:0:
337,371,21370,2,0,P|301:362|250:372,1,62.9999980773926,2|0,1:2|1:2,0:0:0:0:
223,292,21706,2,0,L|229:248,2,31.4999990386963,0|0|0,3:2|3:2|3:2,0:0:0:0:
141,326,22041,6,0,L|131:245,2,62.9999980773926,2|0|8,1:2|1:2|0:2,0:0:0:0:
52,317,22544,1,0,3:2:0:0:
52,317,22711,2,0,L|58:246,1,62.9999980773926,0|0,1:2|1:2,0:0:0:0:
12,177,23046,2,0,L|5:103,1,62.9999980773926,10|2,0:2|3:2,0:0:0:0:
48,36,23382,6,0,P|82:24|127:30,2,62.9999980773926,2|0|10,1:2|1:2|0:2,0:0:0:0:
93,111,23884,2,0,L|175:103,1,62.9999980773926,2|0,0:2|1:2,0:0:0:0:
235,141,24220,2,0,P|243:173|247:215,1,62.9999980773926,2|8,1:2|0:2,0:0:0:0:
238,290,24555,1,2,3:2:0:0:
238,290,24722,6,0,P|203:287|166:297,2,62.9999980773926,0|0|8,1:2|1:2|0:2,0:0:0:0:
316,329,25225,1,0,3:2:0:0:
316,329,25393,2,0,L|395:320,1,62.9999980773926,0|0,1:2|1:2,0:0:0:0:
457,282,25728,1,10,0:2:0:0:
457,282,25896,1,2,3:2:0:0:
489,200,26063,6,0,P|487:163|480:130,2,62.9999980773926,0|2|10,1:2|0:2|0:2,0:0:0:0:
403,178,26566,1,2,0:2:0:0:
403,178,26734,2,0,L|330:170,1,62.9999980773926,2|2,0:2|0:2,0:0:0:0:
278,107,27069,2,0,L|207:113,1,62.9999980773926,2|2,0:2|0:2,0:0:0:0:
127,130,27404,5,6,1:2:0:0:
127,130,27572,1,2,1:2:0:0:
31,281,27907,2,0,B|134:263|97:321|216:299,1,168,2|2,1:2|1:2,0:0:0:0:
282,289,28577,1,2,1:2:0:0:
282,289,28745,6,0,L|291:172,1,112,2|2,1:2|0:2,0:0:0:0:
337,101,29248,2,0,L|332:38,1,56,2|8,1:2|0:2,0:0:0:0:
419,23,29583,2,0,P|449:19|488:27,1,56,2|0,1:2|0:2,0:0:0:0:
508,105,29918,1,2,1:2:0:0:
474,186,30086,5,2,1:2:0:0:
474,186,30253,1,2,1:2:0:0:
399,349,30588,2,0,P|334:303|232:328,1,168,2|2,1:2|1:2,0:0:0:0:
171,358,31259,1,2,1:2:0:0:
171,358,31426,6,0,L|159:235,1,112,2|2,1:2|0:2,0:0:0:0:
226,186,31929,2,0,L|233:117,1,56,2|8,1:2|0:2,0:0:0:0:
151,89,32264,2,0,L|144:18,1,56,2|0,1:2|0:2,0:0:0:0:
56,15,32600,1,2,1:2:0:0:
20,97,32767,5,2,1:2:0:0:
20,97,32935,1,2,1:2:0:0:
35,275,33270,2,0,P|114:302|192:260,1,168,2|2,1:2|1:2,0:0:0:0:
253,207,33940,1,2,1:2:0:0:
253,207,34108,6,0,L|378:215,1,112,2|10,1:2|0:2,0:0:0:0:
442,169,34611,2,0,P|456:111|427:55,1,112,2|2,1:2|1:2,0:0:0:0:
355,26,35114,2,0,L|283:32,1,56,8|0,0:2|1:2,0:0:0:0:
216,66,35449,6,0,L|153:60,2,56,2|2|10,1:2|1:2|0:2,0:0:0:0:
272,135,35952,2,0,P|282:191|286:262,1,112,2|2,1:2|1:2,0:0:0:0:
281,335,36454,1,10,0:2:0:0:
281,335,36622,6,0,P|225:328|173:364,1,112,2|2,1:2|1:2,0:0:0:0:
30,255,37292,2,0,L|23:141,1,112,2|2,1:2|1:2,0:0:0:0:
17,53,37795,2,0,P|46:45|87:50,1,56,10|0,0:2|1:2,0:0:0:0:
159,64,38130,5,6,1:2:0:0:
159,64,38298,1,2,1:2:0:0:
283,193,38633,2,0,L|457:182,1,168,2|2,1:2|1:2,0:0:0:0:
495,103,39303,1,2,1:2:0:0:
495,103,39471,6,0,P|465:44|416:29,1,112,2|2,1:2|0:2,0:0:0:0:
338,55,39974,2,0,L|329:179,1,112,2|2,1:2|1:2,0:0:0:0:
274,237,40477,2,0,L|279:312,1,56,2|2,0:2|1:2,0:0:0:0:
219,361,40812,5,2,1:2:0:0:
219,361,40979,1,2,1:2:0:0:
73,256,41315,2,0,L|84:81,1,168,2|2,1:2|1:2,0:0:0:0:
154,33,41985,1,2,1:2:0:0:
154,33,42153,6,0,P|214:25|262:54,1,112,2|2,1:2|0:2,0:0:0:0:
318,114,42655,2,0,L|324:192,1,56,2|8,1:2|0:2,0:0:0:0:
283,251,42991,2,0,L|278:329,1,56,2|0,1:2|0:2,0:0:0:0:
347,365,43326,1,2,1:2:0:0:
434,345,43493,5,2,1:2:0:0:
434,345,43661,1,2,1:2:0:0:
507,181,43996,2,0,B|417:150|428:215|331:186,1,168,2|2,1:2|1:2,0:0:0:0:
265,143,44667,1,0,1:2:0:0:
265,143,44834,6,0,L|271:25,1,112,2|10,1:2|0:2,0:0:0:0:
181,23,45337,2,0,P|151:19|110:25,1,56,2|0,1:2|0:2,0:0:0:0:
71,93,45672,2,0,P|41:97|0:91,1,56,2|8,1:2|0:2,0:0:0:0:
6,184,46007,1,0,1:2:0:0:
6,184,46175,6,0,P|11:215|15:251,2,56,2|2|10,1:2|1:2|0:2,0:0:0:0:
95,180,46678,2,0,P|148:201|221:194,1,112,2|2,1:2|1:2,0:0:0:0:
282,160,47181,1,10,0:2:0:0:
282,160,47348,6,0,L|292:293,1,112,2|0,1:2|1:2,0:0:0:0:
455,342,48019,1,2,1:2:0:0:
455,342,48186,2,0,L|461:274,1,56,10|2,0:2|1:2,0:0:0:0:
507,210,48521,2,0,L|499:135,1,56,8|8,0:2|0:2,0:0:0:0:
467,46,48857,6,0,P|408:11|332:49,1,140,6|8,1:2|0:2,0:0:0:0:
269,84,49359,2,0,L|129:72,1,140,0|8,1:2|0:2,0:0:0:0:
39,88,49862,1,2,0:2:0:0:
11,174,50030,1,2,1:2:0:0:
11,174,50114,1,0,0:2:0:0:
11,174,50197,6,0,P|21:244|26:321,1,140,8|0,0:2|1:2,0:0:0:0:
109,350,50700,2,0,P|118:276|141:196,1,140,8|0,0:2|1:2,0:0:0:0:
196,145,51203,1,10,0:2:0:0:
279,107,51370,1,2,0:2:0:0:
279,107,51454,1,0,0:2:0:0:
279,107,51538,6,0,P|352:100|406:150,1,140,2|8,1:2|0:2,0:0:0:0:
450,216,52041,2,0,P|441:281|435:369,1,140,0|8,1:2|0:2,0:0:0:0:
345,371,52544,1,2,0:2:0:0:
255,351,52711,1,2,1:2:0:0:
255,351,52795,1,0,0:0:0:0:
255,351,52879,6,0,B|176:321|181:373|108:359,1,140,8|0,0:2|1:2,0:0:0:0:
34,328,53382,2,0,P|8:260|43:196,1,140,8|0,0:2|1:2,0:0:0:0:
114,157,53884,2,0,L|173:168,3,35,8|0|0|0,0:2|0:0|0:2|0:0,0:0:0:0:
188,142,54220,6,0,P|197:107|182:62,1,70,2|2,1:2|1:2,0:0:0:0:
270,32,54555,1,10,0:2:0:0:
270,32,54722,2,0,P|333:65|424:41,1,140,2|2,1:2|1:2,0:0:0:0:
484,88,55225,2,0,L|475:173,1,70,8|2,0:2|0:2,0:0:0:0:
416,226,55560,6,0,P|379:215|338:218,1,70,2|2,1:2|1:2,0:0:0:0:
273,269,55896,1,10,0:2:0:0:
273,269,56063,2,0,L|134:256,1,140,2|2,1:2|1:2,0:0:0:0:
119,346,56566,2,0,L|202:339,1,70,8|2,0:2|1:2,0:0:0:0:
275,367,56901,6,0,L|361:374,2,70,12|0|2,0:2|1:2|1:2,0:0:0:0:
299,279,57404,2,0,L|381:273,2,70,12|2|0,0:2|1:2|1:2,0:0:0:0:
294,187,57907,6,0,L|380:194,2,70,14|0|2,0:2|1:2|1:2,0:0:0:0:
318,99,58410,2,0,L|400:93,2,70,12|2|0,0:2|1:2|1:2,0:0:0:0:
247,41,58912,2,0,L|106:30,1,140,14|12,0:2|0:2,0:0:0:0:
49,202,59583,6,0,B|252:124|246:365|456:351|506:276|449:117|348:187,1,560,12|0,0:2|0:2,0:0:0:0:
369,175,62097,6,0,L|347:364,1,167.999994873047,6|0,1:2|0:2,0:0:0:0:
250,362,62600,2,0,P|210:344|147:351,1,83.9999974365235,10|0,0:2|0:2,0:0:0:0:
70,358,62935,1,2,1:2:0:0:
24,268,63102,2,0,L|34:166,1,83.9999974365235,2|8,0:2|0:2,0:0:0:0:
50,84,63438,6,0,B|137:54|128:118|229:96,1,167.999994873047,2|2,0:2|0:2,0:0:0:0:
289,33,63940,2,0,P|329:23|382:41,1,83.9999974365235,10|0,0:2|0:2,0:0:0:0:
450,93,64276,1,2,1:2:0:0:
502,179,64443,2,0,L|491:283,1,83.9999974365235,2|8,1:2|0:2,0:0:0:0:
416,328,64778,6,0,L|399:148,1,167.999994873047,6|2,1:2|0:2,0:0:0:0:
313,109,65281,1,10,0:2:0:0:
219,148,65449,2,0,P|178:155|125:144,1,83.9999974365235,2|0,0:2|1:2,0:0:0:0:
38,124,65784,2,0,L|45:230,1,83.9999974365235,2|8,0:2|0:2,0:0:0:0:
67,305,66119,6,0,B|149:278|144:353|239:325,1,167.999994873047,2|2,0:2|0:2,0:0:0:0:
327,314,66622,1,8,0:2:0:0:
412,259,66789,2,0,L|422:161,1,83.9999974365235,2|2,0:2|1:2,0:0:0:0:
323,147,67125,2,0,L|332:249,1,83.9999974365235,2|8,1:2|0:2,0:0:0:0:
232,254,67460,6,0,P|142:255|86:190,1,167.999994873047,6|0,1:2|0:2,0:0:0:0:
50,109,67963,2,0,L|59:11,1,83.9999974365235,10|0,0:2|0:2,0:0:0:0:
157,7,68298,1,2,1:2:0:0:
256,25,68465,1,2,0:2:0:0:
281,122,68633,1,8,0:2:0:0:
200,182,68801,6,0,P|287:166|378:168,1,167.999994873047,2|2,1:2|0:2,0:0:0:0:
459,206,69303,1,10,0:2:0:0:
456,306,69471,2,0,P|380:293|279:292,1,167.999994873047,2|2,0:2|0:2,0:0:0:0:
194,325,69974,2,0,P|145:324|92:313,1,83.9999974365235,8|2,0:2|0:2,0:0:0:0:
41,244,70309,6,0,P|60:178|156:155,1,167.999994873047,14|0,0:2|1:2,0:0:0:0:
249,156,70812,2,0,L|241:60,2,83.9999974365235,14|0|0,0:2|1:2|1:2,0:0:0:0:
336,105,71315,2,0,L|343:13,2,83.9999974365235,14|0|0,0:2|1:2|1:2,0:0:0:0:
435,85,71817,2,0,L|454:2,2,83.9999974365235,14|2|2,0:2|1:2|1:2,0:0:0:0:
407,181,72320,1,10,0:2:0:0:
380,278,72488,1,10,0:2:0:0:
193,202,72823,6,0,P|181:127|171:17,1,167.999994873047,6|2,1:2|0:2,0:0:0:0:
72,17,73326,2,0,P|68:65|61:113,1,83.9999974365235,10|2,0:2|0:2,0:0:0:0:
4,182,73661,1,2,1:2:0:0:
36,277,73829,2,0,P|78:265|131:271,1,83.9999974365235,2|8,0:2|0:2,0:0:0:0:
208,313,74164,6,0,B|296:345|282:282|384:320,1,167.999994873047,2|2,0:2|0:2,0:0:0:0:
468,342,74667,2,0,L|476:232,1,83.9999974365235,10|2,0:2|0:2,0:0:0:0:
504,161,75002,1,2,1:2:0:0:
443,80,75169,2,0,P|404:63|354:67,1,83.9999974365235,2|8,1:2|0:2,0:0:0:0:
274,112,75505,6,0,P|191:144|118:110,1,167.999994873047,6|0,1:2|0:2,0:0:0:0:
53,40,76007,1,10,0:2:0:0:
4,128,76175,2,0,L|15:226,1,83.9999974365235,2|2,0:2|1:2,0:0:0:0:
113,197,76510,2,0,L|122:109,1,83.9999974365235,2|10,0:2|0:2,0:0:0:0:
185,30,76845,6,0,B|271:7|262:71|358:44,1,167.999994873047,2|2,0:2|0:2,0:0:0:0:
441,19,77348,2,0,L|449:114,1,83.9999974365235,8|2,0:2|0:2,0:0:0:0:
495,192,77683,1,2,1:2:0:0:
442,278,77851,2,0,P|380:298|289:237,1,167.999994873047,2|0,1:2|0:2,0:0:0:0:
262,154,78354,6,0,L|163:160,1,83.9999974365235,6|0,1:2|0:0,0:0:0:0:
122,243,78689,2,0,L|25:236,1,83.9999974365235,8|0,0:2|0:0,0:0:0:0:
4,332,79024,1,2,1:2:0:0:
95,375,79192,2,0,L|198:368,1,83.9999974365235,2|8,0:2|0:2,0:0:0:0:
273,332,79527,6,0,P|300:257|256:176,1,167.999994873047,2|2,1:2|0:2,0:0:0:0:
175,130,80030,1,10,0:2:0:0:
91,74,80197,2,0,B|182:45|169:114|265:90,1,167.999994873047,2|2,0:2|0:2,0:0:0:0:
347,58,80700,2,0,P|392:48|441:63,1,83.9999974365235,10|2,0:2|0:2,0:0:0:0:
491,135,81035,6,0,L|478:317,1,167.999994873047,12|0,0:2|1:2,0:0:0:0:
398,363,81538,2,0,L|376:179,1,167.999994873047,12|0,0:2|1:2,0:0:0:0:
292,141,82041,2,0,P|249:130|202:145,1,83.9999974365235,14|2,0:2|1:2,0:0:0:0:
161,227,82376,6,0,L|180:43,1,167.999994873047,14|0,0:2|1:2,0:0:0:0:
81,30,82879,2,0,L|62:213,1,167.999994873047,14|0,0:2|1:2,0:0:0:0:
1,276,83382,2,0,L|11:374,1,83.9999974365235,12|0,0:2|1:2,0:0:0:0:
110,372,83717,6,0,P|164:350|242:369,2,125.999996154785,6|2|2,1:2|0:0|0:0,0:0:0:0:
93,285,84555,1,0,0:0:0:0:
93,285,84722,2,0,L|102:200,1,62.9999980773926,2|0,0:0|0:0,0:0:0:0:
170,169,85058,6,0,P|95:178|48:138,1,125.999996154785,0|2,1:2|0:0,0:0:0:0:
199,47,85728,2,0,P|261:38|342:31,1,125.999996154785,0|0,0:0|0:0,0:0:0:0:
377,102,86231,1,0,0:0:0:0:
377,102,86398,6,0,P|441:109|509:121,2,125.999996154785,2|2|2,1:2|3:2|3:2,0:0:0:0:
291,124,87236,1,0,0:0:0:0:
291,124,87404,2,0,L|297:206,1,62.9999980773926,2|0,3:2|0:0,0:0:0:0:
364,242,87739,6,0,L|358:324,1,62.9999980773926,0|0,1:2|0:0,0:0:0:0:
289,359,88074,2,0,P|223:373|163:333,1,125.999996154785,2|0,0:0|0:2,0:0:0:0:
48,221,88745,1,0,0:2:0:0:
145,73,89080,5,2,0:0:0:0:
