osu file format v14

[General]
AudioFilename: audio.mp3
AudioLeadIn: 0
PreviewTime: 62204
Countdown: 0
SampleSet: Soft
StackLeniency: 0.4
Mode: 0
LetterboxInBreaks: 0
WidescreenStoryboard: 1

[Editor]
Bookmarks: 780,6143,16869,27595,49048,54411,61115,62288,73014,83908,89271
DistanceSpacing: 1.5
BeatDivisor: 4
GridSize: 4
TimelineZoom: 1.3

[Metadata]
Title:Fatima (TV Size)
TitleUnicode:ファティマ (TV Size)
Artist:Ito Kanako
ArtistUnicode:いとうかなこ
Creator:Ohwow
Version:Hard
Source:Steins;Gate 0
Tags:Itou opening シュタインズ・ゲート LMT Stormiverse CrystilonZ Asaiga Shogunmoon Shunao
BeatmapID:1608213
BeatmapSetID:763819

[Difficulty]
HPDrainRate:5
CircleSize:3.6
OverallDifficulty:6
ApproachRate:7.5
SliderMultiplier:1.4
SliderTickRate:1

[Events]
//Background and Video events
0,0,"bg.jpg",0,0
Video,250,"video.avi"
//Break Periods
//Storyboard Layer 0 (Background)
//Storyboard Layer 1 (Fail)
//Storyboard Layer 2 (Pass)
//Storyboard Layer 3 (Foreground)
//Storyboard Sound Samples

[TimingPoints]
780,335.195530726257,4,2,1,50,1,0
780,-111.111111111111,4,2,1,50,0,0
3461,-111.111111111111,4,2,1,55,0,0
4131,-111.111111111111,4,2,1,60,0,0
4802,-111.111111111111,4,2,1,65,0,0
5472,-111.111111111111,4,2,1,70,0,0
6143,-90.9090909090909,4,2,1,70,0,0
14523,-90.9090909090909,4,2,1,73,0,0
14858,-90.9090909090909,4,2,1,76,0,0
15193,-90.9090909090909,4,2,1,80,0,0
15444,-90.9090909090909,4,2,1,5,0,0
15528,-90.9090909090909,4,2,1,80,0,0
16198,-111.111111111111,4,2,1,70,0,0
16869,-100,4,2,1,60,0,0
49048,-100,4,2,1,65,0,0
54411,-100,4,2,1,70,0,0
57092,-100,4,2,1,75,0,0
61115,-100,4,2,1,40,0,0
62288,-83.3333333333333,4,2,1,80,0,1
83908,-100,4,2,1,50,0,0
87260,-100,4,2,1,60,0,0
87930,-100,4,2,1,70,0,0
88601,-100,4,2,1,80,0,0
89271,-100,4,2,1,90,0,0
89355,-100,4,2,1,40,0,0
89606,-100,4,2,1,45,0,0
89942,-100,4,2,1,50,0,0
90277,-100,4,2,1,55,0,0
90612,-100,4,2,1,60,0,0
90947,-100,4,2,1,70,0,0
91282,-100,4,2,1,80,0,0
91617,-100,4,2,1,5,0,0

[Colours]
Combo1 : 255,208,47
Combo2 : 215,131,17
Combo3 : 109,192,120
Combo4 : 210,58,47
Combo5 : 88,151,245
SliderBorder : 255,255,255
SliderTrackOverride : 120,120,120

[HitObjects]
11,282,780,6,0,B|44:310|44:310|126:301,1,125.999996154785,2|2,3:0|0:3,0:0:0:0:
207,290,1282,1,0,0:0:0:0:
159,223,1450,2,0,B|165:160,1,62.9999980773926,2|0,0:3|0:0,0:0:0:0:
246,149,1785,2,0,B|239:211,1,62.9999980773926,2|0,0:3|0:0,0:0:0:0:
288,279,2120,6,0,B|321:251|321:251|403:259,1,125.999996154785,2|2,3:0|0:3,0:0:0:0:
488,267,2623,1,0,0:0:0:0:
456,191,2791,2,0,B|449:128,1,62.9999980773926,2|0,0:3|0:0,0:0:0:0:
364,120,3126,2,0,B|370:182,1,62.9999980773926,2|0,0:3|0:0,0:0:0:0:
289,217,3461,6,0,B|276:91,1,125.999996154785,2|2,3:0|0:3,0:0:0:0:
208,44,3964,1,0,0:0:0:0:
155,105,4131,2,0,P|125:117|94:122,1,62.9999980773926,2|0,0:3|0:0,0:0:0:0:
47,190,4467,2,0,P|78:194|107:206,1,62.9999980773926,2|0,0:3|0:0,0:0:0:0:
183,331,4802,6,0,P|178:299|166:270,1,62.9999980773926,2|0,3:0|0:0,0:0:0:0:
259,181,5137,2,0,P|247:210|242:241,1,62.9999980773926,2|0,0:3|0:0,0:0:0:0:
302,297,5472,1,2,3:2:0:0:
379,268,5640,1,2,3:2:0:0:
417,54,6143,6,0,B|376:83|376:83|390:185,1,154.000004699707,6|10,3:2|0:0,0:0:0:0:
462,243,6645,2,0,B|451:319,1,77.0000023498536,0|0,0:0|3:0,0:0:0:0:
374,372,6981,2,0,B|297:361,1,77.0000023498536,2|8,0:0|0:0,0:0:0:0:
213,321,7316,6,0,P|174:320|137:330,1,77.0000023498536,2|0,0:0|3:0,0:0:0:0:
50,360,7651,2,0,P|59:322|59:284,1,77.0000023498536,2|8,0:0|0:0,0:0:0:0:
117,212,7986,2,0,B|130:158|130:158|115:113|115:113|124:62,1,154.000004699707,2|2,0:0|0:0,0:0:0:0:
204,17,8489,1,8,0:0:0:0:
210,203,8824,6,0,B|251:171|251:171|353:186,1,154.000004699707,2|8,3:2|0:0,0:0:0:0:
433,141,9327,2,0,P|443:104|437:66,1,77.0000023498536,2|0,0:0|3:0,0:0:0:0:
359,15,9662,2,0,P|321:24|292:48,1,77.0000023498536,2|8,0:0|0:0,0:0:0:0:
218,103,9997,6,0,L|121:91,1,77.0000023498536,2|0,0:0|3:2,0:0:0:0:
104,8,10333,2,0,L|27:17,1,77.0000023498536,2|8,0:0|0:0,0:0:0:0:
2,106,10668,2,0,B|-16:150|-16:150|14:253,1,154.000004699707,2|2,0:0|0:0,0:0:0:0:
45,339,11171,1,10,0:0:0:0:
228,308,11506,6,0,L|381:291,1,154.000004699707,2|10,3:2|0:0,0:0:0:0:
434,215,12009,2,0,L|344:194,1,77.0000023498536,2|0,0:0|3:0,0:0:0:0:
268,179,12344,2,0,L|285:104,1,77.0000023498536,2|8,0:0|0:0,0:0:0:0:
330,23,12679,6,0,P|293:13|244:22,1,77.0000023498536,2|0,0:0|3:0,0:0:0:0:
176,66,13014,2,0,P|138:70|101:60,1,77.0000023498536,2|8,0:0|0:0,0:0:0:0:
40,130,13349,2,0,B|53:238|53:238|96:250,1,154.000004699707,2|2,0:0|0:0,0:0:0:0:
181,213,13852,1,8,0:0:0:0:
322,94,14187,6,0,P|358:105|396:103,1,77.0000023498536,2|2,3:2|0:0,0:0:0:0:
445,182,14523,2,0,P|408:193|370:191,1,77.0000023498536,10|2,0:0|0:0,0:0:0:0:
322,270,14858,2,0,P|358:281|396:279,1,77.0000023498536,2|2,3:2|0:0,0:0:0:0:
445,358,15193,2,0,P|408:369|312:356,1,115.50000352478,10|0,0:0|0:0,0:0:0:0:
288,348,15528,5,10,3:2:0:0:
59,319,16031,1,10,3:2:0:0:
125,363,16198,2,0,B|151:317|125:272|125:272|98:227|124:183,1,188.999994232178,0|0,0:0|0:0,0:0:0:0:
189,129,16869,6,0,L|289:124,1,70,0|0,3:0|3:0,0:0:0:0:
323,71,17204,1,8,0:0:0:0:
405,89,17372,2,0,P|442:153|409:235,1,140,0|0,3:0|0:0,0:0:0:0:
353,252,17874,2,0,P|351:286|363:319,1,70,8|0,0:0|0:0,0:0:0:0:
431,370,18210,6,0,B|400:346|400:346|280:362,1,140,0|8,3:0|0:0,0:0:0:0:
247,294,18712,2,0,B|177:284,1,70,0|0,0:0|3:0,0:0:0:0:
126,352,19048,2,0,B|56:361,1,70,0|8,3:0|0:0,0:0:0:0:
6,293,19383,1,0,0:0:0:0:
61,204,19550,6,0,B|70:134,1,70,0|0,3:0|3:0,0:0:0:0:
81,50,19886,1,8,0:0:0:0:
147,100,20053,2,0,P|209:125|274:103,1,140,0|0,3:0|3:0,0:0:0:0:
350,64,20556,2,0,P|384:57|418:64,1,70,8|0,0:0|0:0,0:0:0:0:
382,140,20891,6,0,L|369:208,1,70,0|0,3:0|3:0,0:0:0:0:
301,257,21226,2,0,L|231:244,1,70,8|0,0:0|0:0,0:0:0:0:
183,313,21562,2,0,L|319:337,1,140,0|8,3:0|0:0,0:0:0:0:
486,310,22232,6,0,P|494:276|493:241,1,70,0|0,3:0|3:0,0:0:0:0:
464,162,22567,1,8,0:0:0:0:
404,222,22735,2,0,P|342:251|276:229,1,140,0|0,3:0|3:0,0:0:0:0:
231,159,23238,2,0,P|230:124|238:90,1,70,8|0,0:0|3:0,0:0:0:0:
302,35,23573,6,0,B|270:5|270:5|159:21,1,140,0|8,3:0|0:0,0:0:0:0:
113,76,24076,2,0,L|122:145,1,70,0|0,3:0|3:0,0:0:0:0:
174,212,24411,2,0,L|164:281,1,70,0|8,3:0|0:0,0:0:0:0:
116,350,24746,1,0,0:0:0:0:
31,287,24914,6,0,P|55:262|87:248,1,70,0|0,3:0|3:0,0:0:0:0:
164,281,25249,1,8,0:0:0:0:
245,260,25416,2,0,P|282:202|270:133,1,140,0|0,3:0|3:0,0:0:0:0:
213,74,25919,1,8,0:0:0:0:
276,18,26087,1,0,0:0:0:0:
351,53,26254,6,0,P|386:54|419:42,1,70,0|0,3:0|3:0,0:0:0:0:
508,134,26590,2,0,P|473:134|440:122,1,70,8|0,0:0|3:0,0:0:0:0:
357,137,26925,2,0,L|369:205,1,70,2|0,0:0|0:0,0:0:0:0:
453,213,27260,2,0,L|440:281,1,70,2|0,0:0|0:0,0:0:0:0:
399,378,27595,5,2,3:2:0:0:
399,378,27763,1,2,3:2:0:0:
304,238,28098,1,2,3:2:0:0:
288,320,28266,2,0,L|150:346,1,140,8|0,0:0|3:0,0:0:0:0:
72,377,28768,1,0,3:0:0:0:
81,294,28936,6,0,L|68:226,1,70,2|0,3:2|0:0,0:0:0:0:
124,161,29271,1,0,0:0:0:0:
68,98,29439,2,0,L|0:85,1,70,2|8,3:2|0:0,0:0:0:0:
17,2,29774,2,0,L|85:15,1,70,2|0,3:2|0:0,0:0:0:0:
148,71,30109,1,2,0:0:0:0:
230,5,30277,5,2,3:2:0:0:
230,5,30444,1,2,3:2:0:0:
324,147,30780,1,2,3:2:0:0:
361,71,30947,2,0,P|293:68|246:118,1,140,8|0,0:0|3:0,0:0:0:0:
261,201,31450,1,0,3:0:0:0:
340,229,31617,6,0,P|359:258|368:292,1,70,2|0,3:2|0:0,0:0:0:0:
337,370,31953,1,0,3:0:0:0:
271,320,32120,2,0,P|202:313|147:353,2,140,2|2|2,3:2|0:2|3:2,0:0:0:0:
361,384,32958,5,2,3:2:0:0:
361,384,33126,1,2,3:2:0:0:
478,264,33461,1,2,3:2:0:0:
424,328,33629,2,0,B|395:292|395:292|404:198,1,140,8|0,0:0|3:0,0:0:0:0:
413,115,34131,1,0,3:0:0:0:
458,44,34299,6,0,P|415:28|373:45,1,70,2|0,3:2|0:0,0:0:0:0:
332,92,34634,1,8,0:0:0:0:
271,150,34802,2,0,P|236:154|204:139,1,70,2|0,3:2|0:0,0:0:0:0:
154,73,35137,2,0,L|164:-2,2,70,0|8|0,3:0|0:0|3:0,0:0:0:0:
93,159,35640,6,0,L|103:228,1,70,2|2,3:2|3:2,0:0:0:0:
47,291,35975,1,10,0:2:0:0:
130,309,36143,2,0,B|183:305|183:305|215:282|215:282|263:278,1,140,2|2,3:2|3:2,0:0:0:0:
346,273,36645,1,10,0:2:0:0:
339,189,36813,6,0,B|200:199,1,140,2|2,3:2|3:2,0:0:0:0:
65,100,37483,2,0,P|131:81|187:120,1,140,2|2,3:2|3:2,0:0:0:0:
253,68,37986,2,0,P|286:54|320:49,1,70,10|0,0:2|3:0,0:0:0:0:
428,66,38321,5,2,3:2:0:0:
428,66,38489,1,2,3:2:0:0:
472,228,38824,1,2,3:2:0:0:
512,152,38992,2,0,L|372:142,1,140,8|0,0:0|3:0,0:0:0:0:
312,202,39495,1,0,3:0:0:0:
380,250,39662,6,0,L|384:319,1,70,2|0,3:2|0:0,0:0:0:0:
317,371,39997,1,0,3:0:0:0:
253,315,40165,2,0,L|183:310,1,70,2|8,3:2|0:0,0:0:0:0:
104,339,40500,2,0,P|76:359|40:364,2,70,2|0|2,3:2|0:0|3:2,0:0:0:0:
114,234,41003,5,2,3:2:0:0:
114,234,41171,1,2,3:2:0:0:
34,86,41506,1,2,3:2:0:0:
13,167,41673,2,0,P|80:155|115:97,1,140,8|0,0:0|3:0,0:0:0:0:
81,19,42176,1,0,0:0:0:0:
164,33,42344,6,0,L|251:26,1,70,2|0,3:2|0:0,0:0:0:0:
314,2,42679,1,0,0:0:0:0:
371,65,42847,2,0,B|407:89|407:89|518:73,2,140,2|2|2,3:2|3:2|3:2,0:0:0:0:
288,0,43685,5,2,3:2:0:0:
288,0,43852,1,2,3:2:0:0:
236,160,44187,1,2,3:2:0:0:
304,112,44355,2,0,B|270:78|270:78|165:84,1,140,8|0,0:0|3:0,0:0:0:0:
102,47,44858,1,0,3:0:0:0:
51,112,45025,6,0,P|49:147|59:181,1,70,2|0,3:2|0:0,0:0:0:0:
120,240,45361,1,0,3:0:0:0:
203,234,45528,2,0,L|272:230,1,70,2|0,3:2|0:0,0:0:0:0:
338,177,45863,1,0,3:0:0:0:
407,225,46031,2,0,L|422:293,1,70,8|0,0:0|3:0,0:0:0:0:
476,384,46366,6,0,L|399:378,1,70,2|2,3:2|3:2,0:0:0:0:
341,325,46701,1,10,0:2:0:0:
270,370,46869,2,0,B|232:338|232:338|126:351,1,140,2|2,3:2|3:2,0:0:0:0:
69,307,47372,1,10,0:2:0:0:
92,226,47539,5,2,3:2:0:0:
71,59,47874,1,2,3:2:0:0:
92,226,48210,2,0,L|24:206,1,70,2|10,3:2|0:0,0:0:0:0:
11,122,48545,2,0,L|145:161,1,140,2|8,3:2|0:0,0:0:0:0:
223,232,49048,6,0,P|253:213|287:207,1,70,4|0,3:2|3:0,0:0:0:0:
369,221,49383,1,8,0:0:0:0:
369,221,49550,1,0,3:0:0:0:
425,159,49718,2,0,L|417:74,1,70,0|8,3:0|0:0,0:0:0:0:
368,21,50053,1,0,3:0:0:0:
304,76,50221,1,0,3:0:0:0:
240,21,50388,6,0,L|170:14,1,70,8|0,0:0|0:0,0:0:0:0:
100,62,50724,1,0,3:0:0:0:
164,115,50891,2,0,L|234:122,1,70,8|0,0:0|0:0,0:0:0:0:
297,174,51226,1,0,3:0:0:0:
243,239,51394,2,0,P|228:270|223:305,1,70,8|0,0:0|0:0,0:0:0:0:
118,307,51729,6,0,L|95:239,1,70,0|0,3:0|3:0,0:0:0:0:
30,187,52064,1,8,0:0:0:0:
30,187,52232,1,0,3:0:0:0:
110,162,52400,2,0,L|176:139,1,70,0|8,3:0|0:0,0:0:0:0:
256,113,52735,1,0,3:0:0:0:
305,45,52902,1,0,3:0:0:0:
377,88,53070,6,0,P|394:117|398:152,1,70,8|0,0:0|0:0,0:0:0:0:
331,203,53405,1,0,3:0:0:0:
403,246,53573,2,0,P|420:275|424:310,1,70,8|0,0:0|0:0,0:0:0:0:
369,375,53908,1,0,3:0:0:0:
286,362,54076,2,0,L|232:352,3,35,8|0|0|0,0:0|0:0|0:0|0:0,0:0:0:0:
200,342,54411,6,0,L|188:272,2,70,2|2|10,3:2|3:2|0:0,0:0:0:0:
116,329,54914,2,0,L|104:259,1,70,2|0,3:2|0:0,0:0:0:0:
32,316,55249,2,0,L|20:247,1,70,2|8,3:2|0:0,0:0:0:0:
6,163,55584,1,2,0:0:0:0:
56,93,55752,6,0,L|125:81,2,70,2|2|10,3:2|3:2|0:0,0:0:0:0:
96,168,56254,2,0,L|165:156,1,70,2|0,3:2|0:0,0:0:0:0:
135,244,56590,2,0,L|203:231,1,70,2|8,3:2|0:0,0:0:0:0:
286,216,56925,1,0,0:0:0:0:
342,127,57092,5,10,0:0:0:0:
342,127,57260,1,0,3:0:0:0:
379,202,57428,2,0,L|448:205,1,70,0|10,3:0|0:0,0:0:0:0:
509,147,57763,2,0,L|512:77,1,70,0|0,3:0|3:0,0:0:0:0:
454,17,58098,2,0,L|384:13,1,70,10|0,0:0|3:0,0:0:0:0:
315,66,58433,6,0,P|284:83|250:89,1,70,0|10,3:0|0:0,0:0:0:0:
176,49,58768,2,0,P|145:32|111:26,1,70,0|0,3:0|3:0,0:0:0:0:
32,57,59104,1,10,0:0:0:0:
16,139,59271,2,0,L|33:219,1,70,0|10,3:0|0:0,0:0:0:0:
86,270,59606,1,0,3:0:0:0:
28,358,59774,5,6,0:0:0:0:
256,192,59942,12,0,61115,0:0:0:0:
51,103,62288,6,0,L|218:85,1,167.999994873047,6|2,3:2|0:0,0:0:0:0:
303,30,62791,2,0,P|321:67|318:108,1,83.9999974365235,10|2,0:0|0:0,0:0:0:0:
247,180,63126,1,2,3:2:0:0:
329,236,63293,2,0,L|412:227,1,83.9999974365235,2|8,0:0|0:0,0:0:0:0:
505,268,63629,1,2,0:0:0:0:
505,268,63712,1,2,0:0:0:0:
505,268,63796,6,0,P|517:307|512:348,1,83.9999974365235,2|2,3:2|0:0,0:0:0:0:
416,381,64131,1,10,0:0:0:0:
332,324,64299,2,0,L|247:316,1,83.9999974365235,2|2,0:0|3:2,0:0:0:0:
162,369,64634,2,0,L|154:284,1,83.9999974365235,2|8,0:0|0:0,0:0:0:0:
213,183,64969,6,0,P|135:159|65:201,1,167.999994873047,2|2,3:2|0:0,0:0:0:0:
0,124,65472,2,0,L|7:40,1,83.9999974365235,10|2,0:0|0:0,0:0:0:0:
100,0,65807,1,2,3:2:0:0:
161,80,65975,2,0,P|201:92|242:90,1,83.9999974365235,2|10,0:0|0:0,0:0:0:0:
329,38,66310,1,2,0:0:0:0:
329,38,66394,1,2,0:0:0:0:
329,38,66478,6,0,L|335:123,1,83.9999974365235,2|0,3:2|0:0,0:0:0:0:
340,223,66813,2,0,L|255:217,1,83.9999974365235,10|2,0:0|0:0,0:0:0:0:
168,166,67148,1,2,3:2:0:0:
83,220,67316,2,0,P|70:259|74:301,1,83.9999974365235,2|8,0:0|0:0,0:0:0:0:
165,375,67651,6,0,B|205:335|205:335|318:341,1,167.999994873047,6|0,3:2|0:0,0:0:0:0:
407,384,68154,2,0,P|417:344|410:303,1,83.9999974365235,10|0,0:0|0:0,0:0:0:0:
331,238,68489,1,2,3:2:0:0:
393,157,68657,2,0,L|476:147,1,83.9999974365235,2|8,0:0|0:0,0:0:0:0:
420,63,68992,6,0,L|336:53,1,83.9999974365235,2|0,3:2|0:0,0:0:0:0:
236,40,69327,2,0,L|226:0,2,41.9999987182618,2|2|10,0:0|0:0|0:0,0:0:0:0:
198,134,69662,2,0,P|162:155|112:157,1,83.9999974365235,2|0,0:0|3:0,0:0:0:0:
41,95,69997,1,2,0:0:0:0:
0,190,70165,1,10,0:0:0:0:
0,190,70333,1,2,0:0:0:0:
72,283,70500,6,0,L|154:265,1,83.9999974365235,10|0,0:0|3:0,0:0:0:0:
252,241,70835,1,0,3:0:0:0:
313,161,71003,2,0,L|230:143,1,83.9999974365235,10|0,0:0|3:0,0:0:0:0:
133,119,71338,1,0,3:0:0:0:
64,44,71506,2,0,L|146:26,1,83.9999974365235,10|0,0:0|3:0,0:0:0:0:
244,2,71841,1,0,3:0:0:0:
333,45,72009,6,0,P|375:49|416:38,2,83.9999974365235,10|2|2,0:2|3:2|0:2,0:0:0:0:
244,2,72511,1,10,0:2:0:0:
198,91,72679,1,10,0:2:0:0:
85,258,73014,6,0,P|137:224|237:257,1,167.999994873047,6|2,3:2|0:0,0:0:0:0:
299,328,73517,2,0,L|389:316,1,83.9999974365235,10|2,0:0|0:0,0:0:0:0:
481,297,73852,1,2,3:2:0:0:
414,220,74020,2,0,P|405:180|410:138,1,83.9999974365235,2|8,0:0|0:0,0:0:0:0:
452,47,74355,1,2,0:0:0:0:
452,47,74439,1,2,0:0:0:0:
452,47,74523,6,0,P|411:56|369:51,1,83.9999974365235,2|2,3:2|0:0,0:0:0:0:
281,2,74858,2,0,L|269:85,1,83.9999974365235,10|2,0:0|0:0,0:0:0:0:
321,171,75193,1,2,3:2:0:0:
247,240,75361,2,0,L|163:251,1,83.9999974365235,2|8,0:0|0:0,0:0:0:0:
80,167,75696,6,0,B|42:204|42:204|60:318,1,167.999994873047,2|2,3:2|0:0,0:0:0:0:
139,380,76198,2,0,L|222:368,1,83.9999974365235,10|2,0:0|0:0,0:0:0:0:
322,353,76534,1,2,3:2:0:0:
298,254,76701,2,0,P|291:213|302:173,1,83.9999974365235,2|8,0:0|0:0,0:0:0:0:
387,118,77036,1,2,0:0:0:0:
387,118,77120,1,2,0:0:0:0:
387,118,77204,6,0,L|481:131,1,83.9999974365235,2|2,3:2|0:0,0:0:0:0:
476,230,77539,2,0,L|392:218,1,83.9999974365235,10|2,0:0|0:0,0:0:0:0:
302,173,77874,1,2,3:2:0:0:
256,263,78042,1,2,0:0:0:0:
168,211,78210,2,0,L|84:222,1,83.9999974365235,8|0,0:0|0:0,0:0:0:0:
12,129,78545,6,0,B|45:90|45:90|180:110,1,167.999994873047,4|8,3:2|0:0,0:0:0:0:
254,144,79048,1,0,0:0:0:0:
278,46,79215,1,2,3:2:0:0:
372,83,79383,2,0,L|455:94,1,83.9999974365235,2|8,0:0|0:0,0:0:0:0:
482,192,79718,6,0,P|428:178|338:253,1,167.999994873047,2|2,3:2|0:0,0:0:0:0:
330,339,80221,1,8,0:0:0:0:
231,329,80388,2,0,L|227:246,1,83.9999974365235,2|0,0:2|3:0,0:0:0:0:
221,143,80724,1,2,0:0:0:0:
253,47,80891,2,0,P|212:41|173:54,1,83.9999974365235,10|0,0:0|0:0,0:0:0:0:
89,138,81226,6,0,L|6:142,1,83.9999974365235,10|0,0:0|3:0,0:0:0:0:
4,243,81562,1,0,3:0:0:0:
104,248,81729,2,0,L|187:252,1,83.9999974365235,10|0,0:0|3:0,0:0:0:0:
232,344,82064,1,0,3:0:0:0:
332,351,82232,2,0,L|415:355,1,83.9999974365235,10|0,0:0|3:2,0:0:0:0:
496,269,82567,6,0,L|492:186,1,83.9999974365235,10|0,0:0|3:0,0:0:0:0:
486,84,82902,1,0,3:0:0:0:
400,30,83070,2,0,L|396:113,1,83.9999974365235,10|0,0:0|3:0,0:0:0:0:
390,215,83405,1,0,3:0:0:0:
306,158,83573,2,0,L|223:154,1,83.9999974365235,10|0,0:0|3:0,0:0:0:0:
124,145,83908,6,0,L|94:0,2,140,4|0|0,3:2|0:0|0:0,0:0:0:0:
22,280,84914,2,0,P|77:238|145:244,1,140,0|0,0:0|3:0,0:0:0:0:
313,253,85584,2,0,P|213:172|280:62,1,280,0|0,3:0|3:0,0:0:0:0:
386,192,86590,6,0,L|416:337,2,140,2|2|2,3:2|0:2|0:0,0:0:0:0:
279,62,87595,2,0,P|210:71|166:123,1,140,2|2,0:0|3:2,0:0:0:0:
109,280,88266,2,0,P|224:233|166:122,1,280,2|0,0:2|3:0,0:0:0:0:
1,149,89271,5,0,3:0:0:0:
256,192,89355,12,0,91617,0:0:0:0:
