osu file format v14

[General]
AudioFilename: audio.mp3
AudioLeadIn: 0
PreviewTime: 54877
Countdown: 0
SampleSet: Soft
StackLeniency: 0.5
Mode: 0
LetterboxInBreaks: 0
WidescreenStoryboard: 1

[Editor]
Bookmarks: 77877,88377
DistanceSpacing: 1.2
BeatDivisor: 4
GridSize: 16
TimelineZoom: 1

[Metadata]
Title:Fates Fall -Kibou no Kage- (Ending Version)
TitleUnicode:Fates Fall -希望の陰- (Ending Version)
Artist:Ito Kanako
ArtistUnicode:いとうかなこ
Creator:SaltyLucario
Version:Hard
Source:リーグ・オブ・レジェンド
Tags:league of legends japan lol star guardian new horizon スターガーディアン:ニューホライズン starfall 流星雨 soraka ソラカ ezreal エズリアル miss fortune フォーチュン mf ahri アーリ syndra シンドラ doraemonelf dora- gottagof4st ggf stack saltking salty jpop j-pop jrock j-rock video game japanese itou short ver.
BeatmapID:2132330
BeatmapSetID:979592

[Difficulty]
HPDrainRate:4
CircleSize:3.8
OverallDifficulty:6
ApproachRate:7.8
SliderMultiplier:1.4
SliderTickRate:1

[Events]
//Background and Video events
0,0,"bg.jpg",0,0
//Break Periods
//Storyboard Layer 0 (Background)
//Storyboard Layer 1 (Fail)
//Storyboard Layer 2 (Pass)
//Storyboard Layer 3 (Foreground)
//Storyboard Layer 4 (Overlay)
//Storyboard Sound Samples

[TimingPoints]
-789,333.333333333333,4,2,3,25,1,0
544,-133.333333333333,4,2,3,25,0,0
6544,-133.333333333333,4,2,3,30,0,0
7210,-133.333333333333,4,2,3,35,0,0
7877,-133.333333333333,4,2,3,40,0,0
8377,-133.333333333333,4,2,3,45,0,0
10544,-133.333333333333,4,2,3,35,0,0
11044,-100,4,2,3,70,0,0
18960,-100,4,2,3,5,0,0
19044,-100,4,2,3,70,0,0
21544,-100,4,2,3,55,0,0
21794,-100,4,2,3,5,0,0
21877,-100,4,2,3,60,0,0
22210,-117.647058823529,4,2,3,60,0,0
31210,-100,4,2,3,70,0,0
37794,-100,4,2,3,5,0,0
37877,-100,4,2,3,70,0,0
43127,-100,4,2,3,5,0,0
43210,-117.647058823529,4,2,3,55,0,0
48377,-100,4,2,3,65,0,0
54877,-100,4,2,3,35,0,0
55210,-90.9090909090909,4,2,3,80,0,1
60460,-90.9090909090909,4,2,3,5,0,1
60544,-90.9090909090909,4,2,3,80,0,1
65044,-90.9090909090909,4,2,3,50,0,1
65377,-100,4,2,3,70,0,0
65710,-90.9090909090909,4,2,3,80,0,1
65960,-90.9090909090909,4,2,3,5,0,1
66044,-90.9090909090909,4,2,3,80,0,1
67294,-90.9090909090909,4,2,3,5,0,1
67377,-90.9090909090909,4,2,3,80,0,1
68544,-100,4,2,3,80,0,0
70710,-100,4,2,3,45,0,0
70877,-100,4,2,3,35,0,0
71210,-86.9565217391304,4,2,3,75,0,1
73960,-86.9565217391304,4,2,3,5,0,1
74044,-86.9565217391304,4,2,3,80,0,1
74210,-90.9090909090909,4,2,3,80,0,1
75877,-90.9090909090909,4,2,3,55,0,1
76044,-100,4,2,3,55,0,1
76377,-100,4,2,3,55,0,0
77710,-100,4,2,3,65,0,0
83044,-100,4,2,3,70,0,0
87877,-100,4,2,99,5,0,0

[Colours]
Combo1 : 239,141,95
Combo2 : 191,140,253
Combo3 : 249,214,132

[HitObjects]
98,178,544,6,0,P|76:123|172:171,1,262.500010013581,6|0,2:0|2:0,2:0:0:0:
136,284,1710,6,0,B|184:230|272:253|272:253|332:320|414:322|474:252,1,367.500014019013,2|0,2:0|2:0,2:0:0:0:
439,138,3210,6,0,B|409:95|382:48|382:48|398:141|372:210,1,262.500010013581,2|0,2:0|2:0,2:0:0:0:
327,319,4377,5,6,2:0:0:0:
327,319,4710,2,0,P|336:352|335:375,2,52.5000020027161,2|2|2,2:0|2:0|2:0,2:0:0:0:
146,261,5544,1,0,2:0:0:0:
146,261,5877,6,0,L|155:365,1,105.000004005432,6|0,2:0|2:0,2:0:0:0:
43,307,6544,2,0,L|52:202,1,105.000004005432,6|0,2:0|2:0,2:0:0:0:
158,133,7210,6,0,P|101:123|49:100,1,105.000004005432,6|0,2:0|2:0,2:0:0:0:
159,30,7877,2,0,P|207:10|259:1,1,105.000004005432,6|0,2:0|2:0,2:0:0:0:
337,16,8377,5,6,2:0:0:0:
297,142,8710,1,0,2:0:0:0:
297,142,9377,2,0,P|334:128|362:114,1,52.5000020027161,2|2,2:0|2:0,2:0:0:0:
401,69,9711,6,0,L|394:263,1,157.500006008148,6|2,2:0|2:0,2:0:0:0:
456,337,10544,2,0,L|460:383,2,26.2500010013581,8|4|4,2:3|2:3|2:3,2:0:0:0:
376,309,10877,1,4,2:3:0:0:
271,360,11044,6,0,P|232:347|186:352,1,70,4|0,2:1|2:0,2:0:0:0:
118,374,11377,1,0,3:2:0:0:
118,374,11544,2,0,L|110:290,1,70,0|0,1:2|2:0,2:0:0:0:
128,214,11877,1,2,3:2:0:0:
40,231,12044,2,0,L|48:147,1,70,0|0,2:0|1:2,2:0:0:0:
34,47,12377,6,0,B|106:30|105:107|197:64,1,140,2|0,3:2|3:2,2:0:0:0:
234,22,12877,2,0,L|319:37,1,70,0|0,1:2|2:0,2:0:0:0:
394,20,13210,1,2,3:2:0:0:
366,105,13377,2,0,P|360:139|367:173,1,70,0|0,2:0|1:2,2:0:0:0:
470,224,13710,6,0,P|477:262|468:302,1,70,2|0,3:2|2:0,2:0:0:0:
378,265,14044,1,0,3:2:0:0:
378,265,14210,2,0,B|319:272|319:272|296:291|296:291|222:302,1,140,0|0,1:2|3:2,2:0:0:0:
154,249,14710,1,2,2:0:0:0:
122,349,14877,1,2,1:2:0:0:
70,277,15044,6,0,L|64:191,1,70,2|0,3:2|2:0,2:0:0:0:
128,133,15377,1,2,3:2:0:0:
42,78,15544,1,2,1:2:0:0:
137,42,15710,2,0,P|186:53|234:36,1,70,2|0,2:0|3:2,2:0:0:0:
287,15,16044,1,2,1:2:0:0:
287,15,16210,1,0,1:2:0:0:
256,120,16377,6,0,B|235:208|235:208|270:280,1,140,4|0,1:0|3:2,2:0:0:0:
327,196,16877,2,0,L|417:216,1,70,0|0,1:2|2:0,2:0:0:0:
505,234,17210,1,2,3:2:0:0:
453,301,17377,2,0,L|362:321,1,70,0|0,2:0|1:2,2:0:0:0:
281,366,17710,6,0,B|248:304|140:320,1,140,2|0,3:2|3:2,2:0:0:0:
79,359,18210,2,0,P|71:299|79:278,1,70,0|0,1:2|2:0,2:0:0:0:
97,256,18460,1,0,2:0:0:0:
97,256,18544,1,2,3:2:0:0:
182,225,18710,2,0,L|168:109,1,105,0|0,2:0|2:0,2:0:0:0:
153,82,19044,6,0,P|220:102|242:97,1,70,2|0,3:2|2:0,2:0:0:0:
313,113,19377,2,0,P|293:180|298:202,1,70,2|0,3:2|1:2,2:0:0:0:
245,260,19710,2,0,P|279:263|310:280,1,70,6|0,2:0|3:2,2:0:0:0:
420,284,20043,2,0,P|400:351|405:373,1,70,6|0,2:0|1:2,2:0:0:0:
505,341,20377,5,6,3:2:0:0:
505,341,21544,6,0,B|498:314|498:314|507:261|507:261|486:221,1,105,0|0,1:2|2:0,2:0:0:0:
473,203,21877,5,4,3:2:0:0:
377,323,22210,2,0,P|333:306|303:307,1,59.5000011348725,0|0,3:2|2:0,2:0:0:0:
254,347,22544,2,0,L|193:354,1,59.5000011348725,0|0,3:2|2:0,2:0:0:0:
162,283,22877,1,0,3:2:0:0:
162,283,23044,2,0,L|102:276,1,59.5000011348725,0|0,2:0|3:2,2:0:0:0:
36,324,23377,2,0,P|24:259|67:205,1,119.000002269745,0|0,2:0|2:0,2:0:0:0:
163,192,23877,1,0,3:2:0:0:
95,142,24044,2,0,L|93:71,1,59.5000011348725,0|0,2:0|1:2,2:0:0:0:
142,21,24377,1,0,2:0:0:0:
142,21,24544,6,0,P|189:35|224:31,1,59.5000011348725,4|0,3:2|2:0,2:0:0:0:
217,119,24877,1,0,3:2:0:0:
217,119,25044,2,0,L|297:101,1,59.5000011348725,0|0,2:0|3:2,2:0:0:0:
347,67,25377,2,0,L|405:77,1,59.5000011348725,0|0,2:0|3:2,2:0:0:0:
459,156,25710,2,0,P|402:158|345:185,1,119.000002269745,0|0,2:0|2:0,2:0:0:0:
269,189,26210,2,0,L|287:271,1,59.5000011348725,0|0,3:2|2:0,2:0:0:0:
331,314,26544,2,0,L|249:332,1,59.5000011348725,0|0,3:2|2:0,2:0:0:0:
198,369,26877,1,0,3:2:0:0:
202,283,27044,1,0,2:0:0:0:
119,354,27210,6,0,L|-2:322,1,119.000002269745,4|0,3:2|3:2,2:0:0:0:
0,233,27710,1,0,2:0:0:0:
0,233,27877,2,0,L|121:265,1,119.000002269745,0|0,3:2|3:2,2:0:0:0:
190,310,28377,1,0,2:0:0:0:
190,310,28544,2,0,P|202:274|202:242,1,59.5000011348725,0|0,3:2|2:0,2:0:0:0:
150,192,28877,1,0,3:2:0:0:
150,192,29044,2,0,P|143:147|150:107,1,59.5000011348725,0|0,2:0|3:2,2:0:0:0:
155,53,29377,1,0,2:0:0:0:
233,82,29544,2,0,L|307:73,1,59.5000011348725,0|0,3:2|2:0,2:0:0:0:
391,16,29877,6,0,B|410:74|410:74|381:137,1,119.000002269745,4|0,3:2|3:2,2:0:0:0:
343,200,30377,2,0,L|361:276,1,59.5000011348725,0|0,2:0|3:2,2:0:0:0:
386,351,30710,1,0,2:0:0:0:
386,351,30794,1,0,2:0:0:0:
386,351,30877,1,0,3:2:0:0:
246,281,31210,6,0,B|199:265|199:265|101:293,1,140,0|0,1:2|3:2,2:0:0:0:
34,322,31710,1,0,1:2:0:0:
56,153,32044,1,0,1:2:0:0:
34,341,32377,6,0,B|81:325|81:325|179:353,1,140,4|0,1:2|3:2,2:0:0:0:
248,379,32877,2,0,L|322:365,1,70,2|0,1:2|2:0,2:0:0:0:
397,380,33210,2,0,P|391:323|378:305,1,70,2|0,3:2|2:0,2:0:0:0:
308,279,33544,1,2,1:2:0:0:
226,298,33710,2,0,P|231:241|244:223,1,70,2|0,3:2|2:0,2:0:0:0:
315,197,34044,1,2,3:2:0:0:
218,141,34210,1,0,1:2:0:0:
302,113,34377,2,0,L|385:130,1,70,2|0,3:2|2:0,2:0:0:0:
460,135,34710,1,2,3:2:0:0:
404,212,34877,2,0,B|391:245|391:245|414:290,1,70,2|0,1:2|2:0,2:0:0:0:
478,344,35210,6,0,L|327:365,1,140,6|2,3:2|1:2,2:0:0:0:
244,371,35710,2,0,L|169:355,1,70,2|0,2:0|3:2,2:0:0:0:
112,290,36044,2,0,L|187:273,1,70,2|0,2:0|1:2,2:0:0:0:
265,294,36377,2,0,P|257:234|242:210,1,70,2|0,3:2|2:0,2:0:0:0:
176,193,36710,1,0,3:2:0:0:
264,139,36877,1,0,1:2:0:0:
162,106,37044,2,0,B|100:145|100:145|11:123,1,140,0|0,3:2|3:2,2:0:0:0:
94,43,37544,2,0,B|157:4|157:4|207:18,1,105,2|0,1:2|2:0,2:0:0:0:
236,33,37877,5,6,3:2:0:0:
386,9,38210,2,0,L|380:86,1,70,0|0,1:2|2:0,2:0:0:0:
375,163,38544,1,2,3:2:0:0:
464,81,38710,1,0,1:2:0:0:
407,282,39044,6,0,B|331:313|333:243|260:274,1,140,6|0,3:2|3:2,2:0:0:0:
209,339,39544,2,0,P|165:349|128:338,1,70,2|0,1:2|2:0,2:0:0:0:
53,339,39877,2,0,P|66:295|94:269,1,70,2|0,3:2|3:2,2:0:0:0:
173,263,40210,2,0,P|160:230|135:207,1,70,2|0,1:2|2:0,2:0:0:0:
49,198,40544,5,6,3:2:0:0:
65,13,40877,1,2,1:2:0:0:
133,99,41044,2,0,L|225:86,1,70,2|0,2:0|3:2,2:0:0:0:
274,23,41377,2,0,L|343:32,1,70,2|0,1:2|2:0,2:0:0:0:
434,48,41710,5,6,3:2:0:0:
479,241,42044,1,0,3:2:0:0:
385,180,42210,1,0,1:2:0:0:
388,260,42377,2,0,L|392:355,1,70,0|0,3:2|2:0,2:0:0:0:
315,369,42710,1,0,3:2:0:0:
315,369,42877,2,0,L|311:241,1,105,2|0,1:2|2:0,2:0:0:0:
325,223,43210,6,0,P|264:245|188:234,1,119.000002269745,4|0,3:2|2:0,2:0:0:0:
139,210,43710,1,0,3:2:0:0:
139,210,43877,2,0,L|54:228,1,59.5000011348725,8|0,1:2|2:0,2:0:0:0:
37,157,44210,2,0,L|122:139,1,59.5000011348725,8|8,2:0|2:0,2:0:0:0:
137,79,44544,6,0,L|266:104,1,119.000002269745,4|0,3:2|3:2,2:0:0:0:
316,56,45044,1,0,2:0:0:0:
316,56,45210,2,0,P|329:117|297:166,1,119.000002269745,0|8,1:2|2:0,2:0:0:0:
225,180,45710,1,8,2:0:0:0:
225,180,45877,6,0,P|263:229|340:232,1,119.000002269745,4|0,3:2|3:2,2:0:0:0:
390,215,46377,1,0,2:0:0:0:
390,215,46544,2,0,L|396:285,1,59.5000011348725,0|0,1:2|2:0,2:0:0:0:
472,281,46877,2,0,L|465:203,1,59.5000011348725,8|8,2:0|2:0,2:0:0:0:
511,158,47210,6,0,B|462:127|438:171|374:126,1,119.000002269745,4|0,3:2|3:2,2:0:0:0:
344,80,47710,1,0,3:2:0:0:
321,154,47877,5,0,1:2:0:0:
269,45,48044,1,4,2:0:0:0:
96,92,48377,6,0,B|121:120|121:120|109:223,1,140,4|0,3:2|3:2,2:0:0:0:
90,311,48877,2,0,L|172:299,1,70,2|0,1:2|2:0,2:0:0:0:
249,278,49210,1,2,3:2:0:0:
225,364,49377,2,0,L|308:371,1,70,2|0,2:0|1:2,2:0:0:0:
410,376,49710,6,0,B|412:338|385:312|385:312|434:290|428:229,1,140,6|0,3:2|3:2,2:0:0:0:
474,181,50210,2,0,P|438:168|394:170,1,70,2|0,1:2|2:0,2:0:0:0:
327,227,50544,2,0,P|307:190|311:143,1,70,2|0,3:2|2:0,2:0:0:0:
355,89,50877,2,0,P|351:54|333:24,1,70,2|0,1:2|2:0,2:0:0:0:
237,90,51210,6,0,B|165:124|167:58|82:103,1,140,6|8,3:2|2:0,2:0:0:0:
52,164,51710,1,0,3:2:0:0:
137,176,51877,2,0,B|109:244|109:244|141:329,1,140,0|8,1:2|2:0,2:0:0:0:
198,384,52377,5,10,2:0:0:0:
232,292,52544,2,0,L|320:303,1,70,2|8,3:2|2:0,2:0:0:0:
402,267,52877,1,10,2:0:0:0:
315,220,53044,2,0,L|326:132,1,70,2|0,3:2|1:2,2:0:0:0:
334,64,53377,5,2,1:2:0:0:
420,150,53544,1,2,1:2:0:0:
458,34,53710,1,6,2:0:0:0:
455,36,54877,2,0,L|461:85,3,35,2|0|0|0,2:0|2:0|2:0|2:0,2:0:0:0:
485,114,55210,6,0,L|481:214,1,77.0000023498536,4|0,3:1|2:0,2:0:0:0:
461,300,55544,1,2,1:2:0:0:
381,229,55710,2,0,L|281:225,1,77.0000023498536,2|0,3:2|2:0,2:0:0:0:
201,223,56044,1,2,3:2:0:0:
253,328,56210,2,0,B|279:381|279:381|98:374,1,231.000007049561,2|0,1:2|3:2,2:0:0:0:
0,378,56877,6,0,P|11:327|56:294,1,77.0000023498536,2|0,1:2|2:0,2:0:0:0:
122,267,57210,2,0,P|143:235|147:197,1,77.0000023498536,2|0,2:0|3:2,2:0:0:0:
80,116,57544,2,0,P|83:78|105:46,1,77.0000023498536,2|0,1:2|2:0,2:0:0:0:
196,113,57877,6,0,P|264:112|294:97,1,77.0000023498536,2|0,3:2|2:0,2:0:0:0:
355,46,58210,1,2,1:2:0:0:
354,151,58377,2,0,P|345:188|350:226,1,77.0000023498536,2|0,3:2|2:0,2:0:0:0:
413,302,58710,1,2,3:2:0:0:
453,214,58877,2,0,P|507:300|473:360,1,154.000004699707,2|0,1:2|2:0,2:0:0:0:
400,384,59377,1,0,3:2:0:0:
314,307,59544,6,0,P|257:324|224:321,1,77.0000023498536,0|0,1:2|2:0,2:0:0:0:
159,281,59877,1,0,2:0:0:0:
142,372,60044,1,2,3:2:0:0:
39,343,60210,2,0,B|15:314|15:314|21:223,1,115.50000352478,2|0,1:2|2:0,2:0:0:0:
49,201,60544,6,0,L|38:116,1,77.0000023498536,6|0,3:2|2:0,2:0:0:0:
20,0,60877,1,2,1:2:0:0:
108,67,61044,2,0,L|210:81,1,77.0000023498536,2|0,2:0|3:2,2:0:0:0:
268,139,61377,2,0,L|344:128,1,77.0000023498536,2|0,2:0|1:2,2:0:0:0:
447,65,61710,6,0,B|501:130|413:164|483:236,1,154.000004699707,6|0,3:2|3:2,2:0:0:0:
512,291,62210,2,0,L|491:373,1,77.0000023498536,2|0,1:2|2:0,2:0:0:0:
405,292,62544,2,0,P|370:276|332:278,1,77.0000023498536,2|0,3:2|2:0,2:0:0:0:
255,350,62877,2,0,P|216:351|182:336,1,77.0000023498536,2|0,1:2|2:0,2:0:0:0:
241,238,63210,6,0,L|221:163,1,77.0000023498536,6|0,3:2|2:0,2:0:0:0:
254,49,63544,1,2,1:2:0:0:
164,98,63710,2,0,P|95:102|60:95,1,77.0000023498536,2|0,2:0|3:2,2:0:0:0:
9,63,64044,1,0,2:0:0:0:
17,157,64210,1,0,1:2:0:0:
29,271,64377,6,0,B|73:257|73:257|188:299,1,154.000004699707,0|0,3:2|3:2,2:0:0:0:
298,345,64877,1,0,1:2:0:0:
275,232,65044,1,8,2:3:0:0:
275,232,65127,1,4,2:3:0:0:
275,232,65210,1,4,2:3:0:0:
357,278,65377,6,0,B|394:271|394:271|452:291,1,70,6|2,3:2|2:0,2:0:0:0:
497,342,65710,6,0,P|514:265|490:220,1,115.50000352478,6|0,3:2|2:0,2:0:0:0:
456,201,66044,1,2,3:2:0:0:
512,91,66210,1,2,1:2:0:0:
429,121,66377,2,0,L|329:97,1,77.0000023498536,2|0,2:0|3:2,2:0:0:0:
256,66,66710,1,2,2:0:0:0:
305,171,66877,1,2,1:2:0:0:
207,139,67044,6,0,L|95:165,1,115.50000352478,2|0,3:2|2:0,2:0:0:0:
44,174,67377,1,2,3:2:0:0:
103,262,67544,1,2,1:2:0:0:
49,328,67710,2,0,P|84:344|133:342,1,77.0000023498536,2|0,3:2|2:0,2:0:0:0:
194,285,68044,2,0,P|232:285|266:301,1,77.0000023498536,2|0,3:2|1:2,2:0:0:0:
272,384,68377,1,2,2:0:0:0:
353,287,68544,6,0,L|362:138,1,140,6|2,3:2|2:0,2:0:0:0:
429,79,69044,2,0,P|386:100|284:52,1,140,6|2,3:2|3:2,2:0:0:0:
214,41,69544,2,0,B|184:100|231:120|210:180,1,140,6|0,1:2|2:0,2:0:0:0:
176,259,70044,5,0,3:2:0:0:
93,235,70210,2,0,L|33:245,2,46.6666666666667,0|0|0,1:2|2:0|2:0,2:0:0:0:
102,287,70544,2,0,L|122:385,1,70,0|8,3:2|2:3,2:0:0:0:
208,381,70877,1,8,2:3:0:0:
290,244,71210,6,0,L|394:267,1,80.5000015354157,6|0,3:2|2:0,2:0:0:0:
389,176,71544,2,0,L|310:158,1,80.5000015354157,0|0,1:2|2:0,2:0:0:0:
184,126,71877,1,6,3:2:0:0:
251,52,72044,1,0,2:0:0:0:
156,32,72210,1,0,1:2:0:0:
176,248,72544,6,0,L|254:230,1,80.5000015354157,6|0,3:2|2:0,2:0:0:0:
274,329,72877,2,0,L|195:346,1,80.5000015354157,0|0,1:2|2:0,2:0:0:0:
74,366,73210,1,6,3:2:0:0:
100,273,73377,1,0,2:0:0:0:
10,294,73544,1,0,1:2:0:0:
45,169,73710,6,0,B|56:86|56:86|29:41,1,120.750002303124,6|0,3:2|2:0,2:0:0:0:
8,13,74044,1,2,3:2:0:0:
114,28,74210,2,0,L|204:38,2,77.0000023498536,2|0|0,1:2|2:0|3:2,2:0:0:0:
143,134,74710,1,2,2:0:0:0:
240,110,74877,1,2,1:2:0:0:
174,223,75044,6,0,B|144:291|217:301|185:376,1,154.000004699707,2|0,3:2|3:2,2:0:0:0:
283,302,75544,2,0,P|324:292|364:303,1,77.0000023498536,2|0,1:2|2:0,2:0:0:0:
445,348,75877,1,0,1:2:0:0:
445,348,75960,1,0,1:2:0:0:
445,348,76044,2,0,L|440:289,3,35,0|0|0|0,1:2|1:2|1:2|1:2,2:0:0:0:
511,133,77210,6,0,L|513:98,3,35,8|8|0|0,2:3|2:3|3:2|3:2,2:0:0:0:
497,58,77544,1,4,2:3:0:0:
412,121,77710,6,0,P|370:127|327:113,1,70,4|0,2:1|2:0,2:0:0:0:
260,64,78043,1,0,3:2:0:0:
260,64,78210,2,0,L|253:133,1,70,0|0,1:2|2:0,2:0:0:0:
269,229,78543,1,2,3:2:0:0:
179,172,78710,2,0,P|147:166|97:178,1,70,0|0,2:0|1:2,2:0:0:0:
6,157,79043,6,0,B|-19:221|62:240|15:315,1,140,2|0,3:2|3:2,2:0:0:0:
92,374,79543,2,0,L|176:357,1,70,0|0,1:2|2:0,2:0:0:0:
256,334,79876,1,2,3:2:0:0:
162,266,80043,2,0,P|154:231|160:197,1,70,0|0,2:0|1:2,2:0:0:0:
266,231,80377,6,0,L|345:236,1,70,6|0,3:2|2:0,2:0:0:0:
421,286,80710,1,0,3:2:0:0:
421,286,80876,2,0,B|433:232|433:232|423:201|423:201|437:138,1,140,0|0,1:2|3:2,2:0:0:0:
465,65,81376,1,2,2:0:0:0:
363,106,81543,1,2,1:2:0:0:
388,22,81710,6,0,L|302:7,1,70,2|0,3:2|2:0,2:0:0:0:
226,3,82043,1,2,3:2:0:0:
264,87,82210,1,2,1:2:0:0:
153,50,82377,2,0,P|104:39|57:54,1,70,2|0,2:0|3:2,2:0:0:0:
68,169,82710,2,0,P|117:180|165:163,1,70,2|0,1:2|1:2,2:0:0:0:
264,87,83044,5,4,1:0:0:0:
256,192,83210,12,0,87877,2:0:0:0:
