osu file format v14

[General]
AudioFilename: audio.mp3
AudioLeadIn: 0
PreviewTime: 46986
Countdown: 1
SampleSet: Soft
StackLeniency: 0.4
Mode: 0
LetterboxInBreaks: 0
WidescreenStoryboard: 1

[Editor]
Bookmarks: 1563,15122,25969,36816,47664,58511,70545,81393,92240,103088
DistanceSpacing: 1
BeatDivisor: 8
GridSize: 8
TimelineZoom: 3.299999

[Metadata]
Title:Amadeus
TitleUnicode:アマデウス
Artist:Ito Kanako
ArtistUnicode:いとうかなこ
Creator:diraimur
Version:Salieri
Source:STEINS;GATE 0
Tags:
BeatmapID:1611540
BeatmapSetID:765511

[Difficulty]
HPDrainRate:5
CircleSize:3.5
OverallDifficulty:8.5
ApproachRate:9
SliderMultiplier:2
SliderTickRate:1

[Events]
//Background and Video events
0,0,"a4.jpg",0,0
//Break Periods
//Storyboard Layer 0 (Background)
//Storyboard Layer 1 (Fail)
//Storyboard Layer 2 (Pass)
//Storyboard Layer 3 (Foreground)
//Storyboard Sound Samples

[TimingPoints]
1563,338.983050847458,4,2,0,40,1,0
1563,-208.333333333333,4,2,0,40,0,0
14613,-208.333333333333,4,2,0,45,0,0
14783,-208.333333333333,4,2,0,50,0,0
14952,-208.333333333333,4,2,0,55,0,0
15122,338.983050847458,4,2,0,60,1,0
15122,-78.125,4,2,0,60,0,0
24444,-312.5,4,2,0,60,0,0
24783,-312.5,4,2,0,5,0,0
25969,-156.25,4,2,0,50,0,0
35969,-312.5,4,2,0,50,0,0
36308,-312.5,4,2,0,5,0,0
36816,-104.166666666667,4,2,0,60,0,0
47155,-156.25,4,2,0,60,0,0
47664,-125,4,2,0,55,0,0
58003,-156.25,4,2,0,55,0,0
58511,-89.2857142857143,4,2,0,60,0,0
69698,-89.2857142857143,4,2,0,40,0,0
70037,-89.2857142857143,4,2,0,50,0,0
70545,-78.125,4,2,0,60,0,1
80715,-312.5,4,2,0,60,0,0
81223,-312.5,4,2,0,5,0,0
81393,-78.125,4,2,0,60,0,1
91562,-312.5,4,2,0,60,0,0
92071,-312.5,4,2,0,5,0,0
92240,-78.125,4,2,0,60,0,0
103088,-312.5,4,2,0,60,0,0
103427,-312.5,4,2,0,5,0,0

[Colours]
Combo1 : 255,0,255
Combo2 : 63,63,63
Combo3 : 127,127,127
Combo4 : 255,191,0
Combo5 : 255,128,0
Combo6 : 64,207,255
Combo7 : 64,159,255
Combo8 : 255,0,0
SliderBorder : 255,127,0
SliderTrackOverride : 0,47,95

[HitObjects]
74,92,1563,6,0,P|157:151|245:125,1,192.0000046875,0|0,0:0|0:0,0:0:0:0:
250,116,2579,2,0,L|247:175,1,48.000001171875
330,202,2918,2,0,P|263:196|207:244,2,144.000003515625,0|0|0,0:0|0:0|0:0,0:0:0:0:
289,283,4105,1,0,0:0:0:0:
120,223,4274,2,0,B|112:127|112:127|133:82,2,144.000003515625
204,146,5630,1,0,0:0:0:0:
359,112,5969,6,0,P|286:175|204:146,1,192.0000046875
272,85,6817,1,0,0:0:0:0:
430,51,6986,2,0,B|450:94|450:94|442:190,2,144.000003515625
344,198,8342,2,0,P|360:243|395:277,1,96.0000023437501
236,340,9020,2,0,L|240:265,2,64.0000015625
147,255,9698,2,0,P|197:191|256:183,2,144.000003515625
149,276,11139,2,0,L|151:308,2,24.0000005859375
256,192,11478,12,0,14105,0:0:0:0:
302,284,14444,101,0,0:0:0:0:
285,270,14529,1,0,0:0:0:0:
257,264,14613,1,0,0:0:0:0:
222,270,14698,1,0,0:0:0:0:
183,289,14783,1,0,0:0:0:0:
133,293,14868,1,0,0:0:0:0:
84,265,14952,1,0,0:0:0:0:
60,206,15037,1,0,0:0:0:0:
88,131,15122,22,0,P|149:115|211:130,1,128,4|0,0:0|0:0,0:0:0:0:
379,272,15460,1,8,0:3:0:0:
212,342,15630,2,0,P|168:297|150:236,1,128,0|4,0:0|0:3,0:0:0:0:
334,129,15969,2,0,P|317:190|273:235,1,128,0|8,0:0|0:3,0:0:0:0:
27,237,16308,6,0,P|89:252|150:236,1,128,0|4,0:0|0:3,0:0:0:0:
148,25,16647,2,0,P|104:70|88:131,1,128,0|8,0:0|0:3,0:0:0:0:
273,235,16986,1,0,0:0:0:0:
273,235,17071,1,0,0:0:0:0:
273,235,17155,2,0,P|256:176|210:130,1,128,4|0,0:3|0:0,0:0:0:0:
0,54,17494,1,8,0:3:0:0:
27,237,17664,1,0,0:0:0:0:
210,130,17833,102,0,P|269:121|333:142,1,128,4|0,0:3|0:0,0:0:0:0:
434,333,18172,1,8,0:3:0:0:
456,154,18342,2,0,P|397:163|333:142,1,128,0|4,0:0|0:3,0:0:0:0:
406,26,18681,1,0,0:0:0:0:
502,294,18850,2,0,B|434:333|434:333|257:318,1,256,8|4,0:3|0:3,0:0:0:0:
375,75,19359,6,0,P|312:64|250:79,1,128,0|8,0:0|0:3,0:0:0:0:
257,318,19698,2,0,P|297:268|315:207,1,128,0|4,0:0|0:3,0:0:0:0:
105,94,20037,1,0,0:0:0:0:
105,94,20122,1,0,0:0:0:0:
105,95,20206,2,0,P|127:154|171:200,1,128,8|0,0:3|0:0,0:0:0:0:
385,330,20545,102,0,L|257:318,1,128,4|0,0:3|0:0,0:0:0:0:
512,341,20884,1,8,0:3:0:0:
366,189,21054,2,0,L|429:194,1,64
458,225,21223,2,0,L|330:213,1,128,4|0,0:3|0:0,0:0:0:0:
202,200,21562,1,8,0:3:0:0:
20,328,21732,6,0,L|147:316,1,128,0|4,0:0|0:3,0:0:0:0:
274,302,22071,1,0,0:0:0:0:
128,95,22240,1,8,0:3:0:0:
75,212,22410,2,0,L|202:200,1,128,0|4,0:0|0:3,0:0:0:0:
383,72,22749,1,0,0:0:0:0:
329,188,22918,1,8,0:3:0:0:
402,292,23088,1,0,0:0:0:0:
256,84,23257,101,4,0:3:0:0:
457,177,23426,1,0,0:0:0:0:
275,305,23596,1,8,0:3:0:0:
329,188,23765,1,0,0:0:0:0:
202,200,23935,1,4,0:3:0:0:
402,292,24104,1,0,0:0:0:0:
383,73,24273,1,8,0:3:0:0:
275,305,24444,102,0,L|248:363,1,64
248,363,25969,102,0,P|181:374|123:350,1,128,4|0,0:3|0:0,0:0:0:0:
144,142,26477,2,0,P|187:193|196:255,1,128,4|0,0:3|0:0,0:0:0:0:
26,281,26986,2,0,P|48:257|75:241,1,64,0|0,0:0|0:0,0:0:0:0:
318,262,27325,2,0,P|251:273|193:249,1,128,0|4,0:0|0:3,0:0:0:0:
23,132,27833,2,0,P|89:120|147:144,2,128,0|0|0,0:0|0:0|0:0,0:0:0:0:
96,336,28681,6,0,P|159:359|221:345,1,128,4|0,0:3|0:0,0:0:0:0:
236,136,29189,2,0,P|184:179|165:239,1,128,4|0,0:3|0:0,0:0:0:0:
329,293,29698,2,0,P|311:266|287:245,1,64,0|0,0:0|0:0,0:0:0:0:
44,224,30037,2,0,P|107:247|169:233,1,128,0|4,0:0|0:3,0:0:0:0:
357,147,30545,2,0,P|294:124|232:138,2,128
384,312,31393,102,0,L|320:306,1,64,4|0,0:3|0:0,0:0:0:0:
491,270,31732,1,0,0:0:0:0:
287,319,31901,2,0,L|414:330,1,128,4|0,0:3|0:0,0:0:0:0:
491,270,32410,1,0,0:0:0:0:
390,139,32579,1,0,0:0:0:0:
296,227,32749,2,0,L|168:238,1,128,0|4,0:0|0:3,0:0:0:0:
96,135,33257,2,0,L|223:123,2,128,0|0|0,0:0|0:0|0:0,0:0:0:0:
32,309,34105,6,0,L|159:320,1,128,4|0,0:3|0:0,0:0:0:0:
232,215,34613,2,0,L|359:226,1,128,4|0,0:3|0:0,0:0:0:0:
414,147,35122,1,0,0:0:0:0:
319,133,35291,1,0,0:0:0:0:
449,235,35460,2,0,L|321:246,1,128,0|4,0:0|0:3,0:0:0:0:
223,142,35969,102,0,L|318:133,1,96,0|0,0:0|0:0,0:0:0:0:
258,232,36816,54,0,P|205:236|154:213,1,96.0000023437501,4|0,0:0|0:0,0:0:0:0:
350,243,37155,1,0,0:0:0:0:
295,317,37325,2,0,B|236:336|236:336|109:308,1,192.0000046875,4|0,0:3|0:0,0:0:0:0:
312,158,37833,2,0,P|342:199|350:243,1,96.0000023437501,8|0,0:3|0:0,0:0:0:0:
120,216,38172,5,4,0:3:0:0:
131,124,38342,1,4,0:3:0:0:
109,308,38511,1,8,0:3:0:0:
35,253,38681,2,0,B|15:194|15:194|44:64,1,192.0000046875,4|0,0:3|0:0,0:0:0:0:
194,271,39189,2,0,P|153:301|109:308,1,96.0000023437501,8|0,0:3|0:0,0:0:0:0:
282,134,39528,102,0,P|229:130|178:153,1,96.0000023437501,4|0,0:3|0:0,0:0:0:0:
374,123,39867,1,8,0:3:0:0:
319,49,40037,2,0,B|260:29|260:29|133:57,1,192.0000046875,4|0,0:3|0:0,0:0:0:0:
340,208,40545,2,0,P|371:162|374:123,1,96.0000023437501,8|0,0:3|0:0,0:0:0:0:
144,149,40884,5,4,0:3:0:0:
155,241,41054,1,4,0:3:0:0:
133,57,41223,1,8,0:3:0:0:
59,112,41393,2,0,B|39:171|39:171|68:301,1,192.0000046875,4|0,0:3|0:0,0:0:0:0:
218,93,41901,2,0,P|177:63|133:57,1,96.0000023437501,8|0,0:3|0:0,0:0:0:0:
413,169,42240,102,0,P|442:212|448:268,1,96.0000023437501,4|0,0:3|0:0,0:0:0:0:
376,83,42579,1,8,0:3:0:0:
321,158,42749,2,0,P|329:206|454:253,1,192.0000046875,4|0,0:3|0:0,0:0:0:0:
376,83,43257,1,8,0:3:0:0:
413,169,43427,1,0,0:0:0:0:
229,147,43596,5,4,0:3:0:0:
265,62,43766,1,4,0:3:0:0:
192,233,43935,1,8,0:3:0:0:
138,158,44105,2,0,P|144:112|265:62,1,192.0000046875,4|0,0:3|0:0,0:0:0:0:
192,233,44613,2,0,P|147:249|99:244,1,96.0000023437501,8|0,0:3|0:0,0:0:0:0:
321,158,44952,102,0,P|276:142|228:147,1,96.0000023437501,4|0,0:3|0:0,0:0:0:0:
413,169,45291,1,8,0:3:0:0:
467,93,45460,2,0,P|400:77|321:158,1,192.0000046875,4|0,0:3|0:0,0:0:0:0:
506,181,45969,1,8,0:3:0:0:
413,169,46138,1,0,0:0:0:0:
267,259,46308,5,4,0:3:0:0:
358,245,46477,1,4,0:3:0:0:
172,270,46647,1,8,0:3:0:0:
233,345,46816,2,0,P|261:306|267:259,1,96.0000023437501,4|0,0:3|0:0,0:0:0:0:
209,134,47155,54,0,L|203:70,2,64,0|8|0,0:0|0:3|0:0,0:0:0:0:
117,31,47664,101,4,0:0:0:0:
117,31,47833,2,0,L|276:17,1,160,4|0,0:3|0:0,0:0:0:0:
369,148,48342,2,0,L|209:134,1,160,8|0,0:3|0:0,0:0:0:0:
68,260,48850,2,0,L|147:253,1,80,4|0,0:3|0:0,0:0:0:0:
336,235,49189,1,4,0:3:0:0:
336,235,49359,2,0,L|256:228,1,80,4|0,0:3|0:0,0:0:0:0:
32,176,49698,2,0,L|111:169,1,80,8|0,0:3|0:0,0:0:0:0:
299,318,50037,2,0,L|219:311,1,80
208,134,50376,5,4,0:3:0:0:
208,134,50545,2,0,L|367:120,1,160,4|0,0:3|0:0,0:0:0:0:
507,226,51054,2,0,L|347:212,1,160,8|0,0:3|0:0,0:0:0:0:
188,275,51562,2,0,L|267:268,1,80,4|0,0:3|0:0,0:0:0:0:
397,373,51901,2,0,L|237:359,1,160,4|0,0:3|0:0,0:0:0:0:
188,196,52410,1,8,0:3:0:0:
188,196,52579,2,0,L|182:117,2,80,0|0|0,0:0|0:0|0:0,0:0:0:0:
98,78,53088,101,4,0:3:0:0:
98,78,53257,2,0,L|257:64,1,160,4|0,0:3|0:0,0:0:0:0:
348,210,53766,2,0,L|188:196,1,160,8|0,0:3|0:0,0:0:0:0:
96,362,54274,2,0,L|255:348,1,160,4|0,0:3|0:0,0:0:0:0:
428,217,54783,2,0,L|348:210,1,80,4|0,0:3|0:0,0:0:0:0:
100,281,55122,2,0,L|179:274,1,80,8|0,0:3|0:0,0:0:0:0:
335,355,55460,2,0,L|255:348,1,80,0|0,0:0|0:0,0:0:0:0:
74,198,55799,5,4,0:3:0:0:
74,198,55969,2,0,L|233:184,1,160,4|0,0:3|0:0,0:0:0:0:
390,71,56477,2,0,L|230:57,1,160,8|0,0:3|0:0,0:0:0:0:
346,188,56986,2,0,L|505:174,1,160,4|0,0:3|0:0,0:0:0:0:
384,296,57494,2,0,L|304:289,1,80,4|0,0:3|0:0,0:0:0:0:
161,204,57833,1,8,0:3:0:0:
161,204,58003,102,0,L|155:140,2,64,0|0|0,0:0|0:0|0:0,0:0:0:0:
241,77,58511,54,0,P|189:97|155:140,1,112.000001367188,4|0,0:0|0:0,0:0:0:0:
253,184,58850,1,8,0:3:0:0:
243,0,59020,2,0,P|140:38|76:128,1,224.000002734375,4|4,0:3|0:3,0:0:0:0:
116,309,59528,1,8,0:3:0:0:
253,184,59698,1,0,0:0:0:0:
44,229,59867,5,4,0:3:0:0:
220,286,60037,1,4,0:3:0:0:
182,105,60206,1,8,0:3:0:0:
149,208,60376,2,0,P|175:260|220:286,1,112.000001367188,4|0,0:3|0:0,0:0:0:0:
253,184,60715,1,4,0:3:0:0:
116,309,60884,2,0,P|175:312|220:286,1,112.000001367188,8|0,0:3|0:0,0:0:0:0:
182,105,61223,102,0,P|230:135|253:184,1,112.000001367188,4|0,0:3|0:0,0:0:0:0:
149,208,61562,1,8,0:3:0:0:
196,29,61732,2,0,P|288:87|332:188,1,224.000002734375,4|4,0:3|0:3,0:0:0:0:
256,358,62240,1,8,0:3:0:0:
149,208,62410,1,0,0:0:0:0:
343,295,62579,5,4,0:3:0:0:
159,314,62749,1,4,0:3:0:0:
233,146,62918,1,8,0:3:0:0:
246,252,63088,2,0,P|208:297|159:314,1,112.000001367188,4|0,0:3|0:0,0:0:0:0:
149,208,63427,1,4,0:3:0:0:
256,358,63596,2,0,P|197:348|159:314,1,112.000001367188,8|0,0:3|0:0,0:0:0:0:
294,92,63935,102,0,P|239:86|188:108,1,112.000001367188,4|0,0:3|0:0,0:0:0:0:
149,208,64274,1,8,0:3:0:0:
350,12,64444,2,0,B|209:5|209:5|122:50,1,224.000002734375,4|0,0:3|0:0,0:0:0:0:
256,192,64952,1,8,0:3:0:0:
294,92,65122,1,4,0:3:0:0:
321,276,65291,6,0,P|270:298|215:292,1,112.000001367188,4|0,0:3|0:0,0:0:0:0:
149,208,65630,1,8,0:3:0:0:
398,337,65800,2,0,B|265:385|265:385|169:367,1,224.000002734375,4|0,0:3|0:0,0:0:0:0:
256,192,66308,2,0,P|300:225|321:276,1,112.000001367188,8|0,0:3|0:0,0:0:0:0:
173,228,66647,5,8,0:3:0:0:
339,156,66816,1,4,0:3:0:0:
124,158,66986,5,8,0:3:0:0:
388,226,67155,1,4,0:3:0:0:
87,235,67325,101,8,0:3:0:0:
425,149,67494,1,4,0:3:0:0:
38,151,67664,5,8,0:3:0:0:
474,233,67833,1,4,0:3:0:0:
474,233,68003,1,0,0:0:0:0:
124,158,68172,101,4,0:3:0:0:
224,320,68342,1,4,0:3:0:0:
163,29,68511,1,4,0:3:0:0:
163,29,69698,37,0,0:0:0:0:
140,159,69867,1,0,0:0:0:0:
234,69,70037,101,2,0:3:0:0:
256,221,70206,1,2,0:3:0:0:
0,330,70545,22,0,P|63:322|118:289,1,128,4|0,0:0|0:0,0:0:0:0:
234,69,70884,1,4,0:3:0:0:
11,178,71054,1,8,0:3:0:0:
256,221,71223,1,0,0:0:0:0:
83,42,71393,1,4,0:3:0:0:
118,289,71562,2,0,P|157:339|213:369,1,128,4|8,0:3|0:3,0:0:0:0:
351,141,71901,6,0,P|312:191|256:221,1,128,4|0,0:3|0:0,0:0:0:0:
102,39,72240,2,0,P|165:46|219:79,1,128,4|8,0:3|0:3,0:0:0:0:
348,274,72579,1,0,0:0:0:0:
348,274,72664,1,0,0:0:0:0:
348,274,72749,1,4,0:3:0:0:
137,307,72918,2,0,P|113:248|114:184,1,128,4|8,0:3|0:3,0:0:0:0:
512,232,73257,102,0,P|483:176|432:129,1,128,4|0,0:3|0:0,0:0:0:0:
348,274,73596,1,4,0:3:0:0:
266,120,73766,1,8,0:3:0:0:
223,290,73935,2,0,P|286:292|348:274,1,128,0|4,0:0|0:3,0:0:0:0:
313,4,74274,2,0,P|279:56|266:120,1,128,4|8,0:3|0:3,0:0:0:0:
162,378,74613,6,0,P|114:339|86:275,1,128,4|0,0:3|0:0,0:0:0:0:
266,120,74952,1,4,0:3:0:0:
223,252,75122,1,8,0:3:0:0:
144,137,75291,1,0,0:0:0:0:
144,137,75376,1,0,0:0:0:0:
144,137,75460,2,0,P|201:114|271:122,1,128,4|4,0:3|0:3,0:0:0:0:
314,355,75799,2,0,P|351:303|361:240,1,128,8|0,0:3|0:0,0:0:0:0:
306,19,76138,102,0,L|433:8,1,128,4|0,0:3|0:0,0:0:0:0:
451,226,76477,1,8,0:3:0:0:
378,122,76647,1,4,0:3:0:0:
505,110,76816,1,0,0:0:0:0:
324,237,76986,2,0,L|196:248,1,128,0|8,0:0|0:3,0:0:0:0:
144,133,77325,1,4,0:3:0:0:
144,133,77410,1,0,0:0:0:0:
144,133,77494,5,4,0:3:0:0:
217,28,77664,1,0,0:0:0:0:
16,121,77833,1,8,0:3:0:0:
69,237,78003,2,0,L|196:248,1,128,4|0,0:3|0:0,0:0:0:0:
144,133,78342,1,0,0:0:0:0:
123,352,78511,2,0,L|250:363,1,128,8|0,0:3|0:0,0:0:0:0:
237,126,78850,37,8,0:3:0:0:
365,282,79020,2,0,L|370:218,1,64,4|4,0:3|0:3,0:0:0:0:
384,58,79189,5,8,0:3:0:0:
203,312,79359,2,0,L|195:227,1,64,4|4,0:3|0:3,0:0:0:0:
177,13,79528,101,8,0:3:0:0:
475,148,79698,1,4,0:3:0:0:
110,121,79867,5,8,0:3:0:0:
508,25,80037,1,4,0:3:0:0:
49,8,80376,21,4,0:3:0:0:
357,378,80715,102,0,L|365:282,1,96,4|0,0:3|0:0,0:0:0:0:
510,40,81393,22,0,P|447:48|392:81,1,128,4|0,0:0|0:0,0:0:0:0:
276,301,81732,1,4,0:3:0:0:
499,192,81902,1,8,0:3:0:0:
254,149,82071,1,0,0:0:0:0:
427,328,82241,1,4,0:3:0:0:
392,81,82410,2,0,P|353:31|297:1,1,128,4|8,0:3|0:3,0:0:0:0:
159,229,82749,6,0,P|198:179|254:149,1,128,4|0,0:3|0:0,0:0:0:0:
408,331,83088,2,0,P|345:324|291:291,1,128,4|8,0:3|0:3,0:0:0:0:
118,63,83427,1,0,0:0:0:0:
118,63,83511,1,0,0:0:0:0:
118,63,83597,1,4,0:3:0:0:
373,63,83766,2,0,P|397:122|396:186,1,128,4|8,0:3|0:3,0:0:0:0:
118,63,84105,102,0,P|140:122|190:161,1,128,4|0,0:3|0:0,0:0:0:0:
396,185,84444,1,4,0:3:0:0:
244,46,84613,1,8,0:3:0:0:
285,249,84783,1,0,0:0:0:0:
373,63,84952,1,4,0:3:0:0:
190,161,85122,2,0,P|150:211|141:273,1,128,4|8,0:3|0:3,0:0:0:0:
466,123,85460,6,0,P|456:184|414:240,1,128,4|0,0:3|0:0,0:0:0:0:
190,161,85799,1,4,0:3:0:0:
326,133,85969,1,8,0:3:0:0:
266,258,86138,1,0,0:0:0:0:
266,258,86223,1,0,0:0:0:0:
266,258,86307,2,0,P|217:220|189:155,1,128,4|4,0:3|0:3,0:0:0:0:
369,1,86647,2,0,P|305:-5|245:17,1,128,8|0,0:3|0:0,0:0:0:0:
266,258,86986,101,4,0:3:0:0:
394,247,87156,1,0,0:0:0:0:
339,362,87325,1,8,0:3:0:0:
320,143,87494,2,0,L|447:132,1,128,4|0,0:3|0:0,0:0:0:0:
394,247,87833,2,0,L|266:258,1,128,0|8,0:0|0:3,0:0:0:0:
214,143,88172,1,4,0:3:0:0:
214,143,88257,1,0,0:0:0:0:
214,143,88342,5,4,0:3:0:0:
287,38,88512,1,0,0:0:0:0:
86,131,88681,1,8,0:3:0:0:
31,15,88851,2,0,L|158:26,1,128,4|0,0:3|0:0,0:0:0:0:
214,143,89190,1,0,0:0:0:0:
414,49,89359,2,0,L|287:38,1,128,8|0,0:3|0:0,0:0:0:0:
177,220,89698,37,8,0:3:0:0:
335,164,89867,1,4,0:3:0:0:
128,150,90037,5,8,0:3:0:0:
384,234,90206,1,4,0:3:0:0:
91,227,90376,101,8,0:3:0:0:
421,157,90545,1,4,0:3:0:0:
42,143,90715,5,8,0:3:0:0:
470,241,90884,1,4,0:3:0:0:
5,234,91223,5,4,0:3:0:0:
313,0,91393,1,4,0:3:0:0:
359,384,91562,2,0,L|263:375,1,96,4|0,0:3|0:0,0:0:0:0:
75,37,92240,22,0,B|202:48,1,128,4|0,0:0|0:0,0:0:0:0:
329,60,92579,1,4,0:3:0:0:
256,164,92749,1,8,0:3:0:0:
202,48,92918,1,0,0:0:0:0:
383,177,93088,1,4,0:3:0:0:
129,153,93257,2,0,L|1:142,1,128,4|8,0:3|0:3,0:0:0:0:
75,292,93596,6,0,L|202:280,1,128,4|0,0:3|0:0,0:0:0:0:
329,268,93935,1,4,0:3:0:0:
256,164,94105,1,8,0:3:0:0:
202,280,94274,1,0,0:0:0:0:
383,151,94444,1,4,0:3:0:0:
129,175,94613,1,4,0:3:0:0:
329,268,94783,1,8,0:3:0:0:
202,24,94952,102,0,B|329:35,1,128,4|0,0:3|0:0,0:0:0:0:
456,47,95291,1,4,0:3:0:0:
383,151,95461,1,8,0:3:0:0:
329,35,95630,1,0,0:0:0:0:
510,164,95800,1,4,0:3:0:0:
256,140,95969,2,0,L|128:129,1,128,4|8,0:3|0:3,0:0:0:0:
202,280,96308,6,0,L|329:268,1,128,4|0,0:3|0:0,0:0:0:0:
456,256,96647,1,4,0:3:0:0:
383,151,96817,1,8,0:3:0:0:
329,268,96986,1,0,0:0:0:0:
510,139,97155,1,4,0:3:0:0:
256,164,97325,1,4,0:3:0:0:
402,371,97495,1,8,0:3:0:0:
75,37,97664,102,0,B|202:48,1,128,4|0,0:0|0:0,0:0:0:0:
329,60,98003,1,4,0:3:0:0:
256,164,98173,1,8,0:3:0:0:
202,48,98342,1,0,0:0:0:0:
383,177,98512,1,4,0:3:0:0:
129,153,98681,1,4,0:3:0:0:
329,60,98850,2,0,L|457:71,1,128,8|0,0:3|0:0,0:0:0:0:
151,265,99189,5,4,0:3:0:0:
372,246,99358,1,4,0:3:0:0:
245,64,99528,2,0,L|256:192,1,128,8|0,0:3|0:0,0:0:0:0:
120,111,99867,1,4,0:3:0:0:
376,88,100037,1,4,0:3:0:0:
267,319,100206,2,0,L|256:192,1,128,8|0,0:3|0:0,0:0:0:0:
377,0,100545,37,8,0:3:0:0:
256,192,100715,1,0,0:0:0:0:
16,16,100884,5,8,0:3:0:0:
311,288,101054,1,0,0:0:0:0:
496,16,101223,101,8,0:3:0:0:
201,288,101393,1,0,0:0:0:0:
135,0,101562,5,8,0:3:0:0:
256,384,101732,1,0,0:0:0:0:
368,25,101901,101,8,0:3:0:0:
350,52,101986,1,4,0:3:0:0:
332,78,102071,2,0,L|296:131,1,64,4|4,0:3|0:3,0:0:0:0:
315,313,102240,2,0,L|287:256,1,64,4|4,0:3|0:3,0:0:0:0:
119,181,102410,2,0,L|183:186,1,64,4|4,0:3|0:3,0:0:0:0:
390,200,102579,6,0,L|423:202,2,32,8|4|4,0:3|0:3|0:3,0:0:0:0:
196,70,102749,2,0,L|182:41,2,32,8|4|4,0:3|0:3|0:3,0:0:0:0:
179,305,102918,2,0,L|161:331,2,32,8|4|4,0:3|0:3|0:3,0:0:0:0:
332,78,103088,6,0,L|368:25,1,64,4|4,0:0|0:3,0:0:0:0:
