osu file format v14

[General]
AudioFilename: audio.mp3
AudioLeadIn: 0
PreviewTime: 69527
Countdown: 0
SampleSet: Soft
StackLeniency: 0.7
Mode: 0
LetterboxInBreaks: 0
WidescreenStoryboard: 0

[Editor]
DistanceSpacing: 1
BeatDivisor: 4
GridSize: 16
TimelineZoom: 0.7000004

[Metadata]
Title:Amadeus
TitleUnicode:アマデウス
Artist:Ito Kanako
ArtistUnicode:いとうかなこ
Creator:Toyosaki Aki
Version:Normal
Source:STEINS;GATE 0
Tags:Toooooon Homura- Scaltinof Aramaking RepL4y Silky kanau mamayu fuyuyu- dkblaze Itou シュタインズ・ゲート ゼロ 5pb. Japanese Video game
BeatmapID:1890981
BeatmapSetID:906108

[Difficulty]
HPDrainRate:4
CircleSize:3.2
OverallDifficulty:5
ApproachRate:5
SliderMultiplier:1.1
SliderTickRate:1

[Events]
//Background and Video events
0,0,"bg.jpg",0,0
//Break Periods
//Storyboard Layer 0 (Background)
//Storyboard Layer 1 (Fail)
//Storyboard Layer 2 (Pass)
//Storyboard Layer 3 (Foreground)
//Storyboard Sound Samples

[TimingPoints]
205,338.983050847458,4,2,3,60,1,0
15120,-100,4,2,3,70,0,0
25967,-100,4,2,4,60,0,0
36815,-100,4,2,3,60,0,0
47662,-100,4,2,3,50,0,0
58510,-100,4,2,3,60,0,0
66645,-100,4,2,3,70,0,0
69357,-100,4,2,3,40,0,0
70035,-100,4,2,3,70,0,0
70543,-100,4,2,3,70,0,1
91560,-100,4,2,3,70,0,0

[Colours]
Combo1 : 241,146,58
Combo2 : 0,128,192

[HitObjects]
65,263,13764,6,0,B|118:250,1,55,0|0,3:0|3:0,0:0:0:0:
171,262,14103,2,0,P|179:316|185:370,2,110,10|8|8,0:0|0:0|0:0,0:0:0:0:
145,154,15120,6,0,B|175:132|175:132|244:152,1,110,6|8,3:2|3:2,0:0:0:0:
281,194,15628,1,2,0:0:0:0:
381,151,15967,1,2,0:0:0:0:
465,221,16306,2,0,P|456:275|450:329,2,110,2|2|2,0:0|0:0|0:0,0:0:0:0:
501,179,17154,2,0,L|485:126,1,55,0|2,3:0|0:0,0:0:0:0:
461,76,17493,1,8,3:2:0:0:
381,151,17832,6,0,P|329:164|282:137,1,110,0|8,3:0|3:2,0:0:0:0:
262,86,18340,1,2,0:0:0:0:
162,132,18679,2,0,L|108:119,2,55,2|8|2,0:0|3:2|0:0,0:0:0:0:
199,172,19188,2,0,B|223:220|223:220|206:273,1,110,0|8,3:0|3:2,0:0:0:0:
111,329,19866,2,0,B|87:281|87:281|103:227,1,110,0|8,3:0|3:2,0:0:0:0:
206,273,20543,6,0,B|250:294|289:274|289:274|331:254|371:275,2,165,4|2|8,3:2|0:0|3:2,0:0:0:0:
196,218,21730,2,0,P|206:163|215:109,1,110,2|2,0:0|0:0,0:0:0:0:
204,55,22238,1,8,3:2:0:0:
308,21,22577,2,0,P|336:26|362:31,1,55,0|2,3:0|0:0,0:0:0:0:
394,77,22916,2,0,P|420:71|447:66,1,55,8|2,3:2|0:0,0:0:0:0:
491,33,23255,5,0,3:0:0:0:
479,142,23594,1,8,3:2:0:0:
466,250,23933,2,0,P|476:276|487:302,2,55,0|2|10,3:0|0:0|3:2,0:0:0:0:
423,217,24442,1,6,0:0:0:0:
165,315,25967,6,0,P|147:240|70:227,2,165,2|2|0,3:2|3:2|0:0,0:0:0:0:
267,357,27323,2,0,P|320:344|375:337,1,110,0|8,0:0|3:2,0:0:0:0:
440,248,28001,1,8,0:0:0:0:
332,228,28340,1,8,0:0:0:0:
268,136,28679,6,0,P|222:203|234:283,2,165,2|2|0,3:2|3:2|0:0,0:0:0:0:
378,134,30035,2,0,B|428:142|428:142|483:119,1,110,0|0,0:0|3:0,0:0:0:0:
413,34,30713,1,8,0:0:0:0:
303,32,31052,1,8,0:0:0:0:
268,136,31391,6,0,P|208:85|137:117,1,165,2|2,3:2|3:2,0:0:0:0:
43,173,32238,2,0,P|34:145|24:121,2,55,0|0|0,0:0|0:0|0:0,0:0:0:0:
86,206,32747,1,0,0:0:0:0:
80,315,33086,1,0,3:0:0:0:
80,315,33255,2,0,P|154:343|211:290,1,165,0|8,0:0|0:0,0:0:0:0:
222,181,34103,6,0,B|283:191|283:191|317:231|317:231|365:236,2,165,2|2|0,3:2|3:2|0:0,0:0:0:0:
121,134,35459,2,0,P|129:80|140:22,1,110,0|0,0:0|3:0,0:0:0:0:
241,72,36137,2,0,P|231:126|222:180,1,110,2|2,0:0|0:0,0:0:0:0:
138,253,36815,6,0,P|104:294|113:346,1,110,6|8,3:2|0:0,0:0:0:0:
166,364,37323,2,0,P|221:359|337:345,1,165,2|10,3:2|0:0,0:0:0:0:
405,266,38171,2,0,P|416:292|423:319,2,55,2|0|8,3:2|3:0|0:0,0:0:0:0:
371,223,38679,2,0,P|374:168|381:113,1,110,0|0,3:0|0:0,0:0:0:0:
414,69,39188,1,10,0:0:0:0:
309,33,39527,6,0,P|257:42|238:91,1,110,0|10,3:0|0:0,0:0:0:0:
272,132,40035,2,0,P|262:214|249:296,1,165,0|10,3:0|0:0,0:0:0:0:
144,265,40882,2,0,L|89:274,2,55,2|0|8,3:2|3:0|0:0,0:0:0:0:
161,212,41391,2,0,P|163:159|124:123,1,110,2|0,3:2|0:0,0:0:0:0:
69,113,41899,1,10,0:0:0:0:
125,18,42238,6,0,L|234:26,1,110,2|10,3:2|0:0,0:0:0:0:
276,62,42747,2,0,L|385:54,1,110,0|0,3:0|0:0,0:0:0:0:
433,27,43255,1,10,0:0:0:0:
426,136,43594,1,2,3:2:0:0:
426,136,43764,2,0,L|417:193,1,55,0|8,3:0|0:0,0:0:0:0:
424,244,44103,2,0,P|371:231|322:254,1,110,2|0,3:2|0:0,0:0:0:0:
308,307,44611,1,10,0:0:0:0:
222,238,44950,6,0,P|140:249|58:262,2,165,2|0|8,3:2|3:0|0:0,0:0:0:0:
293,154,46306,1,2,3:2:0:0:
293,154,46476,2,0,L|282:91,1,55,0|10,3:0|0:0,0:0:0:0:
272,45,46815,2,0,B|213:55|213:55|184:90|184:90|125:101,1,165,2|10,3:2|0:0,0:0:0:0:
73,197,47662,6,0,P|126:197|156:241,1,110,4|0,3:2|0:0,0:0:0:0:
137,349,48340,2,0,P|191:342|308:322,1,165,8|0,0:0|3:0,0:0:0:0:
393,187,49357,2,0,P|437:214|451:266,2,110,0|8|2,3:0|0:0|0:0,0:0:0:0:
287,223,50374,6,0,P|296:168|312:116,1,110,0|0,3:0|0:0,0:0:0:0:
303,61,50882,2,0,P|238:30|195:117,1,165,2|2,0:0|0:0,0:0:0:0:
180,149,51560,2,0,P|115:125|51:112,2,110,0|0|0,3:0|3:0|0:0,0:0:0:0:
208,196,52408,1,8,0:0:0:0:
144,285,52747,1,2,0:0:0:0:
232,350,53086,6,0,P|291:337|365:327,1,110,0|0,3:0|0:0,0:0:0:0:
430,267,53764,2,0,P|402:195|326:206,1,165,8|0,0:0|3:0,0:0:0:0:
161,199,54781,2,0,P|108:186|54:178,2,110,0|8|2,3:0|0:0|0:0,0:0:0:0:
262,154,55798,6,0,L|251:44,1,110,0|0,3:0|0:0,0:0:0:0:
287,3,56306,2,0,P|340:4|366:100,1,165,2|2,0:0|0:0,0:0:0:0:
349,149,56984,2,0,P|339:232|328:318,1,165,0|0,3:0|3:0,0:0:0:0:
231,363,57832,1,8,0:0:0:0:
24,286,58510,6,0,P|74:303|118:273,1,110,4|8,3:2|0:0,0:0:0:0:
148,226,59018,2,0,L|135:116,1,110,0|0,3:0|3:0,0:0:0:0:
126,62,59527,1,8,0:0:0:0:
234,81,59866,2,0,L|240:135,2,55,2|0|8,3:2|3:0|0:0,0:0:0:0:
258,32,60374,2,0,P|313:20|368:43,1,110,2|2,3:2|3:2,0:0:0:0:
386,88,60882,1,10,0:0:0:0:
363,195,61221,6,0,L|373:306,1,110,0|8,3:0|0:0,0:0:0:0:
375,360,61730,2,0,P|328:333|268:339,1,110,0|2,3:0|3:2,0:0:0:0:
229,369,62238,1,10,0:0:0:0:
153,289,62577,1,2,3:2:0:0:
153,289,62747,2,0,L|162:231,1,55,0|8,3:0|0:0,0:0:0:0:
152,178,63086,2,0,P|206:196|268:162,1,110,2|0,3:2|3:0,0:0:0:0:
295,139,63594,1,8,0:0:0:0:
201,82,63933,6,0,P|152:64|95:95,1,110,6|8,3:2|0:0,0:0:0:0:
59,122,64442,2,0,L|71:232,1,110,2|0,3:2|0:0,0:0:0:0:
160,312,65120,1,0,3:0:0:0:
160,312,65289,2,0,L|149:375,2,55,6|0|8,3:2|0:0|0:0,0:0:0:0:
163,256,65798,2,0,P|216:247|269:282,1,110,2|0,3:2|0:0,0:0:0:0:
285,325,66306,1,8,0:0:0:0:
393,304,66645,5,12,0:0:0:0:
373,195,66984,1,8,0:0:0:0:
353,86,67323,2,0,L|341:19,2,55,8|0|2,0:0|3:0|3:2,0:0:0:0:
313,124,67832,2,0,P|258:114|204:108,1,110,12|8,3:2|3:2,0:0:0:0:
167,66,68340,2,0,L|113:77,1,55,8|12,3:2|3:2,0:0:0:0:
47,321,69696,6,0,P|98:334|140:302,1,110,2|2,3:1|0:1,0:0:0:0:
143,246,70205,1,2,0:1:0:0:
59,174,70543,6,0,L|72:64,1,110,4|2,3:2|3:2,0:0:0:0:
117,31,71052,1,8,0:0:0:0:
201,100,71391,1,0,3:0:0:0:
201,100,71560,2,0,L|255:91,1,55,2|8,3:2|0:0,0:0:0:0:
296,54,71899,2,0,P|351:65|404:79,1,110,2|2,3:2|3:2,0:0:0:0:
467,168,72577,2,0,P|412:179|359:193,1,110,2|2,0:0|3:2,0:0:0:0:
284,273,73255,6,0,P|225:286|174:255,1,110,2|2,3:2|3:2,0:0:0:0:
158,214,73764,1,8,0:0:0:0:
48,208,74103,2,0,L|35:263,2,55,0|2|8,3:0|3:2|0:0,0:0:0:0:
87,169,74611,2,0,P|83:114|78:59,1,110,2|2,3:2|3:2,0:0:0:0:
118,21,75120,1,8,0:0:0:0:
118,21,75289,2,0,P|196:20|225:63,1,110,2|2,0:0|3:2,0:0:0:0:
238,87,75798,2,0,P|291:74|345:63,1,110,8|4,0:0|3:2,0:0:0:0:
446,93,76476,6,0,L|506:106,2,55,8|2|0,0:0|3:2|0:0,0:0:0:0:
406,131,76984,2,0,L|417:240,1,110,2|2,0:0|3:2,0:0:0:0:
394,290,77493,1,0,3:0:0:0:
303,226,77832,1,8,0:0:0:0:
303,226,78001,2,0,P|249:237|196:253,1,110,2|2,3:2|0:0,0:0:0:0:
156,291,78510,1,8,0:0:0:0:
78,212,78849,5,12,3:2:0:0:
166,146,79188,1,8,0:0:0:0:
122,44,79527,2,0,L|68:29,2,55,8|0|8,0:0|3:0|0:0,0:0:0:0:
175,56,80035,2,0,P|228:44|283:35,1,110,12|12,0:0|3:2,0:0:0:0:
333,58,80543,2,0,L|322:111,1,55,0|12,3:0|0:0,0:0:0:0:
310,165,80882,1,2,0:0:0:0:
310,165,81052,1,2,0:0:0:0:
394,236,81391,6,0,P|419:282|390:326,1,110,6|2,3:2|3:2,0:0:0:0:
337,341,81899,1,8,0:0:0:0:
240,289,82238,1,0,3:0:0:0:
240,289,82408,2,0,P|213:294|186:299,1,55,2|8,3:2|0:0,0:0:0:0:
139,270,82747,2,0,P|154:211|174:152,1,110,2|2,3:2|3:2,0:0:0:0:
222,67,83425,2,0,P|267:94|279:146,1,110,2|2,0:0|3:2,0:0:0:0:
169,164,84103,6,0,P|114:154|60:147,1,110,2|2,3:2|3:2,0:0:0:0:
30,100,84611,1,8,0:0:0:0:
118,35,84950,1,0,3:0:0:0:
118,35,85120,2,0,P|145:36|170:46,1,55,2|8,3:2|0:0,0:0:0:0:
216,77,85459,2,0,L|325:62,1,110,2|2,3:2|3:2,0:0:0:0:
367,26,85967,1,8,0:0:0:0:
367,26,86137,2,0,P|445:56|440:148,1,165,2|8,0:0|0:0,0:0:0:0:
388,218,86984,6,0,L|406:282,2,55,4|0|8,3:2|0:0|0:0,0:0:0:0:
354,172,87493,2,0,P|326:177|300:185,1,55,2|0,3:2|0:0,0:0:0:0:
251,210,87832,2,0,P|223:204|197:197,1,55,2|8,0:0|0:0,0:0:0:0:
154,162,88171,1,2,3:2:0:0:
154,162,88340,2,0,L|168:109,2,55,0|2|8,3:0|0:0|0:0,0:0:0:0:
106,190,88849,2,0,P|118:243|129:297,1,110,2|2,3:2|0:0,0:0:0:0:
112,350,89357,1,8,0:0:0:0:
214,310,89696,6,0,P|240:315|267:322,1,55,12|2,0:0|3:2,0:0:0:0:
313,353,90035,2,0,P|339:347|366:340,1,55,8|2,0:0|3:2,0:0:0:0:
408,304,90374,2,0,P|435:309|461:315,2,55,8|2|8,0:0|3:2|0:0,0:0:0:0:
382,255,90882,2,0,P|388:201|398:147,1,110,14|2,0:0|3:2,0:0:0:0:
426,99,91391,2,0,L|414:36,1,55,10|6,3:2|3:2,0:0:0:0:
196,25,92238,6,0,P|143:29|114:74,1,110,4|2,3:2|3:2,0:0:0:0:
136,125,92747,1,8,0:0:0:0:
179,226,93086,2,0,L|162:284,2,55,0|2|8,3:0|3:2|0:0,0:0:0:0:
212,181,93594,2,0,P|266:174|321:167,1,110,2|2,3:2|3:2,0:0:0:0:
367,196,94103,1,8,0:0:0:0:
445,119,94442,2,0,P|435:93|422:68,2,55,0|2|8,3:0|3:2|0:0,0:0:0:0:
477,164,94950,6,0,P|471:218|465:273,1,110,2|2,3:2|3:2,0:0:0:0:
437,320,95459,1,8,0:0:0:0:
337,273,95798,1,0,3:0:0:0:
337,273,95967,2,0,L|283:284,1,55,2|8,3:2|0:0,0:0:0:0:
244,323,96306,2,0,P|190:321|153:282,1,110,2|2,3:2|3:2,0:0:0:0:
169,229,96815,1,8,0:0:0:0:
127,127,97154,1,0,3:0:0:0:
127,127,97323,2,0,P|134:100|142:74,1,55,2|8,3:2|0:0,0:0:0:0:
187,42,97662,6,0,P|240:42|278:80,1,110,6|2,3:2|3:2,0:0:0:0:
283,135,98171,1,8,0:0:0:0:
389,161,98510,2,0,L|449:150,2,55,0|2|8,3:0|3:2|0:0,0:0:0:0:
353,203,99018,2,0,P|337:255|328:309,1,110,2|2,0:0|3:2,0:0:0:0:
353,358,99527,1,8,0:0:0:0:
245,333,99866,1,0,3:0:0:0:
245,333,100035,2,0,P|217:336|190:342,1,55,2|8,3:2|0:0,0:0:0:0:
138,358,100374,6,0,P|84:345|30:333,1,110,2|2,0:0|0:0,0:0:0:0:
9,282,100882,1,8,3:2:0:0:
79,197,101221,1,8,3:2:0:0:
40,93,101560,1,8,3:2:0:0:
131,32,101899,2,0,P|159:36|185:42,1,55,4|8,3:2|3:2,0:0:0:0:
233,71,102238,2,0,P|259:65|286:60,1,55,0|8,3:0|3:2,0:0:0:0:
334,33,102577,2,0,P|378:63|379:116,1,110,14|10,3:2|3:2,0:0:0:0:
340,155,103086,1,12,3:2:0:0:
