osu file format v14

[General]
AudioFilename: audio.mp3
AudioLeadIn: 0
PreviewTime: 68976
Countdown: 0
SampleSet: Soft
StackLeniency: 0.7
Mode: 2
LetterboxInBreaks: 0
WidescreenStoryboard: 1

[Editor]
DistanceSpacing: 1.2
BeatDivisor: 4
GridSize: 8
TimelineZoom: 1.9

[Metadata]
Title:Amadeus
TitleUnicode:アマデウス
Artist:Ito Kanako
ArtistUnicode:いとうかなこ
Creator:Secre
Version:Rain
Source:STEINS;GATE 0
Tags:chickenbible シュタインズ・ゲート ゼロ steins gate makise kurisu okabe rintarou rintaro itou video game japanese anime 5pb. Nitroplus visual novel Science Adventure SciADV
BeatmapID:2962645
BeatmapSetID:1439322

[Difficulty]
HPDrainRate:5
CircleSize:3.9
OverallDifficulty:9
ApproachRate:9
SliderMultiplier:1.75
SliderTickRate:2

[Events]
//Background and Video events
0,0,"amelia watson be like.png",0,0
//Break Periods
2,191379,194647
//Storyboard Layer 0 (Background)
//Storyboard Layer 1 (Fail)
//Storyboard Layer 2 (Pass)
//Storyboard Layer 3 (Foreground)
//Storyboard Layer 4 (Overlay)
//Storyboard Sound Samples

[TimingPoints]
1533,334.261838440112,4,2,1,35,1,0
2535,300,4,2,1,35,1,0
2685,333.333333333333,4,2,1,35,1,0
2851,342.857142857143,4,2,1,35,1,0
3365,347.826086956522,4,2,1,35,1,0
3886,267.857142857143,4,2,1,35,1,0
4019,365.853658536585,4,2,1,35,1,0
4201,370.37037037037,4,2,1,35,1,0
4756,324.324324324324,4,2,1,35,1,0
5242,352.941176470588,4,2,1,35,1,0
5947,333.333333333333,4,2,1,35,1,0
6613,315.789473684211,4,2,1,35,1,0
6770,255.31914893617,4,2,1,35,1,0
6897,375,4,2,1,35,1,0
7459,317.460317460317,4,2,1,35,1,0
7935,375,4,2,1,35,1,0
8310,382.165605095541,4,2,1,35,1,0
8965,350.877192982456,4,2,1,35,1,0
9228,331.491712707182,4,2,1,35,1,0
9435,428.571428571429,4,2,1,35,1,0
9649,331.491712707182,4,2,1,35,1,0
10146,352.941176470588,4,2,1,35,1,0
10675,292.682926829268,4,2,1,35,1,0
11114,320.855614973262,4,2,1,35,1,0
11274,306.122448979592,4,2,1,35,1,0
13722,338.983050847458,4,2,1,65,1,0
25925,-100,4,2,1,45,0,0
36772,-100,4,2,1,55,0,0
47620,-100,4,2,1,65,0,0
70501,-100,4,2,1,80,0,1
92196,-100,4,2,1,65,0,0
103213,-100,4,2,1,55,0,0
114060,-100,4,2,1,45,0,0
124908,-100,4,2,1,55,0,0
135755,-100,4,2,1,65,0,0
147789,-100,4,2,1,80,0,1
169484,-100,4,2,1,65,0,0
180332,-100,4,2,1,75,0,0
191179,-100,4,2,1,55,0,0
202027,-100,4,2,1,80,0,1
212874,-100,4,2,1,65,0,0
223891,-100,4,2,1,75,0,0

[Colours]
Combo1 : 205,53,27
Combo2 : 243,210,141
Combo3 : 126,191,226

[HitObjects]
145,170,1533,5,2,0:0:0:0:
372,174,2535,2,0,L|380:71,1,87.5,2|2,0:0|0:0,0:0:0:0:
220,148,2851,6,0,P|175:109|238:36,1,175,2|0,0:0|0:0,0:0:0:0:
332,55,3365,1,2,0:0:0:0:
140,166,3886,2,0,L|247:166,1,87.5,2|2,0:0|0:0,0:0:0:0:
401,249,4201,6,0,P|455:215|390:139,1,175,2|0,0:0|0:0,0:0:0:0:
287,137,4756,1,2,0:0:0:0:
106,137,5242,1,2,0:0:0:0:
307,182,5594,5,2,0:0:0:0:
55,249,5947,2,0,P|17:223|178:91,1,350,2|2,0:0|0:0,0:0:0:0:
78,98,6770,1,2,0:0:0:0:
208,216,6897,6,0,P|261:189|186:125,1,175,2|0,0:0|0:0,0:0:0:0:
117,152,7459,2,0,L|313:152,1,175,2|0,0:0|0:0,0:0:0:0:
168,238,7935,2,0,L|166:139,1,87.5,2|0,0:0|0:0,0:0:0:0:
330,181,8310,6,0,P|377:136|311:69,1,175,2|0,0:0|0:0,0:0:0:0:
126,180,8965,2,0,L|280:181,1,131.25,2|2,0:0|0:0,0:0:0:0:
177,107,9435,1,2,0:0:0:0:
290,275,9649,6,0,P|337:241|261:165,1,175,2|0,0:0|0:0,0:0:0:0:
189,174,10146,2,0,L|395:172,1,175,2|0,0:0|0:0,0:0:0:0:
271,274,10675,6,0,P|192:246|276:141,1,262.5,2|2,0:0|0:0,0:0:0:0:
317,143,11194,1,2,0:0:0:0:
270,139,11274,5,2,0:0:0:0:
256,192,11580,12,0,13416,0:0:0:0:
118,209,13722,6,0,L|111:91,1,87.5,0|0,3:0|3:0,0:0:0:0:
380,138,14060,2,0,L|387:27,1,87.5,8|0,0:0|3:0,0:0:0:0:
132,154,14399,1,8,0:0:0:0:
94,130,14483,1,0,0:0:0:0:
94,86,14568,1,8,0:0:0:0:
133,64,14653,1,8,0:0:0:0:
284,81,14738,2,0,L|344:81,1,43.75,8|8,0:0|0:0,0:0:0:0:
242,155,14908,2,0,L|187:158,1,43.75,8|8,0:0|0:0,0:0:0:0:
361,228,15077,6,0,P|405:202|343:120,1,175,12|8,0:0|0:0,0:0:0:0:
204,187,15586,2,0,L|397:187,1,175
293,127,16094,1,8,0:0:0:0:
136,190,16264,6,0,L|131:95,1,87.5,0|0,0:0|3:0,0:0:0:0:
286,89,16603,2,0,L|293:-6,1,87.5,0|8,0:0|0:0,0:0:0:0:
138,157,16942,2,0,L|347:155,1,175
222,218,17450,2,0,L|328:217,1,87.5,8|0,0:0|0:0,0:0:0:0:
75,273,17789,6,0,P|26:242|100:172,1,175,0|8,3:0|0:0,0:0:0:0:
242,167,18298,2,0,L|49:168,1,175
223,230,18806,2,0,L|234:134,1,87.5,8|0,0:0|0:0,0:0:0:0:
147,121,19145,5,0,3:0:0:0:
296,132,19315,2,0,L|296:14,1,87.5,0|8,0:0|0:0,0:0:0:0:
145,91,19654,2,0,L|139:-4,1,87.5,0|0,0:0|3:0,0:0:0:0:
291,27,19993,1,0,0:0:0:0:
143,88,20162,2,0,L|35:87,1,87.5,8|0,0:0|0:0,0:0:0:0:
304,220,20501,6,0,P|351:192|287:108,1,175,0|8,3:0|0:0,0:0:0:0:
158,162,21010,2,0,L|352:158,1,175
242,104,21518,1,8,0:0:0:0:
89,104,21688,6,0,L|87:3,1,87.5,0|0,0:0|3:0,0:0:0:0:
240,38,22027,2,0,L|359:39,1,87.5,0|8,0:0|0:0,0:0:0:0:
178,220,22366,2,0,P|122:174|204:103,1,175
318,110,22874,2,0,L|422:108,1,87.5,8|0,0:0|0:0,0:0:0:0:
154,237,23213,5,0,3:0:0:0:
78,203,23382,1,0,0:0:0:0:
78,121,23551,1,8,0:0:0:0:
154,89,23721,1,0,0:0:0:0:
311,124,23891,2,0,L|316:8,1,87.5,0|0,3:0|0:0,0:0:0:0:
154,89,24230,1,8,0:0:0:0:
411,87,24399,5,2,0:0:0:0:
256,192,24569,12,0,25586,0:0:0:0:
326,186,25925,6,0,L|124:185,1,175,0|0,3:0|0:0,0:0:0:0:
237,273,26433,2,0,P|296:237|223:187,1,175,0|0,3:0|0:0,0:0:0:0:
148,178,26942,2,0,L|141:58,1,87.5
309,119,27281,6,0,L|210:116,2,87.5,2|0|0,0:0|0:0|3:0,0:0:0:0:
155,258,27789,2,0,P|106:227|172:158,1,175,2|0,0:0|0:0,0:0:0:0:
251,157,28298,2,0,L|153:154,1,87.5
404,290,28637,6,0,P|459:261|392:204,1,175,2|2,3:0|0:0,0:0:0:0:
314,212,29145,2,0,L|494:207,1,175,0|2,3:0|0:0,0:0:0:0:
398,147,29654,2,0,L|493:145,1,87.5,2|2,0:0|0:0,0:0:0:0:
326,191,29993,6,0,L|219:195,2,87.5,2|0|0,0:0|0:0|3:0,0:0:0:0:
181,282,30501,2,0,P|133:260|204:187,1,175,2|0,0:0|0:0,0:0:0:0:
267,177,31010,2,0,L|374:174,1,87.5
105,257,31349,6,0,P|61:235|136:167,1,175,2|0,3:0|0:0,0:0:0:0:
260,166,31857,2,0,L|262:57,1,87.5,0|0,3:0|0:0,0:0:0:0:
181,63,32196,1,2,0:0:0:0:
328,75,32366,2,0,L|432:75,1,87.5,2|2,0:0|0:0,0:0:0:0:
252,184,32705,6,0,L|66:184,1,175,2|0,0:0|3:0,0:0:0:0:
232,278,33213,2,0,P|286:254|219:185,1,175,2|0,0:0|0:0,0:0:0:0:
149,172,33722,2,0,L|54:175,1,87.5
311,231,34060,6,0,P|366:197|289:137,1,175,2|2,3:0|0:0,0:0:0:0:
158,165,34569,2,0,L|348:158,1,175,2|0,3:0|0:0,0:0:0:0:
246,104,35077,2,0,L|354:101,1,87.5,2|0,0:0|0:0,0:0:0:0:
171,247,35416,6,0,P|124:216|192:140,1,175,2|0,0:0|3:0,0:0:0:0:
336,163,35925,2,0,L|136:165,1,175
306,272,36433,2,0,L|400:268,1,87.5
151,230,36772,6,0,P|103:197|177:128,1,175,4|0,0:0|3:0,0:0:0:0:
310,137,37281,2,0,L|314:41,1,87.5,8|0,0:0|0:0,0:0:0:0:
229,48,37620,1,0,3:0:0:0:
382,111,37789,2,0,L|387:-1,1,87.5,8|0,0:0|0:0,0:0:0:0:
131,169,38128,6,0,L|248:167,2,87.5,0|0|8,3:0|3:0|0:0,0:0:0:0:
283,260,38637,2,0,L|286:137,1,87.5,0|0,3:0|0:0,0:0:0:0:
198,137,38976,1,0,0:0:0:0:
347,99,39145,2,0,L|441:99,1,87.5,8|0,0:0|0:0,0:0:0:0:
188,243,39484,6,0,P|137:211|202:148,1,175,8|8,0:0|0:0,0:0:0:0:
348,182,39993,2,0,L|167:179,1,175,0|0,3:0|0:0,0:0:0:0:
321,247,40501,2,0,L|415:248,1,87.5,8|0,0:0|0:0,0:0:0:0:
160,137,40840,6,0,L|73:136,2,87.5,0|0|8,3:0|3:0|0:0,0:0:0:0:
314,211,41349,2,0,P|374:178|289:116,1,175,0|0,3:0|0:0,0:0:0:0:
181,98,41857,2,0,L|79:96,1,87.5,8|0,0:0|0:0,0:0:0:0:
333,254,42196,6,0,L|134:248,1,175,0|8,3:0|0:0,0:0:0:0:
310,176,42705,2,0,L|311:69,1,87.5,0|0,3:0|0:0,0:0:0:0:
226,86,43044,1,0,0:0:0:0:
383,107,43213,2,0,L|483:109,1,87.5,8|0,0:0|0:0,0:0:0:0:
234,214,43552,6,0,L|225:116,1,87.5,0|0,3:0|3:0,0:0:0:0:
312,108,43891,1,8,0:0:0:0:
160,186,44060,2,0,P|100:147|169:97,1,175,0|0,3:0|0:0,0:0:0:0:
310,164,44569,2,0,L|413:163,1,87.5,8|0,0:0|0:0,0:0:0:0:
158,268,44908,6,0,L|147:165,1,87.5,8|0,0:0|0:0,0:0:0:0:
287,146,45247,1,8,0:0:0:0:
147,167,45416,2,0,P|96:126|172:75,1,175,0|0,3:0|0:0,0:0:0:0:
308,80,45925,2,0,L|419:79,1,87.5,8|0,0:0|0:0,0:0:0:0:
144,235,46264,6,0,L|249:232,2,87.5,0|0|8,3:0|3:0|0:0,0:0:0:0:
303,142,46772,2,0,L|307:39,1,87.5,0|0,3:0|0:0,0:0:0:0:
218,50,47111,1,0,0:0:0:0:
378,129,47281,2,0,L|391:23,1,87.5,8|0,0:0|0:0,0:0:0:0:
137,204,47620,6,0,L|317:200,1,175,12|0,0:0|0:0,0:0:0:0:
58,262,48298,2,0,L|52:162,1,87.5,8|0,0:0|0:0,0:0:0:0:
145,137,48637,1,0,0:0:0:0:
314,204,48806,6,0,P|368:178|293:106,1,175,0|0,3:0|3:0,0:0:0:0:
83,157,49315,2,0,L|268:154,2,175,0|8|0,3:0|0:0|0:0,0:0:0:0:
373,236,50332,6,0,L|480:235,2,87.5,0|0|0,3:0|3:0|0:0,0:0:0:0:
229,158,50840,2,0,L|224:65,1,87.5,0|8,0:0|0:0,0:0:0:0:
315,60,51179,1,0,0:0:0:0:
175,73,51349,1,0,0:0:0:0:
315,60,51518,6,0,P|388:80|405:182,1,175,0|0,3:0|3:0,0:0:0:0:
323,171,52027,2,0,L|419:167,1,87.5
246,211,52366,2,0,P|198:171|274:94,1,175,8|0,0:0|0:0,0:0:0:0:
343,81,52874,1,0,0:0:0:0:
110,195,53044,6,0,P|145:152|291:122,1,175,0|0,3:0|0:0,0:0:0:0:
31,252,53722,2,0,L|154:251,2,87.5,8|0|0,0:0|0:0|0:0,0:0:0:0:
181,157,54230,6,0,L|383:149,1,175,0|0,3:0|0:0,0:0:0:0:
90,101,54738,2,0,L|279:98,2,175,0|8|0,3:0|0:0|0:0,0:0:0:0:
353,252,55755,6,0,P|409:215|336:164,1,175,0|0,3:0|0:0,0:0:0:0:
256,145,56264,1,0,0:0:0:0:
406,129,56433,2,0,L|412:19,1,87.5,8|0,0:0|0:0,0:0:0:0:
326,32,56772,1,0,0:0:0:0:
172,213,56942,1,0,3:0:0:0:
331,163,57111,6,0,L|333:55,1,87.5
241,65,57450,1,0,3:0:0:0:
404,180,57620,2,0,L|497:173,2,87.5,0|8|0,0:0|0:0|0:0,0:0:0:0:
238,153,58128,2,0,L|121:151,1,87.5
401,261,58467,6,0,P|443:238|366:156,1,175,4|0,0:0|0:0,0:0:0:0:
256,181,58976,2,0,L|441:179,1,175,0|0,3:0|3:0,0:0:0:0:
343,246,59484,1,8,0:0:0:0:
194,199,59654,1,0,0:0:0:0:
343,246,59823,5,0,3:0:0:0:
259,179,59993,2,0,L|251:92,1,87.5,0|8,3:0|0:0,0:0:0:0:
397,108,60332,2,0,L|410:9,1,87.5,0|0,3:0|0:0,0:0:0:0:
256,57,60671,2,0,L|356:57,2,87.5,0|8|0,3:0|0:0|0:0,0:0:0:0:
21,218,61179,6,0,L|207:212,1,175,0|8,3:0|0:0,0:0:0:0:
356,152,61688,2,0,P|402:177|328:245,1,175,0|0,3:0|3:0,0:0:0:0:
184,232,62196,2,0,L|306:230,1,87.5,8|0,0:0|0:0,0:0:0:0:
34,161,62535,6,0,L|141:159,2,87.5,0|0|8,3:0|3:0|0:0,0:0:0:0:
182,157,63044,2,0,L|380:157,1,175,0|0,3:0|3:0,0:0:0:0:
206,248,63552,2,0,L|113:248,1,87.5,8|0,0:0|0:0,0:0:0:0:
372,257,63891,6,0,L|470:256,2,87.5,8|0|8,0:0|0:0|0:0,0:0:0:0:
208,173,64399,2,0,L|203:83,1,87.5,0|0,3:0|0:0,0:0:0:0:
357,103,64738,2,0,L|367:4,1,87.5,0|8,0:0|0:0,0:0:0:0:
213,31,65077,1,0,3:0:0:0:
468,185,65247,6,0,L|363:183,2,87.5,8|0|8,0:0|0:0|0:0,0:0:0:0:
311,243,65755,2,0,L|220:245,1,87.5,0|0,3:0|0:0,0:0:0:0:
375,207,66094,2,0,L|383:109,1,87.5,0|8,0:0|0:0,0:0:0:0:
295,108,66433,1,0,0:0:0:0:
56,189,66603,6,0,L|181:187,1,87.5,0|0,3:0|3:0,0:0:0:0:
293,167,66942,1,0,3:0:0:0:
161,178,67111,2,0,L|147:74,1,87.5,0|8,3:0|0:0,0:0:0:0:
301,80,67450,2,0,L|309:-7,1,87.5,8|8,0:0|0:0,0:0:0:0:
160,21,67789,1,0,3:0:0:0:
432,172,67959,6,0,L|339:171,2,87.5,0|0|0,0:0|3:0|3:0,0:0:0:0:
273,262,68467,2,0,P|223:235|283:160,1,175,0|0,3:0|0:0,0:0:0:0:
365,149,68976,5,0,0:0:0:0:
155,173,69654,6,0,L|158:66,1,87.5
241,75,69993,1,0,0:0:0:0:
81,77,70162,1,0,0:0:0:0:
481,248,70501,6,0,L|299:244,1,175,4|0,0:0|3:0,0:0:0:0:
393,193,71010,2,0,L|399:98,1,87.5,8|0,0:0|0:0,0:0:0:0:
243,106,71349,1,0,3:0:0:0:
390,91,71518,2,0,L|493:87,1,87.5,0|8,3:0|0:0,0:0:0:0:
215,190,71857,6,0,P|167:161|236:82,1,175,0|8,3:0|0:0,0:0:0:0:
308,78,72366,1,8,0:0:0:0:
56,192,72535,2,0,L|51:69,1,87.5,0|0,0:0|3:0,0:0:0:0:
198,106,72874,2,0,L|96:103,1,87.5,0|8,3:0|0:0,0:0:0:0:
351,237,73213,6,0,P|399:217|330:150,1,175,0|0,3:0|3:0,0:0:0:0:
194,163,73722,2,0,L|194:52,1,87.5,8|0,0:0|0:0,0:0:0:0:
346,57,74060,1,0,3:0:0:0:
181,163,74230,2,0,L|72:162,1,87.5,0|8,3:0|0:0,0:0:0:0:
342,249,74569,6,0,L|142:244,1,175,0|8,3:0|0:0,0:0:0:0:
257,177,75077,1,8,0:0:0:0:
412,116,75247,1,0,0:0:0:0:
411,159,75331,1,0,0:0:0:0:
411,203,75416,1,0,3:0:0:0:
245,176,75586,1,0,3:0:0:0:
412,116,75755,2,0,L|505:113,1,87.5,8|0,0:0|3:0,0:0:0:0:
245,121,76094,6,0,P|197:87|269:25,1,175,0|8,3:0|0:0,0:0:0:0:
417,141,76603,2,0,L|230:131,1,175,0|0,3:0|3:0,0:0:0:0:
395,83,77111,2,0,L|408:-15,1,87.5,0|8,3:0|0:0,0:0:0:0:
143,159,77450,6,0,L|259:157,2,87.5,0|0|8,3:0|0:0|0:0,0:0:0:0:
309,240,77959,2,0,P|354:225|296:146,1,175,0|0,3:0|3:0,0:0:0:0:
167,136,78467,2,0,L|58:137,1,87.5,8|8,0:0|0:0,0:0:0:0:
323,185,78806,6,0,L|327:84,1,87.5,8|0,3:0|3:0,0:0:0:0:
162,85,79145,1,8,0:0:0:0:
391,63,79315,2,0,L|490:62,1,87.5,0|8,3:0|0:0,0:0:0:0:
188,62,79654,2,0,L|66:67,1,87.5,0|8,3:0|0:0,0:0:0:0:
391,217,79993,6,0,P|446:180|359:122,1,175,8|8,3:0|3:0,0:0:0:0:
244,132,80501,2,0,L|343:132,1,87.5,0|8,0:0|3:0,0:0:0:0:
99,306,80840,1,0,0:0:0:0:
56,299,80924,1,0,0:0:0:0:
28,266,81009,1,0,0:0:0:0:
29,224,81094,1,0,0:0:0:0:
57,191,81178,1,0,0:0:0:0:
99,186,81263,1,0,0:0:0:0:
266,191,81349,6,0,L|79:189,1,175,4|0,0:0|3:0,0:0:0:0:
240,252,81857,2,0,L|245:139,1,87.5,8|0,0:0|0:0,0:0:0:0:
85,138,82196,1,0,3:0:0:0:
254,126,82366,2,0,L|354:120,1,87.5,0|8,3:0|0:0,0:0:0:0:
104,251,82705,6,0,L|91:144,1,87.5,0|0,3:0|0:0,0:0:0:0:
251,170,83044,2,0,L|353:164,1,87.5,8|8,0:0|0:0,0:0:0:0:
170,102,83383,2,0,L|164:10,1,87.5,0|0,0:0|3:0,0:0:0:0:
322,39,83722,2,0,L|417:40,1,87.5,0|8,3:0|0:0,0:0:0:0:
176,227,84060,6,0,P|136:199|200:127,1,175,0|0,3:0|3:0,0:0:0:0:
351,162,84569,2,0,L|350:54,1,87.5,8|0,0:0|0:0,0:0:0:0:
202,68,84908,1,0,3:0:0:0:
353,61,85077,2,0,L|443:61,1,87.5,0|8,3:0|0:0,0:0:0:0:
203,195,85416,6,0,L|390:185,1,175,0|8,3:0|0:0,0:0:0:0:
281,124,85925,1,8,0:0:0:0:
435,163,86094,1,0,0:0:0:0:
435,119,86178,1,0,0:0:0:0:
436,75,86263,1,0,3:0:0:0:
281,124,86433,1,0,3:0:0:0:
436,75,86603,2,0,L|443:-39,1,87.5,8|0,0:0|3:0,0:0:0:0:
186,100,86942,6,0,L|312:93,2,87.5,0|0|8,3:0|0:0|0:0,0:0:0:0:
345,203,87450,2,0,L|354:106,1,87.5,0|0,3:0|0:0,0:0:0:0:
196,109,87789,2,0,L|186:2,1,87.5,0|8,3:0|0:0,0:0:0:0:
293,11,88128,1,0,3:0:0:0:
40,167,88298,6,0,L|148:164,2,87.5,0|0|8,3:0|0:0|0:0,0:0:0:0:
193,237,88806,2,0,L|385:229,1,175,0|0,3:0|0:0,0:0:0:0:
211,137,89315,2,0,L|100:139,1,87.5,8|0,0:0|0:0,0:0:0:0:
367,159,89654,6,0,L|370:56,1,87.5,8|0,0:0|3:0,0:0:0:0:
227,56,89993,1,8,0:0:0:0:
474,109,90162,2,0,L|479:0,1,87.5,0|8,3:0|0:0,0:0:0:0:
323,41,90501,2,0,L|416:37,1,87.5,0|8,3:0|0:0,0:0:0:0:
172,183,90840,6,0,P|125:148|197:75,1,175,0|0,3:0|3:0,0:0:0:0:
341,71,91349,1,0,3:0:0:0:
114,78,91518,1,8,0:0:0:0:
241,69,91688,6,0,L|246:27,10,21.875
82,221,92196,6,0,P|31:197|91:125,1,175,4|0,0:0|3:0,0:0:0:0:
241,170,92705,2,0,L|243:67,1,87.5,8|0,0:0|0:0,0:0:0:0:
86,98,93044,2,0,L|177:96,2,87.5,0|0|8,3:0|3:0|0:0,0:0:0:0:
329,174,93552,5,0,3:0:0:0:
201,101,93891,1,0,3:0:0:0:
282,77,94060,2,0,L|287:-35,1,87.5,8|0,0:0|0:0,0:0:0:0:
126,102,94399,2,0,L|223:103,2,87.5,0|0|8,3:0|3:0|0:0,0:0:0:0:
376,149,94908,5,0,3:0:0:0:
244,162,95247,2,0,L|245:62,1,87.5,0|8,3:0|0:0,0:0:0:0:
335,60,95586,1,0,0:0:0:0:
183,90,95755,2,0,L|173:-16,1,87.5,0|0,3:0|3:0,0:0:0:0:
262,2,96094,1,8,0:0:0:0:
30,151,96264,5,0,3:0:0:0:
161,153,96603,2,0,L|168:54,1,87.5,0|8,3:0|0:0,0:0:0:0:
81,54,96942,1,0,0:0:0:0:
313,114,97111,2,0,L|311:13,1,87.5,0|0,3:0|3:0,0:0:0:0:
168,33,97450,1,8,0:0:0:0:
416,98,97620,5,4,0:0:0:0:
290,188,97959,2,0,L|285:79,1,87.5,0|8,3:0|0:0,0:0:0:0:
367,73,98298,1,0,0:0:0:0:
213,109,98467,2,0,L|209:2,1,87.5,0|0,3:0|3:0,0:0:0:0:
304,8,98806,1,8,0:0:0:0:
65,84,98976,6,0,L|61:-13,1,87.5,0|0,3:0|0:0,0:0:0:0:
210,73,99315,2,0,L|98:74,2,87.5,0|8|0,3:0|0:0|0:0,0:0:0:0:
354,192,99823,2,0,L|358:87,1,87.5,0|0,3:0|3:0,0:0:0:0:
214,82,100162,1,8,0:0:0:0:
448,117,100332,6,0,L|453:11,1,87.5,0|0,3:0|0:0,0:0:0:0:
303,55,100671,2,0,L|399:51,2,87.5,0|8|0,3:0|0:0|0:0,0:0:0:0:
150,188,101179,2,0,L|146:83,1,87.5,0|0,3:0|3:0,0:0:0:0:
294,77,101518,1,8,0:0:0:0:
53,192,101688,6,0,P|6:162|88:95,1,175,4|0,0:0|0:0,0:0:0:0:
212,110,102196,2,0,L|216:21,1,87.5,8|0,0:0|0:0,0:0:0:0:
131,20,102535,1,0,3:0:0:0:
381,201,102705,5,0,3:0:0:0:
423,196,102789,1,0,3:0:0:0:
453,165,102874,1,0,3:0:0:0:
454,123,102959,1,0,3:0:0:0:
427,89,103043,1,0,3:0:0:0:
385,82,103128,1,0,3:0:0:0:
186,186,103213,6,0,L|388:185,1,175,4|0,0:0|3:0,0:0:0:0:
275,273,103721,2,0,P|216:237|289:187,1,175,8|0,0:0|3:0,0:0:0:0:
364,178,104230,2,0,L|371:58,1,87.5,8|0,0:0|0:0,0:0:0:0:
203,119,104569,6,0,L|302:116,2,87.5,0|0|8,3:0|3:0|0:0,0:0:0:0:
357,258,105077,2,0,P|406:227|340:158,1,175,0|0,3:0|0:0,0:0:0:0:
261,157,105586,2,0,L|359:154,1,87.5,8|0,0:0|0:0,0:0:0:0:
108,290,105925,6,0,P|53:261|120:204,1,175,8|8,0:0|0:0,0:0:0:0:
198,212,106433,2,0,L|18:207,1,175,0|0,3:0|0:0,0:0:0:0:
114,147,106942,2,0,L|19:145,1,87.5,8|0,0:0|0:0,0:0:0:0:
186,191,107281,6,0,L|293:195,2,87.5,0|0|8,3:0|3:0|0:0,0:0:0:0:
331,282,107789,2,0,P|379:260|308:187,1,175,0|0,3:0|0:0,0:0:0:0:
245,177,108298,2,0,L|138:174,1,87.5,8|0,0:0|0:0,0:0:0:0:
407,257,108637,6,0,P|451:235|376:167,1,175,0|8,3:0|0:0,0:0:0:0:
252,166,109145,2,0,L|250:57,1,87.5,0|0,3:0|0:0,0:0:0:0:
331,63,109484,1,0,0:0:0:0:
184,75,109654,2,0,L|80:75,1,87.5,8|0,0:0|0:0,0:0:0:0:
260,184,109993,6,0,L|446:184,1,175,0|8,3:0|0:0,0:0:0:0:
280,278,110501,2,0,P|226:254|293:185,1,175,0|0,3:0|0:0,0:0:0:0:
363,172,111010,2,0,L|458:175,1,87.5,8|0,0:0|0:0,0:0:0:0:
201,231,111349,6,0,P|146:197|223:137,1,175,8|8,0:0|0:0,0:0:0:0:
354,165,111857,2,0,L|164:158,1,175,0|0,3:0|0:0,0:0:0:0:
266,104,112365,2,0,L|158:101,1,87.5,8|0,0:0|0:0,0:0:0:0:
341,247,112705,6,0,L|437:245,2,87.5,0|0|8,3:0|3:0|0:0,0:0:0:0:
176,163,113213,2,0,L|376:165,1,175,0|0,3:0|0:0,0:0:0:0:
206,272,113721,2,0,L|112:268,1,87.5,8|0,0:0|0:0,0:0:0:0:
361,230,114060,6,0,P|409:197|335:128,1,175,2|0,0:0|0:0,0:0:0:0:
202,137,114569,2,0,L|198:41,1,87.5,2|0,0:0|0:0,0:0:0:0:
283,48,114908,1,0,0:0:0:0:
130,111,115077,2,0,L|125:-1,1,87.5,2|0,0:0|0:0,0:0:0:0:
381,169,115416,6,0,L|264:167,2,87.5,2|0|2,0:0|0:0|0:0,0:0:0:0:
229,260,115925,2,0,L|226:137,1,87.5,2|0,0:0|0:0,0:0:0:0:
314,137,116264,1,0,0:0:0:0:
165,99,116433,2,0,L|71:99,1,87.5
324,243,116772,6,0,P|375:211|310:148,1,175,2|2,0:0|0:0,0:0:0:0:
164,182,117281,2,0,L|345:179,1,175
191,247,117789,2,0,L|97:248,1,87.5,2|0,0:0|0:0,0:0:0:0:
352,137,118128,6,0,L|439:136,2,87.5,2|2|2,0:0|0:0|0:0,0:0:0:0:
198,211,118637,2,0,P|138:178|223:116,1,175,2|0,0:0|0:0,0:0:0:0:
331,98,119145,2,0,L|433:96,1,87.5
179,254,119484,6,0,L|378:248,1,175,2|0,0:0|0:0,0:0:0:0:
202,176,119993,2,0,L|201:69,1,87.5
286,86,120332,1,0,0:0:0:0:
129,107,120501,2,0,L|29:109,1,87.5,2|2,0:0|0:0,0:0:0:0:
278,214,120840,6,0,L|287:116,1,87.5,2|0,0:0|0:0,0:0:0:0:
200,108,121179,1,0,0:0:0:0:
352,186,121349,2,0,P|412:147|343:97,1,175,2|0,0:0|0:0,0:0:0:0:
202,164,121857,2,0,L|99:163,1,87.5
354,268,122196,6,0,L|365:165,1,87.5,2|0,0:0|0:0,0:0:0:0:
225,146,122535,1,2,0:0:0:0:
365,167,122705,2,0,P|416:126|340:75,1,175,2|0,0:0|0:0,0:0:0:0:
204,80,123213,2,0,L|93:79,1,87.5
379,234,123552,6,0,L|274:231,2,87.5,0|0|0,3:0|3:0|0:0,0:0:0:0:
220,141,124060,2,0,L|216:38,1,87.5,0|0,3:0|3:0,0:0:0:0:
272,35,124315,1,0,0:0:0:0:
326,36,124399,1,0,3:0:0:0:
272,35,124484,1,0,3:0:0:0:
124,130,124569,1,0,3:0:0:0:
86,112,124653,1,0,3:0:0:0:
85,70,124738,1,0,3:0:0:0:
122,51,124823,1,0,3:0:0:0:
322,208,124908,6,0,P|254:142|184:88,1,175,12|0,0:0|0:0,0:0:0:0:
454,262,125586,2,0,L|460:162,1,87.5,8|0,0:0|0:0,0:0:0:0:
367,137,125925,1,0,0:0:0:0:
198,204,126094,6,0,P|144:178|219:106,1,175,0|0,3:0|3:0,0:0:0:0:
429,157,126603,2,0,L|244:154,2,175,0|8|0,3:0|0:0|0:0,0:0:0:0:
139,236,127620,6,0,L|32:235,2,87.5,0|0|0,3:0|3:0|0:0,0:0:0:0:
283,158,128128,2,0,L|288:65,1,87.5,0|8,0:0|0:0,0:0:0:0:
197,60,128467,1,0,0:0:0:0:
337,73,128637,1,0,0:0:0:0:
197,60,128806,6,0,L|18:51,1,175,0|0,3:0|3:0,0:0:0:0:
110,124,129315,2,0,L|14:120,1,87.5
266,211,129654,2,0,P|314:171|238:94,1,175,8|0,0:0|0:0,0:0:0:0:
159,84,130162,1,0,0:0:0:0:
395,194,130332,6,0,L|197:194,1,175,0|0,3:0|0:0,0:0:0:0:
308,256,130840,1,0,0:0:0:0:
481,252,131010,2,0,L|358:251,2,87.5,8|0|0,0:0|0:0|0:0,0:0:0:0:
331,157,131518,6,0,L|129:149,1,175,0|0,3:0|0:0,0:0:0:0:
422,101,132027,2,0,L|233:98,2,175,0|8|0,3:0|0:0|0:0,0:0:0:0:
168,220,133044,2,0,L|163:104,1,87.5,0|0,3:0|3:0,0:0:0:0:
300,108,133383,5,0,0:0:0:0:
158,107,133552,2,0,L|156:-8,1,87.5,0|8,0:0|0:0,0:0:0:0:
245,110,133891,1,0,0:0:0:0:
155,109,134060,1,0,0:0:0:0:
383,156,134230,6,0,L|386:43,1,87.5,0|0,3:0|0:0,0:0:0:0:
304,62,134569,1,0,0:0:0:0:
457,60,134738,1,0,3:0:0:0:
304,62,134908,2,0,L|192:62,1,87.5,0|8,0:0|0:0,0:0:0:0:
371,203,135247,2,0,L|486:203,2,87.5
111,261,135755,6,0,P|69:238|146:156,1,175,4|0,0:0|0:0,0:0:0:0:
256,181,136264,2,0,L|71:179,1,175,0|0,3:0|3:0,0:0:0:0:
169,246,136772,1,8,0:0:0:0:
318,199,136942,1,0,0:0:0:0:
169,246,137111,5,0,3:0:0:0:
253,179,137281,2,0,L|261:92,1,87.5,0|8,3:0|0:0,0:0:0:0:
115,108,137620,2,0,L|102:9,1,87.5,0|0,3:0|0:0,0:0:0:0:
256,57,137959,2,0,L|156:57,2,87.5,0|8|0,3:0|0:0|0:0,0:0:0:0:
491,218,138467,6,0,L|305:212,1,175,0|8,3:0|0:0,0:0:0:0:
156,152,138976,2,0,P|110:177|184:245,1,175,0|0,3:0|3:0,0:0:0:0:
328,232,139484,2,0,L|206:230,1,87.5,8|0,0:0|0:0,0:0:0:0:
478,161,139823,6,0,L|371:159,2,87.5,0|0|8,3:0|3:0|0:0,0:0:0:0:
330,157,140332,2,0,L|132:157,1,175,0|0,3:0|3:0,0:0:0:0:
306,248,140840,2,0,L|399:248,1,87.5,8|0,0:0|0:0,0:0:0:0:
140,257,141179,6,0,L|42:256,2,87.5,8|0|8,0:0|0:0|0:0,0:0:0:0:
304,173,141687,2,0,L|309:83,1,87.5,0|0,3:0|0:0,0:0:0:0:
155,103,142026,2,0,L|145:4,1,87.5,0|8,0:0|0:0,0:0:0:0:
299,31,142365,1,0,3:0:0:0:
44,185,142535,6,0,L|149:183,2,87.5,8|0|8,0:0|0:0|0:0,0:0:0:0:
201,243,143043,2,0,L|292:245,1,87.5,0|0,3:0|0:0,0:0:0:0:
137,207,143382,2,0,L|129:109,1,87.5,0|8,0:0|0:0,0:0:0:0:
217,108,143721,1,0,0:0:0:0:
456,189,143891,6,0,L|331:187,1,87.5,0|0,3:0|3:0,0:0:0:0:
219,167,144230,1,0,3:0:0:0:
351,178,144399,2,0,L|365:74,1,87.5,0|8,3:0|0:0,0:0:0:0:
211,80,144738,2,0,L|203:-7,1,87.5,8|8,0:0|0:0,0:0:0:0:
352,21,145077,1,0,3:0:0:0:
80,172,145247,6,0,L|173:171,2,87.5,0|0|0,0:0|3:0|3:0,0:0:0:0:
239,262,145755,2,0,P|289:235|229:160,1,175,0|0,3:0|0:0,0:0:0:0:
147,149,146264,5,0,0:0:0:0:
357,173,146942,6,0,L|354:66,1,87.5
271,75,147281,1,0,0:0:0:0:
431,77,147450,1,0,0:0:0:0:
31,248,147789,6,0,L|213:244,1,175,4|0,0:0|3:0,0:0:0:0:
119,193,148298,2,0,L|113:98,1,87.5,8|0,0:0|0:0,0:0:0:0:
269,106,148637,1,0,3:0:0:0:
122,91,148806,2,0,L|19:87,1,87.5,0|8,3:0|0:0,0:0:0:0:
297,190,149145,6,0,P|345:161|276:82,1,175,0|8,3:0|0:0,0:0:0:0:
204,78,149654,1,8,0:0:0:0:
456,192,149823,2,0,L|461:69,1,87.5,0|0,0:0|3:0,0:0:0:0:
314,106,150162,2,0,L|416:103,1,87.5,0|8,3:0|0:0,0:0:0:0:
161,237,150501,6,0,P|113:217|182:150,1,175,0|0,3:0|3:0,0:0:0:0:
318,163,151010,2,0,L|318:52,1,87.5,8|0,0:0|0:0,0:0:0:0:
166,57,151348,1,0,3:0:0:0:
331,163,151518,2,0,L|440:162,1,87.5,0|8,3:0|0:0,0:0:0:0:
170,249,151857,6,0,L|370:244,1,175,0|8,3:0|0:0,0:0:0:0:
255,177,152365,1,8,0:0:0:0:
100,116,152535,1,0,0:0:0:0:
101,159,152619,1,0,0:0:0:0:
101,203,152704,1,0,3:0:0:0:
267,176,152874,1,0,3:0:0:0:
100,116,153043,2,0,L|7:113,1,87.5,8|0,0:0|3:0,0:0:0:0:
267,121,153383,6,0,P|315:87|243:25,1,175,0|8,3:0|0:0,0:0:0:0:
95,141,153891,2,0,L|282:131,1,175,0|0,3:0|3:0,0:0:0:0:
117,83,154399,2,0,L|104:-15,1,87.5,0|8,3:0|0:0,0:0:0:0:
369,159,154738,6,0,L|253:157,2,87.5,0|0|8,3:0|0:0|0:0,0:0:0:0:
203,240,155247,2,0,P|158:225|216:146,1,175,0|0,3:0|3:0,0:0:0:0:
345,136,155755,2,0,L|454:137,1,87.5,8|8,0:0|0:0,0:0:0:0:
189,185,156094,6,0,L|185:84,1,87.5,8|0,3:0|3:0,0:0:0:0:
350,85,156433,1,8,0:0:0:0:
121,63,156603,2,0,L|22:62,1,87.5,0|8,3:0|0:0,0:0:0:0:
324,62,156942,2,0,L|446:67,1,87.5,0|8,3:0|0:0,0:0:0:0:
121,217,157281,6,0,P|66:180|153:122,1,175,8|8,3:0|3:0,0:0:0:0:
268,132,157789,2,0,L|169:132,1,87.5,0|8,0:0|3:0,0:0:0:0:
413,306,158128,1,0,0:0:0:0:
456,299,158212,1,0,0:0:0:0:
484,266,158297,1,0,0:0:0:0:
483,224,158382,1,0,0:0:0:0:
455,191,158466,1,0,0:0:0:0:
413,186,158551,1,0,0:0:0:0:
246,191,158637,6,0,L|433:189,1,175,4|0,0:0|3:0,0:0:0:0:
272,252,159145,2,0,L|267:139,1,87.5,8|0,0:0|0:0,0:0:0:0:
419,135,159484,1,0,3:0:0:0:
263,125,159654,2,0,L|163:119,1,87.5,0|8,3:0|0:0,0:0:0:0:
408,251,159993,6,0,L|421:144,1,87.5,0|0,3:0|0:0,0:0:0:0:
261,170,160332,2,0,L|159:164,1,87.5,8|8,0:0|0:0,0:0:0:0:
342,102,160671,2,0,L|348:10,1,87.5,0|0,0:0|3:0,0:0:0:0:
190,39,161010,2,0,L|95:40,1,87.5,0|8,3:0|0:0,0:0:0:0:
336,227,161349,6,0,P|376:199|312:127,1,175,0|0,3:0|3:0,0:0:0:0:
161,162,161857,2,0,L|162:54,1,87.5,8|0,0:0|0:0,0:0:0:0:
310,68,162196,1,0,3:0:0:0:
159,61,162365,2,0,L|69:61,1,87.5,0|8,3:0|0:0,0:0:0:0:
309,195,162705,6,0,L|122:185,1,175,0|8,3:0|0:0,0:0:0:0:
231,124,163213,1,8,0:0:0:0:
77,163,163382,1,0,0:0:0:0:
77,119,163466,1,0,0:0:0:0:
76,75,163551,1,0,3:0:0:0:
231,124,163721,1,0,3:0:0:0:
76,75,163891,2,0,L|69:-39,1,87.5,8|0,0:0|3:0,0:0:0:0:
326,100,164230,6,0,L|200:93,2,87.5,0|0|8,3:0|0:0|0:0,0:0:0:0:
167,203,164738,2,0,L|158:106,1,87.5,0|0,3:0|0:0,0:0:0:0:
316,109,165077,2,0,L|326:2,1,87.5,0|8,3:0|0:0,0:0:0:0:
226,19,165416,1,0,3:0:0:0:
472,167,165586,6,0,L|364:164,2,87.5,0|0|8,3:0|0:0|0:0,0:0:0:0:
319,237,166094,2,0,L|127:229,1,175,0|0,3:0|0:0,0:0:0:0:
301,137,166603,2,0,L|412:139,1,87.5,8|0,0:0|0:0,0:0:0:0:
145,159,166942,6,0,L|142:56,1,87.5,8|0,0:0|3:0,0:0:0:0:
285,56,167281,1,8,0:0:0:0:
38,109,167450,2,0,L|33:0,1,87.5,0|8,3:0|0:0,0:0:0:0:
189,41,167789,2,0,L|96:37,1,87.5,0|8,3:0|0:0,0:0:0:0:
340,183,168128,6,0,P|387:148|315:75,1,175,0|0,3:0|3:0,0:0:0:0:
171,71,168637,1,0,3:0:0:0:
398,78,168806,1,8,0:0:0:0:
271,69,168976,6,0,L|266:27,10,21.875
430,221,169484,6,0,P|481:197|421:125,1,175,4|0,0:0|3:0,0:0:0:0:
276,115,169993,2,0,L|274:25,1,87.5,0|0,3:0|0:0,0:0:0:0:
361,27,170332,2,0,L|253:27,2,87.5,8|0|0,0:0|0:0|0:0,0:0:0:0:
114,249,170840,6,0,P|60:226|126:160,1,175,0|0,3:0|3:0,0:0:0:0:
267,162,171349,2,0,L|273:58,1,87.5,0|0,3:0|0:0,0:0:0:0:
186,62,171688,1,8,0:0:0:0:
345,95,171857,2,0,P|408:112|336:154,1,175
97,265,172366,6,0,L|194:266,1,87.5,0|0,3:0|3:0,0:0:0:0:
337,202,172705,2,0,L|347:87,1,87.5,0|0,3:0|0:0,0:0:0:0:
257,97,173044,1,8,0:0:0:0:
343,83,173213,1,0,0:0:0:0:
429,78,173383,1,0,0:0:0:0:
174,238,173552,6,0,P|127:218|194:141,1,175,0|0,3:0|3:0,0:0:0:0:
329,174,174060,2,0,L|337:61,1,87.5,0|0,3:0|0:0,0:0:0:0:
187,70,174399,1,8,0:0:0:0:
335,73,174569,2,0,L|222:73,2,87.5
89,255,175077,6,0,L|84:149,1,87.5,0|0,3:0|3:0,0:0:0:0:
238,147,175416,2,0,L|346:147,1,87.5,0|0,3:0|0:0,0:0:0:0:
175,217,175755,2,0,L|175:109,1,87.5,8|0,0:0|0:0,0:0:0:0:
263,108,176094,1,0,0:0:0:0:
34,192,176264,6,0,L|234:195,1,175,0|0,3:0|3:0,0:0:0:0:
57,284,176772,2,0,L|46:193,1,87.5,0|0,3:0|0:0,0:0:0:0:
131,162,177111,1,8,0:0:0:0:
295,179,177281,2,0,L|116:180,1,175
374,173,177789,6,0,L|382:60,1,87.5,0|0,3:0|3:0,0:0:0:0:
228,73,178128,1,0,3:0:0:0:
380,73,178298,2,0,L|385:-18,1,87.5,0|8,0:0|0:0,0:0:0:0:
228,73,178637,2,0,L|121:74,1,87.5,0|0,3:0|0:0,0:0:0:0:
391,247,178976,6,0,P|435:220|347:73,1,262.5,0|0,3:0|0:0,0:0:0:0:
200,149,179823,2,0,L|300:147,2,87.5
438,269,180332,6,0,L|236:267,1,175,4|0,0:0|3:0,0:0:0:0:
349,206,180840,2,0,L|440:199,1,87.5,8|0,0:0|0:0,0:0:0:0:
271,132,181179,2,0,L|166:137,2,87.5,0|0|8,3:0|3:0|0:0,0:0:0:0:
506,266,181688,6,0,L|301:265,1,175,0|0,3:0|3:0,0:0:0:0:
177,211,182196,2,0,L|291:207,1,87.5,8|0,0:0|0:0,0:0:0:0:
109,122,182535,2,0,L|0:123,2,87.5,0|0|8,3:0|3:0|0:0,0:0:0:0:
342,244,183044,6,0,L|155:248,1,175,0|0,3:0|3:0,0:0:0:0:
318,175,183552,2,0,L|428:168,1,87.5,8|0,0:0|0:0,0:0:0:0:
251,86,183891,2,0,L|149:88,2,87.5,0|0|8,3:0|3:0|0:0,0:0:0:0:
13,236,184399,6,0,L|188:234,1,175,2|0,3:0|3:0,0:0:0:0:
347,191,184908,2,0,L|234:192,1,87.5,8|0,0:0|0:0,0:0:0:0:
422,136,185247,2,0,L|429:237,1,87.5,0|0,3:0|3:0,0:0:0:0:
272,254,185586,2,0,L|178:256,1,87.5,8|0,0:0|3:0,0:0:0:0:
436,300,185925,6,0,P|481:284|425:203,1,175,2|8,0:0|0:0,0:0:0:0:
277,209,186433,2,0,L|463:206,1,175,0|0,3:0|0:0,0:0:0:0:
301,136,186942,2,0,L|394:134,1,87.5,8|0,0:0|3:0,0:0:0:0:
150,240,187281,6,0,L|52:242,2,87.5,2|0|8,0:0|0:0|0:0,0:0:0:0:
302,188,187789,1,2,3:0:0:0:
147,39,187959,2,0,L|55:40,1,87.5
232,101,188298,2,0,L|331:104,1,87.5,8|0,0:0|0:0,0:0:0:0:
58,233,188637,6,0,L|162:237,1,87.5,0|0,3:0|3:0,0:0:0:0:
304,206,188976,2,0,L|311:103,1,87.5,8|0,0:0|3:0,0:0:0:0:
154,106,189315,2,0,L|242:108,1,87.5,8|0,0:0|3:0,0:0:0:0:
399,124,189654,1,8,0:0:0:0:
148,247,189823,6,0,P|92:217|180:177,1,175,0|0,3:0|3:0,0:0:0:0:
301,155,190332,1,0,3:0:0:0:
32,208,190501,2,0,L|319:202,1,262.5,0|0,3:0|0:0,0:0:0:0:
142,275,191179,5,2,3:0:0:0:
256,192,195247,12,0,196433,0:0:0:0:
316,210,196772,6,0,P|362:184|283:108,1,175,2|0,3:0|0:0,0:0:0:0:
165,150,197281,2,0,L|352:144,1,175,2|0,3:0|0:0,0:0:0:0:
199,209,197789,2,0,L|198:113,1,87.5,2|0,3:0|0:0,0:0:0:0:
348,117,198128,6,0,L|230:116,2,87.5,2|0|0,3:0|0:0|0:0,0:0:0:0:
203,242,198637,2,0,P|149:211|216:136,1,175,2|0,3:0|0:0,0:0:0:0:
335,152,199145,2,0,L|347:49,1,87.5
181,85,199484,5,2,3:0:0:0:
384,76,200162,1,2,3:0:0:0:
49,148,200671,1,2,3:0:0:0:
199,179,201179,6,0,L|94:180,2,87.5,0|0|8,0:0|0:0|3:0,0:0:0:0:
36,113,201688,1,8,3:0:0:0:
443,199,202027,6,0,L|254:196,1,175,4|0,0:0|3:0,0:0:0:0:
434,278,202535,2,0,L|311:275,1,87.5,8|0,0:0|0:0,0:0:0:0:
173,153,202874,1,0,3:0:0:0:
337,128,203044,2,0,L|343:27,1,87.5,0|8,3:0|0:0,0:0:0:0:
86,187,203383,6,0,L|293:194,1,175,0|8,3:0|0:0,0:0:0:0:
110,279,203891,1,8,0:0:0:0:
272,212,204060,2,0,L|280:108,1,87.5,0|0,0:0|3:0,0:0:0:0:
112,121,204399,2,0,L|99:3,1,87.5,0|8,3:0|0:0,0:0:0:0:
370,108,204738,6,0,L|181:107,1,175,0|0,3:0|3:0,0:0:0:0:
356,211,205247,2,0,L|482:216,1,87.5,8|0,0:0|0:0,0:0:0:0:
285,265,205586,1,0,3:0:0:0:
452,207,205755,2,0,L|461:90,1,87.5,0|8,3:0|0:0,0:0:0:0:
199,147,206094,6,0,L|393:142,1,175,0|8,3:0|0:0,0:0:0:0:
214,224,206603,1,8,0:0:0:0:
458,268,206772,2,0,L|274:273,1,175,0|0,0:0|3:0,0:0:0:0:
438,189,207281,2,0,L|446:98,1,87.5,8|0,0:0|3:0,0:0:0:0:
179,146,207620,6,0,L|289:146,2,87.5,0|0|8,3:0|0:0|0:0,0:0:0:0:
337,269,208128,2,0,L|344:165,1,87.5,0|0,3:0|0:0,0:0:0:0:
188,186,208467,2,0,L|174:69,1,87.5,0|0,3:0|3:0,0:0:0:0:
329,77,208806,1,8,0:0:0:0:
67,177,208976,6,0,L|182:177,2,87.5,0|0|8,3:0|0:0|0:0,0:0:0:0:
228,243,209484,2,0,L|32:243,1,175,0|0,3:0|3:0,0:0:0:0:
205,180,209993,2,0,L|113:179,1,87.5,8|0,0:0|0:0,0:0:0:0:
363,217,210332,6,0,L|364:97,1,87.5,8|0,3:0|3:0,0:0:0:0:
200,110,210671,1,8,0:0:0:0:
434,147,210840,2,0,L|445:40,1,87.5,0|8,3:0|0:0,0:0:0:0:
281,58,211179,2,0,L|368:62,1,87.5,0|8,3:0|0:0,0:0:0:0:
88,236,211518,6,0,P|29:200|93:144,1,175,8|0,3:0|3:0,0:0:0:0:
326,139,212027,1,0,3:0:0:0:
173,96,212196,1,8,0:0:0:0:
326,139,212366,6,0,L|331:99,10,21.875
111,226,212874,6,0,P|60:202|120:130,1,175,4|0,0:0|3:0,0:0:0:0:
268,170,213383,2,0,L|270:67,1,87.5,8|0,0:0|0:0,0:0:0:0:
106,97,213722,2,0,L|197:95,2,87.5,0|0|8,3:0|3:0|0:0,0:0:0:0:
345,175,214230,5,0,3:0:0:0:
201,101,214569,1,0,3:0:0:0:
282,77,214738,2,0,L|287:-35,1,87.5,8|0,0:0|0:0,0:0:0:0:
126,102,215077,2,0,L|223:103,2,87.5,0|0|8,3:0|3:0|0:0,0:0:0:0:
376,149,215586,5,0,3:0:0:0:
244,162,215925,2,0,L|245:62,1,87.5,0|8,3:0|0:0,0:0:0:0:
335,60,216264,1,0,0:0:0:0:
183,90,216433,2,0,L|173:-16,1,87.5,0|0,3:0|3:0,0:0:0:0:
262,2,216772,1,8,0:0:0:0:
30,151,216942,5,0,3:0:0:0:
161,153,217281,2,0,L|168:54,1,87.5,0|8,3:0|0:0,0:0:0:0:
81,54,217620,1,0,0:0:0:0:
313,114,217789,2,0,L|311:13,1,87.5,0|0,3:0|3:0,0:0:0:0:
168,33,218128,1,8,0:0:0:0:
416,98,218298,5,4,0:0:0:0:
290,188,218637,2,0,L|285:79,1,87.5,0|8,3:0|0:0,0:0:0:0:
367,73,218976,1,0,0:0:0:0:
213,109,219145,2,0,L|209:2,1,87.5,0|0,3:0|3:0,0:0:0:0:
304,8,219484,1,8,0:0:0:0:
65,84,219654,6,0,L|61:-13,1,87.5,0|0,3:0|0:0,0:0:0:0:
210,73,219993,2,0,L|98:74,2,87.5,0|8|0,3:0|0:0|0:0,0:0:0:0:
354,192,220501,2,0,L|358:87,1,87.5,0|0,3:0|3:0,0:0:0:0:
214,82,220840,1,8,0:0:0:0:
448,117,221010,6,0,L|453:11,1,87.5,0|0,3:0|0:0,0:0:0:0:
303,55,221349,2,0,L|399:51,2,87.5,0|8|0,3:0|0:0|0:0,0:0:0:0:
150,188,221857,2,0,L|146:83,1,87.5,0|0,3:0|3:0,0:0:0:0:
294,77,222196,1,8,0:0:0:0:
53,192,222366,6,0,P|6:162|88:95,1,175,0|0,3:0|3:0,0:0:0:0:
221,156,222874,2,0,L|228:52,1,87.5,8|0,0:0|0:0,0:0:0:0:
80,63,223213,1,0,3:0:0:0:
321,206,223383,1,0,3:0:0:0:
362,197,223467,1,0,0:0:0:0:
390,164,223552,1,8,0:0:0:0:
390,121,223637,1,0,0:0:0:0:
363,87,223721,1,0,3:0:0:0:
321,78,223806,1,0,0:0:0:0:
128,159,223891,6,0,L|118:63,1,87.5,4|0,0:0|0:0,0:0:0:0:
273,142,224230,2,0,L|185:143,1,87.5,8|0,0:0|0:0,0:0:0:0:
348,174,224569,2,0,L|348:65,1,87.5,0|0,3:0|0:0,0:0:0:0:
205,78,224908,1,8,0:0:0:0:
454,157,225077,6,0,L|461:36,1,87.5,0|0,0:0|3:0,0:0:0:0:
303,84,225416,2,0,L|405:83,2,87.5,0|8|0,0:0|0:0|0:0,0:0:0:0:
149,207,225925,2,0,L|262:202,1,87.5,0|0,3:0|0:0,0:0:0:0:
92,135,226264,1,8,0:0:0:0:
375,128,226433,6,0,L|381:21,1,87.5,0|8,0:0|0:0,0:0:0:0:
222,96,226772,2,0,L|315:96,2,87.5,0|8|0,3:0|0:0|3:0,0:0:0:0:
377,212,227281,2,0,L|379:117,1,87.5,8|0,0:0|3:0,0:0:0:0:
235,112,227620,1,8,0:0:0:0:
376,113,227789,1,0,3:0:0:0:
146,294,227959,5,8,0:0:0:0:
125,250,228043,1,0,3:0:0:0:
136,199,228128,1,8,0:0:0:0:
169,155,228213,1,0,3:0:0:0:
207,126,228297,1,8,0:0:0:0:
253,110,228382,1,0,3:0:0:0:
295,108,228467,1,8,0:0:0:0:
338,111,228552,1,0,3:0:0:0:
129,261,228637,5,8,0:0:0:0:
107,256,228679,1,0,3:0:0:0:
88,246,228721,1,0,3:0:0:0:
72,231,228764,1,0,3:0:0:0:
62,212,228806,1,8,0:0:0:0:
58,190,228848,1,0,3:0:0:0:
61,169,228891,1,0,3:0:0:0:
70,149,228933,1,0,3:0:0:0:
84,132,228975,1,8,0:0:0:0:
103,121,229018,1,0,0:0:0:0:
124,116,229060,1,0,3:0:0:0:
328,136,229145,5,12,3:0:0:0:
256,192,229315,12,0,233383,0:0:0:0:
