osu file format v14

[General]
AudioFilename: Amadeus.mp3
AudioLeadIn: 0
PreviewTime: 68430
Countdown: 0
SampleSet: Soft
StackLeniency: 0.7
Mode: 0
LetterboxInBreaks: 0
WidescreenStoryboard: 0

[Editor]
DistanceSpacing: 1
BeatDivisor: 4
GridSize: 8
TimelineZoom: 1.2

[Metadata]
Title:Amadeus
TitleUnicode:アマデウス
Artist:Ito Kanako
ArtistUnicode:いとうかなこ
Creator:FrostxE
Version:Normal
Source:STEINS;GATE 0
Tags:シュタインズ・ゲート ゼロ Frostmourne
BeatmapID:864826
BeatmapSetID:384688

[Difficulty]
HPDrainRate:3
CircleSize:3
OverallDifficulty:4
ApproachRate:5.5
SliderMultiplier:1
SliderTickRate:1

[Events]
//Background and Video events
0,0,"bgblack.jpg",0,0
//Break Periods
2,113714,121881
2,190833,195101
//Storyboard Layer 0 (Background)
//Storyboard Layer 1 (Fail)
//Storyboard Layer 2 (Pass)
//Storyboard Layer 3 (Foreground)
//Storyboard Sound Samples

[TimingPoints]
953,338.983050847458,4,2,1,20,1,0
953,-200,4,2,1,20,0,0
13176,338.983050847458,4,1,1,40,1,0
14531,-100,4,2,1,60,0,0
24192,-100,4,2,1,5,0,0
25379,-100,4,2,1,60,0,0
68091,-100,4,2,1,30,0,0
69955,-100,4,2,1,60,0,1
91650,-100,4,2,1,60,0,0
145379,-100,4,2,1,30,0,0
147243,-100,4,2,1,60,0,1
168938,-100,4,2,1,60,0,0
196226,-100,4,2,1,30,0,0
201481,-100,4,2,1,60,0,1
212328,-100,4,2,1,60,0,0
228769,-100,4,2,1,20,0,0
230125,-100,4,2,1,10,0,0
231142,-100,4,2,1,5,0,0

[Colours]
Combo1 : 168,168,213
Combo2 : 192,192,192

[HitObjects]
24,336,953,6,0,P|95:280|136:176,1,200,2|0,0:0|0:0,0:0:0:0:
166,96,2817,2,0,P|206:95|242:112,1,75
287,141,3664,2,0,P|291:208|251:288,1,150,0|0,0:0|0:0,0:0:0:0:
289,332,5020,2,0,L|449:321,1,150
476,275,6376,6,0,P|474:242|459:194,1,75,0|0,0:0|0:0,0:0:0:0:
422,121,7393,2,0,L|374:138,1,50,0|0,0:0|0:0,0:0:0:0:
260,175,8410,2,0,P|216:154|160:142,1,100
78,161,9597,2,0,P|55:195|42:230,1,75
256,192,10783,12,0,12308,0:0:0:0:
488,184,13176,6,0,P|502:137|492:81,2,100
437,181,14023,2,0,P|367:174|282:190,1,150,0|4,0:0|1:0,0:0:0:0:
201,235,14870,5,8,1:0:0:0:
160,206,15040,2,0,P|151:162|164:107,1,100,0|0,0:0|0:0,0:0:0:0:
238,43,15718,2,0,P|282:34|337:47,1,100,0|0,0:0|0:0,0:0:0:0:
435,45,16396,2,0,L|462:143,1,100,0|0,0:0|0:0,0:0:0:0:
442,187,16904,1,8,1:0:0:0:
401,278,17243,6,0,P|361:310|305:326,1,100,0|8,1:0|1:0,0:0:0:0:
265,331,17752,2,0,L|159:313,1,100,0|0,0:0|0:0,0:0:0:0:
117,304,18260,1,8,1:0:0:0:
69,320,18430,2,0,P|59:274|72:220,1,100,0|0,0:0|0:0,0:0:0:0:
18,137,19108,6,0,L|132:123,1,100
165,139,19616,1,8,1:0:0:0:
265,138,19955,2,0,P|280:99|279:36,2,100,0|8|0,1:0|1:0|1:0,0:0:0:0:
274,187,20803,2,0,P|307:199|377:187,1,100
470,197,21481,6,0,P|448:153|454:90,1,100
370,41,22159,2,0,P|311:40|259:61,1,100
236,87,22667,2,0,L|219:199,2,100,0|8|0,1:0|1:0|1:0,0:0:0:0:
140,116,23684,1,8,1:0:0:0:
140,116,23853,2,0,P|79:268|304:325,1,450,2|0,0:0|1:0,0:0:0:0:
351,188,25887,6,0,P|421:197|477:264,1,150,0|0,1:0|0:0,0:0:0:0:
468,353,26735,2,0,P|413:336|378:304,1,100,0|0,0:0|1:0,0:0:0:0:
332,301,27243,1,0,0:0:0:0:
282,311,27413,2,0,L|271:205,1,100,0|0,0:0|0:0,0:0:0:0:
363,172,28091,6,0,P|392:118|396:24,2,150,0|0|0,1:0|1:0|0:0,0:0:0:0:
319,197,29277,1,0,0:0:0:0:
270,185,29447,2,0,P|220:177|154:185,1,100,0|0,0:0|1:0,0:0:0:0:
128,207,29955,2,0,P|116:272|54:338,1,150,0|0,0:0|0:0,0:0:0:0:
4,251,30803,6,0,P|5:199|28:152,1,100,0|0,1:0|0:0,0:0:0:0:
64,125,31311,2,0,P|115:118|165:134,1,100,0|0,1:0|0:0,0:0:0:0:
209,145,31820,2,0,L|230:32,1,100,0|0,0:0|0:0,0:0:0:0:
327,45,32498,2,0,P|337:67|339:93,2,50,0|0|0,1:0|0:0|0:0,0:0:0:0:
426,32,33176,1,0,0:0:0:0:
478,117,33514,6,0,P|486:168|471:268,1,150,0|0,1:0|1:0,0:0:0:0:
384,313,34362,2,0,L|270:306,1,100,0|0,0:0|0:0,0:0:0:0:
235,295,34870,2,0,P|239:243|268:205,2,100,0|0|0,0:0|1:0|0:0,0:0:0:0:
38,332,36226,6,0,P|83:343|141:319,1,100,4|8,1:0|1:0,0:0:0:0:
155,280,36735,2,0,L|172:166,1,100,0|0,1:0|0:0,0:0:0:0:
178,131,37243,1,8,1:0:0:0:
80,152,37582,2,0,P|52:111|48:53,1,100,0|8,1:0|1:0,0:0:0:0:
91,38,38091,2,0,L|192:17,1,100,0|0,1:0|0:0,0:0:0:0:
233,40,38599,1,8,1:0:0:0:
324,84,38938,6,0,P|372:93|428:85,1,100,0|8,1:0|1:0,0:0:0:0:
463,57,39447,2,0,L|486:162,1,100,0|0,1:0|0:0,0:0:0:0:
472,203,39955,1,8,1:0:0:0:
478,302,40294,2,0,P|438:330|382:334,1,100,0|8,1:0|1:0,0:0:0:0:
340,320,40803,1,0,1:0:0:0:
244,348,41142,1,0,0:0:0:0:
244,348,41311,1,8,1:0:0:0:
248,248,41650,6,0,P|260:192|284:152,1,100,0|8,1:0|1:0,0:0:0:0:
319,122,42159,1,0,1:0:0:0:
240,58,42498,2,0,P|191:64|129:55,1,100,0|0,0:0|0:0,0:0:0:0:
101,27,43006,2,0,P|63:36|10:73,1,100,0|8,1:0|1:0,0:0:0:0:
4,119,43514,1,0,1:0:0:0:
19,217,43853,2,0,L|71:236,1,50,0|8,0:0|1:0,0:0:0:0:
31,328,44362,6,0,P|71:337|132:319,1,100,0|8,1:0|1:0,0:0:0:0:
176,312,44870,2,0,L|187:201,1,100,0|0,1:0|0:0,0:0:0:0:
194,162,45379,1,8,1:0:0:0:
288,194,45718,2,0,L|406:190,1,100,0|8,1:0|1:0,0:0:0:0:
434,209,46226,1,0,1:0:0:0:
434,60,46735,6,0,P|385:42|324:46,1,100,8|4,1:0|1:0,0:0:0:0:
291,64,47243,2,0,L|172:51,1,100,0|0,1:0|0:0,0:0:0:0:
141,47,47752,2,0,P|80:97|62:172,1,150,8|0,0:0|1:0,0:0:0:0:
120,244,48599,1,0,1:0:0:0:
120,244,48769,2,0,L|208:304,1,100,0|8,1:0|0:0,0:0:0:0:
301,283,49447,2,0,P|355:287|399:308,1,100,0|0,0:0|1:0,0:0:0:0:
431,341,49955,2,0,L|457:239,1,100,0|0,1:0|0:0,0:0:0:0:
469,195,50464,1,8,0:0:0:0:
420,107,50803,5,0,0:0:0:0:
420,107,50972,2,0,P|380:148|372:204,1,100,0|0,1:0|1:0,0:0:0:0:
361,237,51481,1,0,0:0:0:0:
265,266,51820,2,0,P|249:311|256:364,2,100,8|0|0,0:0|0:0|1:0,0:0:0:0:
172,227,52837,5,0,0:0:0:0:
72,224,53176,2,0,L|50:117,1,100,8|0,0:0|0:0,0:0:0:0:
76,82,53684,2,0,P|149:71|234:79,1,150,0|0,1:0|1:0,0:0:0:0:
293,149,54531,1,8,1:0:0:0:
310,247,54870,1,0,0:0:0:0:
400,290,55209,2,0,L|490:230,1,100,0|0,1:0|0:0,0:0:0:0:
509,190,55718,2,0,P|505:114|465:50,1,150,0|0,0:0|0:0,0:0:0:0:
420,68,56396,2,0,P|364:78|311:57,1,100,0|0,1:0|0:0,0:0:0:0:
295,105,56904,2,0,L|277:215,2,100,0|8|0,1:0|0:0|0:0,0:0:0:0:
225,33,57921,6,0,P|174:33|114:58,1,100,4|8,1:0|1:0,0:0:0:0:
86,77,58430,1,0,1:0:0:0:
131,166,58769,1,0,1:0:0:0:
131,166,58938,1,8,1:0:0:0:
30,166,59277,2,0,P|12:212|25:266,1,100,0|8,1:0|1:0,0:0:0:0:
44,305,59786,1,0,1:0:0:0:
131,354,60125,1,0,1:0:0:0:
131,354,60294,2,0,L|239:345,1,100,8|0,1:0|1:0,0:0:0:0:
330,357,60972,5,8,1:0:0:0:
330,357,61142,2,0,P|350:321|358:197,1,150,0|8,1:0|1:0,0:0:0:0:
448,264,61989,2,0,L|495:169,1,100,0|8,1:0|1:0,0:0:0:0:
481,125,62498,2,0,P|415:96|327:115,1,150,0|8,1:0|1:0,0:0:0:0:
256,163,63345,6,0,L|143:173,1,100,0|8,1:0|1:0,0:0:0:0:
114,199,63853,2,0,P|101:249|119:303,1,100,0|0,1:0|0:0,0:0:0:0:
142,335,64362,1,8,1:0:0:0:
46,363,64701,2,0,P|19:322|8:271,1,100,0|8,1:0|1:0,0:0:0:0:
9,222,65209,2,0,L|39:76,1,150,0|8,1:0|1:0,0:0:0:0:
139,73,66057,5,8,1:0:0:0:
236,94,66396,1,8,1:0:0:0:
213,191,66735,1,8,1:0:0:0:
114,171,67074,1,8,1:0:0:0:
54,251,67413,2,0,P|97:290|193:302,1,150,0|0,0:0|1:0,0:0:0:0:
256,192,68091,12,0,69108,1:0:0:0:
248,120,69955,6,0,P|208:88|143:79,1,100,4|0,1:0|1:0,0:0:0:0:
112,92,70464,2,0,L|32:164,1,100,8|0,1:0|1:0,0:0:0:0:
19,205,70972,2,0,P|22:256|50:299,1,100,0|0,1:0|1:0,0:0:0:0:
144,272,71650,2,0,L|252:281,1,100,0|0,1:0|0:0,0:0:0:0:
288,192,72328,2,0,P|340:189|391:218,1,100,0|0,1:0|1:0,0:0:0:0:
452,284,73006,5,0,1:0:0:0:
452,284,73176,2,0,L|488:166,1,100,8|0,1:0|1:0,0:0:0:0:
480,138,73684,2,0,P|440:107|377:105,1,100,0|0,1:0|1:0,0:0:0:0:
300,144,74362,1,0,1:0:0:0:
300,144,74531,2,0,P|251:151|195:130,1,100,8|0,1:0|1:0,0:0:0:0:
177,93,75040,1,0,1:0:0:0:
195,47,75209,1,8,1:0:0:0:
100,20,75548,6,0,P|84:44|80:124,1,100,0|8,1:0|1:0,0:0:0:0:
52,156,76057,2,0,L|88:264,1,100,0|0,1:0|0:0,0:0:0:0:
108,292,76565,2,0,P|140:304|216:300,1,100,8|0,1:0|1:0,0:0:0:0:
300,268,77243,1,8,1:0:0:0:
348,252,77413,2,0,P|404:244|448:252,1,100,0|0,1:0|0:0,0:0:0:0:
488,280,77921,1,8,1:0:0:0:
504,180,78260,6,0,L|480:72,1,100,4|8,0:0|1:0,0:0:0:0:
439,55,78769,2,0,P|394:38|329:48,1,100,0|0,1:0|1:0,0:0:0:0:
272,112,79447,2,0,P|220:120|160:100,1,100,0|0,1:0|1:0,0:0:0:0:
136,140,79955,2,0,L|44:96,1,100,0|0,1:0|0:0,0:0:0:0:
10,133,80464,1,0,0:0:0:0:
18,232,80803,6,0,P|58:228|122:240,1,100,4|0,1:0|1:0,0:0:0:0:
156,272,81311,2,0,L|276:272,1,100,8|0,1:0|1:0,0:0:0:0:
292,237,81820,2,0,P|339:217|396:219,1,100,0|0,1:0|1:0,0:0:0:0:
372,316,82498,2,0,P|419:336|476:334,1,100,0|0,1:0|0:0,0:0:0:0:
504,244,83176,2,0,L|512:130,1,100,0|0,1:0|1:0,0:0:0:0:
452,64,83853,5,0,1:0:0:0:
452,64,84023,2,0,L|339:56,1,100,8|0,1:0|1:0,0:0:0:0:
304,73,84531,2,0,P|284:111|276:179,1,100,0|0,1:0|1:0,0:0:0:0:
176,144,85209,2,0,L|172:249,2,100,0|0|0,1:0|0:0|1:0,0:0:0:0:
176,92,86057,1,8,1:0:0:0:
88,48,86396,6,0,P|64:88|52:156,1,100,0|8,1:0|1:0,0:0:0:0:
56,188,86904,1,0,1:0:0:0:
112,272,87243,1,0,0:0:0:0:
112,272,87413,2,0,L|223:262,1,100,8|0,1:0|1:0,0:0:0:0:
244,225,87921,2,0,P|251:196|243:118,1,100,0|0,0:0|1:0,0:0:0:0:
316,56,88599,5,0,0:0:0:0:
316,56,88769,2,0,L|420:98,1,100,8|4,1:0|1:0,0:0:0:0:
472,172,89447,1,8,1:0:0:0:
472,172,89616,2,0,P|472:224|430:276,1,100,0|0,1:0|1:0,0:0:0:0:
400,283,90125,1,8,1:0:0:0:
352,267,90294,2,0,P|309:257|255:268,1,100,0|0,1:0|1:0,0:0:0:0:
211,294,90803,2,0,P|184:298|156:292,1,50,0|0,1:0|1:0,0:0:0:0:
32,141,91650,6,0,P|77:113|137:115,1,100,4|0,1:0|1:0,0:0:0:0:
172,124,92159,2,0,L|280:120,1,100,8|0,1:0|1:0,0:0:0:0:
324,120,92667,1,0,1:0:0:0:
404,64,93006,2,0,P|420:104|412:160,1,100,0|0,1:0|1:0,0:0:0:0:
375,193,93514,2,0,P|345:236|340:299,1,100,8|0,1:0|1:0,0:0:0:0:
344,332,94023,2,0,P|294:344|237:323,1,100,0|0,1:0|1:0,0:0:0:0:
152,300,94701,5,0,1:0:0:0:
108,324,94870,2,0,L|8:324,1,100,8|0,1:0|1:0,0:0:0:0:
4,272,95379,2,0,P|18:222|58:175,1,100,0|0,1:0|1:0,0:0:0:0:
112,108,96057,1,0,1:0:0:0:
112,108,96226,2,0,L|220:128,1,100,8|0,1:0|1:0,0:0:0:0:
260,124,96735,2,0,P|276:79|259:18,1,100,0|4,1:0|1:0,0:0:0:0:
166,13,97413,5,0,1:0:0:0:
166,13,97582,2,0,L|59:27,1,100,8|0,1:0|1:0,0:0:0:0:
20,45,98091,1,0,1:0:0:0:
0,144,98430,2,0,P|-7:192|7:252,1,100,0|0,0:0|1:0,0:0:0:0:
5,292,98938,2,0,L|81:359,1,100,8|0,1:0|1:0,0:0:0:0:
128,344,99447,2,0,P|171:324|223:327,1,100,0|0,1:0|0:0,0:0:0:0:
320,349,100125,5,0,1:0:0:0:
320,349,100294,2,0,L|428:342,1,100,8|0,1:0|1:0,0:0:0:0:
468,355,100803,1,0,1:0:0:0:
488,257,101142,2,0,P|503:193|475:102,1,150,0|0,1:0|1:0,0:0:0:0:
385,138,101989,2,0,P|312:154|177:137,1,200,0|4,1:0|1:0,0:0:0:0:
88,151,103006,5,8,0:0:0:0:
88,151,103176,2,0,L|51:250,1,100,0|0,1:0|0:0,0:0:0:0:
40,293,103684,2,0,P|74:326|131:336,1,100,8|0,0:0|1:0,0:0:0:0:
169,314,104192,1,0,1:0:0:0:
219,317,104362,1,8,0:0:0:0:
260,345,104531,2,0,L|418:335,1,150,0|8,1:0|0:0,0:0:0:0:
479,263,105379,6,0,P|496:200|492:148,1,100,0|8,1:0|0:0,0:0:0:0:
500,116,105887,2,0,L|480:8,1,100,0|0,1:0|0:0,0:0:0:0:
432,8,106396,1,8,0:0:0:0:
380,96,106735,2,0,P|320:108|272:96,1,100,0|8,1:0|0:0,0:0:0:0:
236,116,107243,2,0,L|212:220,1,100,0|0,1:0|0:0,0:0:0:0:
236,258,107752,1,8,0:0:0:0:
328,220,108091,6,0,P|372:202|428:206,1,100,0|8,1:0|0:0,0:0:0:0:
468,232,108599,2,0,L|464:344,1,100,0|0,1:0|0:0,0:0:0:0:
413,331,109108,2,0,P|380:324|343:321,1,50,8|0,0:0|0:0,0:0:0:0:
316,338,109447,2,0,P|267:345|196:337,1,100,0|8,1:0|0:0,0:0:0:0:
168,327,109955,2,0,P|93:318|16:336,1,150,0|8,1:0|0:0,0:0:0:0:
11,234,110803,6,0,L|35:131,1,100,0|8,1:0|0:0,0:0:0:0:
57,92,111311,2,0,P|108:70|168:77,1,100,0|0,1:0|0:0,0:0:0:0:
197,92,111820,2,0,L|203:158,1,50,8|0,0:0|0:0,0:0:0:0:
208,191,112159,2,0,P|240:218|296:232,1,100,0|8,1:0|0:0,0:0:0:0:
332,200,112667,2,0,P|381:191|482:214,1,150,0|8,1:0|0:0,0:0:0:0:
488,312,113514,5,4,0:0:0:0:
380,166,123006,6,0,L|376:216,1,50,0|0,1:0|1:0,0:0:0:0:
303,284,123514,2,0,P|278:291|239:290,2,50,0|0|0,1:0|1:0|1:0,0:0:0:0:
163,339,124362,6,0,P|112:304|79:255,1,100,4|0,1:0|0:0,0:0:0:0:
23,198,125040,2,0,L|48:81,1,100,8|0,0:0|0:0,0:0:0:0:
84,71,125548,1,0,1:0:0:0:
158,138,125887,1,0,1:0:0:0:
158,138,126057,2,0,L|264:128,1,100,0|8,1:0|0:0,0:0:0:0:
338,69,126735,2,0,L|445:80,1,100,0|0,0:0|1:0,0:0:0:0:
463,121,127243,2,0,P|468:175|443:225,1,100,0|0,1:0|0:0,0:0:0:0:
416,253,127752,1,8,0:0:0:0:
331,200,128091,5,0,0:0:0:0:
287,175,128260,2,0,P|247:161|178:167,1,100,0|0,1:0|1:0,0:0:0:0:
142,181,128769,1,0,0:0:0:0:
65,116,129108,2,0,P|43:161|45:214,1,100,8|0,0:0|0:0,0:0:0:0:
43,260,129616,1,0,0:0:0:0:
82,292,129786,2,0,P|136:290|192:309,1,100,0|0,1:0|0:0,0:0:0:0:
264,249,130464,6,0,P|311:235|361:238,1,100,8|0,0:0|0:0,0:0:0:0:
410,248,130972,2,0,L|458:91,1,150,0|0,1:0|1:0,0:0:0:0:
380,36,131820,2,0,P|342:26|280:43,1,100,8|0,0:0|0:0,0:0:0:0:
216,114,132498,1,0,1:0:0:0:
216,114,132667,2,0,L|104:90,1,100,0|0,1:0|0:0,0:0:0:0:
84,130,133176,2,0,P|66:178|70:233,1,100,8|0,0:0|0:0,0:0:0:0:
104,262,133684,2,0,L|223:259,1,100,0|0,1:0|0:0,0:0:0:0:
253,249,134192,2,0,P|280:283|271:353,1,100,0|8,1:0|0:0,0:0:0:0:
183,366,134870,2,0,L|83:368,1,100,0|4,0:0|1:0,0:0:0:0:
13,296,135548,5,8,1:0:0:0:
13,296,135718,2,0,P|16:244|52:200,1,100,0|0,1:0|1:0,0:0:0:0:
68,164,136226,2,0,L|54:55,2,100,8|0|8,1:0|1:0|1:0,0:0:0:0:
117,174,137074,2,0,P|165:183|237:171,1,100,0|0,1:0|1:0,0:0:0:0:
260,156,137582,1,8,1:0:0:0:
343,210,137921,6,0,P|360:165|347:102,1,100,0|8,1:0|1:0,0:0:0:0:
321,75,138430,2,0,P|277:56|224:61,1,100,0|0,1:0|1:0,0:0:0:0:
179,77,138938,2,0,L|141:179,1,100,8|0,1:0|1:0,0:0:0:0:
125,217,139447,1,0,1:0:0:0:
58,291,139786,2,0,P|103:311|152:308,1,100,0|0,1:0|1:0,0:0:0:0:
195,282,140294,1,8,1:0:0:0:
255,202,140633,6,0,L|370:172,1,100,0|8,1:0|1:0,0:0:0:0:
398,199,141142,2,0,P|411:249|393:303,1,100,0|0,1:0|0:0,0:0:0:0:
370,335,141650,1,8,1:0:0:0:
466,363,141989,2,0,P|493:322|504:271,1,100,0|8,1:0|1:0,0:0:0:0:
503,222,142497,2,0,L|473:76,1,150,0|8,1:0|1:0,0:0:0:0:
373,73,143345,5,8,1:0:0:0:
276,94,143684,1,8,1:0:0:0:
299,191,144023,1,8,1:0:0:0:
398,171,144362,1,8,1:0:0:0:
458,251,144701,2,0,P|415:290|319:302,1,150,0|0,0:0|1:0,0:0:0:0:
256,192,145379,12,0,146396,1:0:0:0:
332,212,147243,6,0,L|232:183,1,100,4|0,1:0|1:0,0:0:0:0:
211,227,147752,2,0,P|177:269|123:289,1,100,8|0,1:0|1:0,0:0:0:0:
87,277,148260,2,0,P|61:234|58:185,1,100,0|0,1:0|1:0,0:0:0:0:
60,85,148938,2,0,L|172:73,1,100,0|0,1:0|0:0,0:0:0:0:
259,61,149616,2,0,P|311:58|362:87,1,100,0|0,1:0|1:0,0:0:0:0:
418,155,150294,5,0,1:0:0:0:
418,155,150464,2,0,L|454:273,1,100,8|0,1:0|1:0,0:0:0:0:
429,297,150972,2,0,P|389:266|326:264,1,100,0|0,1:0|1:0,0:0:0:0:
242,246,151650,1,0,1:0:0:0:
205,278,151820,1,8,1:0:0:0:
156,284,151989,2,0,P|108:277|57:241,1,100,0|0,0:0|1:0,0:0:0:0:
41,206,152497,1,8,1:0:0:0:
59,107,152837,6,0,P|83:91|163:87,1,100,0|8,1:0|1:0,0:0:0:0:
200,102,153345,1,0,1:0:0:0:
247,119,153514,2,0,P|277:118|346:78,1,100,0|8,0:0|1:0,0:0:0:0:
387,75,154023,2,0,P|419:114|423:161,1,100,0|0,1:0|0:0,0:0:0:0:
378,185,154531,1,8,1:0:0:0:
336,212,154701,2,0,L|236:224,1,100,0|0,1:0|0:0,0:0:0:0:
188,232,155209,1,8,1:0:0:0:
210,329,155548,6,0,L|324:328,1,100,4|8,1:0|1:0,0:0:0:0:
356,308,156057,2,0,P|404:292|457:299,1,100,0|0,1:0|1:0,0:0:0:0:
484,201,156735,2,0,L|501:100,1,100,0|0,1:0|1:0,0:0:0:0:
488,53,157243,2,0,P|451:33|388:32,1,100,0|0,1:0|0:0,0:0:0:0:
348,53,157752,1,0,0:0:0:0:
288,132,158091,6,0,P|247:147|183:139,1,100,4|0,1:0|1:0,0:0:0:0:
175,95,158599,2,0,L|55:95,1,100,8|0,1:0|1:0,0:0:0:0:
33,68,159108,2,0,P|13:115|15:172,1,100,0|0,1:0|1:0,0:0:0:0:
47,257,159786,2,0,P|94:277|151:275,1,100,0|0,1:0|0:0,0:0:0:0:
235,317,160464,2,0,L|277:216,1,100,0|0,1:0|1:0,0:0:0:0:
322,136,161142,5,0,1:0:0:0:
372,129,161311,1,8,1:0:0:0:
417,151,161481,2,0,L|476:159,2,50,0|0|0,0:0|1:0|1:0,0:0:0:0:
347,223,162159,2,0,P|333:270|346:317,1,100,0|0,1:0|1:0,0:0:0:0:
386,347,162667,1,8,1:0:0:0:
433,332,162837,2,0,L|488:187,1,150,0|8,0:0|1:0,0:0:0:0:
436,105,163684,6,0,P|382:109|325:86,1,100,0|8,1:0|1:0,0:0:0:0:
301,61,164192,2,0,P|251:45|192:58,1,100,0|0,1:0|0:0,0:0:0:0:
157,70,164701,2,0,L|115:167,1,100,8|0,1:0|1:0,0:0:0:0:
91,204,165209,2,0,P|88:256|112:297,1,100,0|0,0:0|1:0,0:0:0:0:
196,352,165887,1,0,0:0:0:0:
196,352,166057,2,0,L|305:313,1,100,8|4,1:0|1:0,0:0:0:0:
388,293,166735,5,8,1:0:0:0:
388,293,166904,2,0,P|404:243|380:181,1,100,0|0,1:0|1:0,0:0:0:0:
354,165,167413,1,8,1:0:0:0:
303,165,167582,2,0,P|259:161|211:134,1,100,0|0,1:0|1:0,0:0:0:0:
178,96,168091,2,0,P|153:83|125:80,1,50,0|0,1:0|1:0,0:0:0:0:
34,254,168938,6,0,L|48:368,1,100,4|0,1:0|1:0,0:0:0:0:
97,348,169447,2,0,P|142:330|201:330,1,100,0|8,1:0|0:0,0:0:0:0:
343,350,170294,2,0,L|312:242,1,100,0|0,1:0|1:0,0:0:0:0:
297,206,170803,2,0,P|341:184|390:188,1,100,0|8,1:0|0:0,0:0:0:0:
433,215,171311,2,0,L|460:64,1,150,0|0,0:0|1:0,0:0:0:0:
415,45,171989,1,0,1:0:0:0:
366,62,172159,2,0,B|330:98|267:91,1,100,0|8,1:0|0:0,0:0:0:0:
235,60,172667,2,0,L|127:61,1,100,0|0,0:0|1:0,0:0:0:0:
38,90,173345,5,0,1:0:0:0:
38,90,173514,2,0,L|32:205,1,100,0|8,1:0|0:0,0:0:0:0:
21,239,174023,2,0,P|44:283|145:312,1,150,0|0,0:0|1:0,0:0:0:0:
174,284,174701,1,0,1:0:0:0:
220,301,174870,2,0,L|336:299,1,100,0|8,1:0|0:0,0:0:0:0:
357,153,175718,6,0,P|315:147|257:161,1,100,0|0,1:0|1:0,0:0:0:0:
210,171,176226,2,0,L|162:78,1,100,0|8,1:0|0:0,0:0:0:0:
118,61,176735,2,0,P|75:111|56:211,1,150,0|0,0:0|1:0,0:0:0:0:
65,240,177413,1,0,1:0:0:0:
108,265,177582,2,0,L|225:257,1,100,0|8,1:0|0:0,0:0:0:0:
256,244,178091,2,0,L|256:344,1,100,0|0,1:0|1:0,0:0:0:0:
388,132,179277,6,0,P|332:84|252:68,2,150,0|4|8,0:0|1:0|1:0,0:0:0:0:
470,74,180633,1,0,1:0:0:0:
496,170,180972,1,8,1:0:0:0:
496,170,181142,2,0,P|495:224|483:276,1,100,0|0,1:0|1:0,0:0:0:0:
466,315,181650,1,8,1:0:0:0:
366,319,181989,6,0,P|322:297|264:296,1,100,0|8,1:0|1:0,0:0:0:0:
228,320,182498,2,0,P|164:316|115:331,1,100,0|0,1:0|1:0,0:0:0:0:
84,344,183006,2,0,L|35:253,1,100,8|0,1:0|1:0,0:0:0:0:
76,164,183684,1,8,1:0:0:0:
76,164,183853,2,0,P|138:149|180:157,1,100,0|0,1:0|1:0,0:0:0:0:
209,189,184362,1,8,1:0:0:0:
312,192,184701,2,0,L|312:248,2,50,0|0|8,1:0|1:0|1:0,1:0:0:0:
410,173,185379,6,0,P|424:130|401:75,1,100,0|8,1:0|1:0,0:0:0:0:
359,60,185887,2,0,L|255:60,1,100,0|0,1:0|0:0,0:0:0:0:
211,76,186396,1,8,1:0:0:0:
111,66,186735,2,0,P|63:88|37:130,1,100,0|8,1:0|1:0,0:0:0:0:
22,174,187243,2,0,P|29:206|42:281,1,100,0|0,1:0|0:0,0:0:0:0:
44,322,187752,2,0,P|90:301|151:299,1,100,8|8,1:0|1:0,0:0:0:0:
233,330,188430,6,0,L|250:219,1,100,8|8,1:0|1:0,0:0:0:0:
247,130,189108,1,8,1:0:0:0:
247,130,189277,1,0,1:0:0:0:
164,74,189616,1,0,1:0:0:0:
114,80,189786,1,0,1:0:0:0:
75,111,189955,2,0,P|50:120|12:117,2,50,0|0|0,1:0|0:0|0:0,0:0:0:0:
151,175,190633,5,4,0:0:0:0:
84,232,196226,6,0,L|64:120,1,100,2|0,0:0|0:0,0:0:0:0:
74,83,196735,2,0,P|122:68|184:78,1,100
213,98,197243,2,0,L|200:201,2,100
258,76,198091,2,0,P|306:64|358:72,1,100
401,91,198599,1,0,0:0:0:0:
464,168,198938,6,0,L|449:280,1,100
436,315,199447,1,0,0:0:0:0:
355,256,199786,1,0,0:0:0:0:
288,330,200125,2,0,P|225:338|126:328,1,150
52,281,200972,2,0,P|40:252|39:221,1,50
14,134,201481,6,0,P|60:131|109:163,1,100,4|0,1:0|0:0,0:0:0:0:
150,177,201989,2,0,L|233:111,1,100,8|0,1:0|1:0,0:0:0:0:
260,76,202498,2,0,P|294:67|359:76,1,100,0|0,1:0|1:0,0:0:0:0:
420,153,203176,2,0,P|373:173|316:165,1,100,0|0,1:0|0:0,0:0:0:0:
238,218,203854,2,0,L|226:332,1,100,0|0,1:0|1:0,0:0:0:0:
128,335,204532,5,0,1:0:0:0:
104,291,204701,1,8,1:0:0:0:
108,241,204871,2,0,L|139:137,1,100,0|0,0:0|1:0,0:0:0:0:
36,149,205548,2,0,P|22:103|36:39,1,100,0|0,1:0|1:0,0:0:0:0:
126,28,206226,2,0,P|178:24|226:48,1,100,0|0,0:0|1:0,0:0:0:0:
262,72,206735,1,8,1:0:0:0:
282,169,207074,6,0,P|331:180|394:163,1,100,0|8,1:0|1:0,0:0:0:0:
429,168,207582,2,0,P|445:218|432:277,1,100,0|0,1:0|0:0,0:0:0:0:
411,307,208091,2,0,L|309:319,1,100,8|0,1:0|1:0,0:0:0:0:
271,288,208599,2,0,P|248:282|209:286,1,50,0|8,0:0|1:0,0:0:0:0:
176,304,208938,2,0,P|161:260|168:146,1,150,0|8,1:0|1:0,0:0:0:0:
144,59,209786,6,0,P|93:54|42:73,1,100,4|0,1:0|1:0,0:0:0:0:
23,113,210294,2,0,L|35:228,1,100,0|0,1:0|1:0,0:0:0:0:
54,258,210803,1,8,1:0:0:0:
79,300,210972,2,0,P|123:310|189:302,1,100,0|0,1:0|1:0,0:0:0:0:
213,269,211481,1,0,1:0:0:0:
211,219,211650,1,0,1:0:0:0:
346,72,212328,6,0,P|398:71|449:103,1,100,4|0,1:0|1:0,0:0:0:0:
463,137,212837,2,0,L|459:245,1,100,8|0,1:0|1:0,0:0:0:0:
453,286,213345,1,0,1:0:0:0:
365,238,213684,2,0,P|335:206|281:190,1,100,0|0,1:0|1:0,0:0:0:0:
232,183,214192,2,0,L|209:70,1,100,8|0,1:0|1:0,0:0:0:0:
161,83,214701,2,0,P|128:123|123:183,1,100,0|0,1:0|1:0,0:0:0:0:
169,257,215379,5,0,1:0:0:0:
138,296,215548,2,0,L|38:296,1,100,8|0,1:0|1:0,0:0:0:0:
3,259,216057,2,0,P|17:209|-5:164,1,100,0|0,1:0|1:0,0:0:0:0:
31,72,216735,1,0,1:0:0:0:
31,72,216904,2,0,L|139:92,1,100,8|0,1:0|1:0,0:0:0:0:
171,117,217413,2,0,P|196:82|206:27,1,100,0|4,1:0|1:0,0:0:0:0:
304,44,218091,5,0,1:0:0:0:
304,44,218260,2,0,L|411:58,1,100,8|0,1:0|1:0,0:0:0:0:
452,66,218769,1,0,1:0:0:0:
491,157,219108,2,0,P|498:205|484:265,1,100,0|0,0:0|1:0,0:0:0:0:
467,300,219616,2,0,L|349:310,1,100,8|0,1:0|1:0,0:0:0:0:
316,305,220125,2,0,P|296:262|299:210,1,100,0|0,1:0|0:0,0:0:0:0:
205,173,220803,5,0,1:0:0:0:
205,173,220972,2,0,L|97:180,1,100,8|0,1:0|1:0,0:0:0:0:
55,187,221481,1,0,1:0:0:0:
33,89,221820,2,0,P|76:60|142:58,1,100,0|0,0:0|1:0,0:0:0:0:
172,56,222328,2,0,L|286:72,1,100,8|0,1:0|1:0,0:0:0:0:
321,69,222837,2,0,P|336:115|320:164,1,100,0|0,1:0|1:0,0:0:0:0:
288,201,223345,1,4,1:0:0:0:
298,300,223684,6,0,P|346:315|403:307,1,100,8|0,1:0|1:0,0:0:0:0:
467,240,224362,2,0,P|479:191|468:134,1,100,8|0,1:0|1:0,0:0:0:0:
407,66,225040,2,0,P|359:51|302:59,1,100,8|0,1:0|1:0,0:0:0:0:
247,134,225718,2,0,P|199:149|142:141,1,100,8|0,1:0|1:0,0:0:0:0:
72,80,226396,1,8,1:0:0:0:
33,172,226735,1,0,1:0:0:0:
76,262,227074,1,8,1:0:0:0:
172,235,227413,6,0,P|212:220|286:216,1,100,0|0,1:0|1:0,0:0:0:0:
316,228,227921,1,0,1:0:0:0:
361,250,228091,2,0,P|392:201|397:149,1,100,0|0,1:0|1:0,0:0:0:0:
388,110,228599,1,4,1:0:0:0:
256,192,228769,12,0,233176,0:0:0:0:
