osu file format v14

[General]
AudioFilename: Amadeus.mp3
AudioLeadIn: 0
PreviewTime: 68430
Countdown: 0
SampleSet: Soft
StackLeniency: 0.7
Mode: 0
LetterboxInBreaks: 0
WidescreenStoryboard: 0

[Editor]
DistanceSpacing: 1.2
BeatDivisor: 4
GridSize: 8
TimelineZoom: 1.9

[Metadata]
Title:Amadeus
TitleUnicode:アマデウス
Artist:Ito Kanako
ArtistUnicode:いとうかなこ
Creator:FrostxE
Version:Insane
Source:STEINS;GATE 0
Tags:シュタインズ・ゲート ゼロ Frostmourne
BeatmapID:840538
BeatmapSetID:384688

[Difficulty]
HPDrainRate:7
CircleSize:4
OverallDifficulty:8
ApproachRate:9
SliderMultiplier:1.7
SliderTickRate:1

[Events]
//Background and Video events
0,0,"bgblack.jpg",0,0
//Break Periods
2,113714,122406
2,190832,195626
//Storyboard Layer 0 (Background)
//Storyboard Layer 1 (Fail)
//Storyboard Layer 2 (Pass)
//Storyboard Layer 3 (Foreground)
//Storyboard Sound Samples

[TimingPoints]
953,338.983050847458,4,2,1,20,1,0
953,-200,4,2,1,20,0,0
13176,338.983050847458,4,1,1,40,1,0
14531,-100,4,2,1,60,0,0
68091,-100,4,2,1,30,0,0
69955,-100,4,2,1,60,0,1
91650,-100,4,2,1,60,0,0
145379,-100,4,2,1,30,0,0
147243,-100,4,2,1,60,0,1
168938,-100,4,2,1,60,0,0
196226,-133.333333333333,4,2,1,30,0,0
201481,-100,4,2,1,60,0,1
212328,-100,4,2,1,60,0,0
228769,-100,4,2,1,20,0,0
230125,-100,4,2,1,10,0,0
231142,-100,4,2,1,5,0,0

[Colours]
Combo1 : 168,168,213
Combo2 : 192,192,192

[HitObjects]
256,192,953,5,2,0:0:0:0:
311,60,1969,2,0,P|287:51|259:48,1,42.5
188,72,2308,2,0,P|169:120|152:203,1,127.5
350,236,3325,1,0,0:0:0:0:
450,155,3664,6,0,L|464:287,2,127.5
412,61,5020,1,0,0:0:0:0:
344,136,5359,2,0,B|264:104|264:152|172:120,1,170
177,121,6207,1,0,0:0:0:0:
104,162,6376,6,0,P|97:108|137:47,2,127.5
68,360,7732,2,0,L|24:188,1,170
424,144,9088,2,0,P|445:211|422:273,2,127.5
256,192,10783,12,0,12308,0:0:0:0:
204,24,13176,5,0,0:0:0:0:
236,112,13345,1,0,0:0:0:0:
404,189,13514,5,0,0:0:0:0:
309,171,13683,1,0,0:0:0:0:
168,276,13853,5,0,0:0:0:0:
229,203,14022,1,0,0:0:0:0:
254,232,14108,1,0,0:0:0:0:
261,269,14192,1,0,0:0:0:0:
253,306,14277,1,0,0:0:0:0:
237,341,14362,1,0,0:0:0:0:
205,362,14447,1,0,0:0:0:0:
167,369,14531,2,0,B|76:364|28:272|28:272,1,170,4|8,1:0|1:0,0:0:0:0:
32,183,15040,6,0,L|46:88,1,85,0|0,0:0|1:0,0:0:0:0:
192,192,15379,2,0,L|179:276,1,85,0|8,0:0|1:0,0:0:0:0:
480,183,15718,2,0,L|466:88,1,85,0|0,0:0|1:0,0:0:0:0:
320,192,16057,2,0,L|333:276,1,85,0|8,0:0|1:0,0:0:0:0:
388,132,16396,2,0,P|348:104|308:100,1,85,0|0,0:0|1:0,0:0:0:0:
223,126,16735,1,0,0:0:0:0:
145,74,16904,1,8,1:0:0:0:
228,31,17074,1,0,0:0:0:0:
200,296,17243,6,0,P|228:256|232:216,1,85,0|0,1:0|0:0,0:0:0:0:
138,222,17582,1,8,1:0:0:0:
138,222,17752,2,0,P|115:178|82:156,1,85,0|0,0:0|1:0,0:0:0:0:
24,228,18091,1,0,0:0:0:0:
64,72,18260,1,8,1:0:0:0:
96,300,18430,2,0,P|139:311|193:296,1,85,0|0,0:0|1:0,0:0:0:0:
254,249,18769,6,0,P|297:238|351:253,1,85,0|8,0:0|1:0,0:0:0:0:
428,256,19108,2,0,L|428:156,1,85,0|0,0:0|1:0,0:0:0:0:
512,248,19447,2,0,P|507:295|483:329,1,85,0|8,0:0|1:0,0:0:0:0:
396,348,19786,1,0,0:0:0:0:
254,249,19955,6,0,L|278:73,1,170,0|8,1:0|1:0,0:0:0:0:
276,80,20464,2,0,P|318:70|372:73,1,85,0|0,0:0|1:0,0:0:0:0:
441,134,20803,1,0,0:0:0:0:
344,288,20972,1,8,1:0:0:0:
441,134,21142,6,0,P|436:184|407:233,1,85,0|0,0:0|1:0,0:0:0:0:
344,288,21481,2,0,P|306:321|251:337,1,85,0|8,0:0|1:0,0:0:0:0:
168,340,21820,2,0,L|56:336,2,85,0|0|0,0:0|1:0|0:0,0:0:0:0:
274,333,22328,1,8,1:0:0:0:
180,160,22498,1,0,0:0:0:0:
121,232,22667,5,0,1:0:0:0:
84,145,22837,1,0,0:0:0:0:
256,104,23006,5,8,1:0:0:0:
180,160,23175,1,0,0:0:0:0:
173,66,23345,1,0,1:0:0:0:
352,180,23514,5,0,0:0:0:0:
256,104,23684,1,8,1:0:0:0:
188,328,23853,1,2,0:0:0:0:
256,192,24023,12,0,25379,1:0:0:0:
296,148,25887,6,0,P|377:144|476:120,1,170,0|0,1:0|0:0,0:0:0:0:
472,224,26396,2,0,P|391:228|292:252,1,170
46,216,26904,1,0,0:0:0:0:
91,298,27074,1,0,1:0:0:0:
180,271,27243,2,0,P|182:315|168:353,2,85
180,271,27752,1,0,0:0:0:0:
264,360,27921,1,0,0:0:0:0:
299,273,28091,6,0,P|335:301|351:345,1,85,0|0,1:0|0:0,0:0:0:0:
404,236,28430,1,0,0:0:0:0:
404,236,28599,2,0,P|432:200|476:184,1,85,0|0,1:0|0:0,0:0:0:0:
511,267,28938,1,0,0:0:0:0:
511,267,29108,1,0,0:0:0:0:
463,346,29277,1,0,0:0:0:0:
463,346,29447,2,0,P|384:328|277:339,1,170,0|0,0:0|1:0,0:0:0:0:
221,277,29955,5,0,0:0:0:0:
128,216,30125,2,0,P|207:198|314:209,1,170
383,236,30633,1,0,0:0:0:0:
462,187,30803,6,0,L|480:97,1,85,0|0,1:0|0:0,0:0:0:0:
424,27,31142,1,0,0:0:0:0:
368,101,31311,2,0,P|319:98|286:76,1,85,0|0,1:0|0:0,0:0:0:0:
289,79,31650,1,0,0:0:0:0:
295,204,31820,1,0,0:0:0:0:
295,204,31989,1,0,0:0:0:0:
148,172,32159,2,0,P|196:169|229:147,1,85
164,84,32498,5,0,1:0:0:0:
164,84,32667,2,0,L|70:71,2,85
63,183,33176,2,0,L|157:170,1,85
120,268,33514,6,0,P|180:292|292:292,1,170,0|0,1:0|0:0,0:0:0:0:
392,116,34023,2,0,P|332:92|220:92,2,170,0|0|0,1:0|0:0|0:0,0:0:0:0:
472,163,34870,2,0,L|465:338,1,170,0|0,0:0|1:0,0:0:0:0:
304,324,35379,2,0,P|260:317|216:325,1,85
68,368,35718,5,0,0:0:0:0:
112,216,35887,1,0,0:0:0:0:
220,323,36057,1,0,0:0:0:0:
68,368,36226,6,0,B|-16:332|0:224|0:224,1,170,4|8,1:0|1:0,0:0:0:0:
131,298,36735,2,0,L|164:208,1,85,0|0,1:0|0:0,0:0:0:0:
197,132,37074,1,0,0:0:0:0:
288,232,37243,2,0,P|359:278|441:296,1,170,8|0,1:0|1:0,0:0:0:0:
469,206,37752,5,0,1:0:0:0:
324,352,37921,1,8,1:0:0:0:
272,152,38091,1,0,1:0:0:0:
272,152,38430,5,0,0:0:0:0:
212,80,38599,2,0,P|248:61|297:64,1,85,8|0,1:0|0:0,0:0:0:0:
328,228,38938,2,0,P|291:246|242:242,1,85,0|0,1:0|0:0,0:0:0:0:
272,152,39277,5,8,1:0:0:0:
252,336,39447,2,0,P|212:326|177:292,1,85,0|0,1:0|0:0,0:0:0:0:
169,204,39786,1,0,0:0:0:0:
96,356,39955,1,8,1:0:0:0:
424,280,40294,5,0,1:0:0:0:
424,280,40464,1,0,1:0:0:0:
264,236,40634,1,8,1:0:0:0:
456,192,40803,1,0,1:0:0:0:
456,192,41142,5,0,0:0:0:0:
400,117,41311,2,0,P|362:102|302:100,1,85,8|0,1:0|0:0,0:0:0:0:
168,176,41650,2,0,P|140:205|114:259,1,85,0|0,1:0|0:0,0:0:0:0:
84,104,41989,1,8,1:0:0:0:
236,88,42159,2,0,P|206:60|151:35,1,85,0|0,1:0|0:0,0:0:0:0:
84,104,42498,5,0,0:0:0:0:
36,188,42667,1,8,1:0:0:0:
84,104,42837,1,0,0:0:0:0:
118,244,43006,1,0,1:0:0:0:
118,244,43176,1,0,1:0:0:0:
204,208,43345,5,8,1:0:0:0:
284,161,43514,2,0,P|297:201|284:255,1,85,0|0,1:0|0:0,0:0:0:0:
210,289,43853,1,0,0:0:0:0:
210,289,44023,2,0,P|197:249|210:195,1,85,8|0,1:0|0:0,0:0:0:0:
376,132,44362,2,0,P|389:215|364:304,1,170,0|8,1:0|1:0,0:0:0:0:
284,161,44870,6,0,L|258:66,1,85,0|0,1:0|0:0,0:0:0:0:
124,248,45209,2,0,L|208:250,1,85,0|8,0:0|1:0,0:0:0:0:
304,252,45548,1,0,0:0:0:0:
168,160,45718,5,0,1:0:0:0:
156,324,45887,1,0,1:0:0:0:
304,252,46057,1,8,1:0:0:0:
168,160,46226,2,0,L|-8:160,1,170,0|0,1:0|0:0,0:0:0:0:
72,308,46735,5,4,1:2:0:0:
168,160,46904,1,0,0:0:0:0:
244,324,47074,1,4,1:0:0:0:
244,324,47243,2,0,P|329:332|425:272,1,170,0|0,1:0|0:0,0:0:0:0:
479,351,47752,2,0,L|488:166,1,170,8|0,0:0|0:0,0:0:0:0:
312,160,48260,2,0,P|297:198|311:252,1,85,0|0,1:0|0:0,0:0:0:0:
392,209,48599,5,0,1:0:0:0:
272,332,48769,2,0,P|236:311|214:260,1,85,0|0,1:0|0:0,0:0:0:0:
232,96,49108,2,0,P|196:116|174:167,1,85,8|0,0:0|0:0,0:0:0:0:
48,260,49447,2,0,P|83:240|139:247,1,85
104,340,49786,5,0,1:0:0:0:
20,164,49955,2,0,P|34:125|82:96,1,85,0|0,1:0|0:0,0:0:0:0:
156,65,50294,1,0,0:0:0:0:
156,65,50464,2,0,P|234:86|324:75,1,170,8|0,0:0|0:0,0:0:0:0:
414,102,50972,2,0,P|428:188|402:270,1,170,0|0,1:0|1:0,0:0:0:0:
333,332,51481,1,0,0:0:0:0:
179,52,51820,1,8,0:0:0:0:
166,144,51989,2,0,P|121:129|96:96,1,85
166,144,52328,2,0,L|157:238,2,85,0|0|0,0:0|1:0|1:0,0:0:0:0:
179,52,52837,6,0,L|272:52,1,85
436,84,53176,2,0,L|335:84,1,85,8|0,0:0|0:0,0:0:0:0:
166,144,53514,1,0,0:0:0:0:
166,144,53684,2,0,L|259:144,1,85,0|0,1:0|0:0,0:0:0:0:
404,228,54023,1,0,0:0:0:0:
320,269,54192,2,0,L|219:269,1,85,0|0,1:0|0:0,0:0:0:0:
81,144,54531,2,0,L|166:144,1,85,8|0,1:0|0:0,0:0:0:0:
104,368,54870,2,0,L|3:368,1,85
60,280,55209,5,0,1:0:0:0:
60,280,55379,2,0,P|144:278|204:336,1,170,0|0,1:0|0:0,0:0:0:0:
308,334,55887,2,0,P|369:277|452:280,1,170,8|0,0:0|0:0,0:0:0:0:
434,358,56396,2,0,P|452:281|428:188,1,170,0|0,1:0|0:0,0:0:0:0:
371,121,56904,2,0,L|332:220,1,85,0|0,1:0|0:0,0:0:0:0:
256,156,57243,2,0,L|287:76,1,85,8|0,0:0|0:0,0:0:0:0:
200,44,57582,2,0,L|161:143,1,85
48,152,57921,6,0,P|83:203|184:244,1,170,4|8,1:0|1:0,0:0:0:0:
276,244,58430,2,0,L|372:240,1,85,0|0,1:0|0:0,0:0:0:0:
312,156,58769,1,0,1:0:0:0:
224,324,58938,1,8,1:0:0:0:
316,336,59108,1,0,0:0:0:0:
220,168,59277,5,0,1:0:0:0:
240,76,59447,1,0,1:0:0:0:
220,168,59616,1,8,1:0:0:0:
63,118,59786,2,0,P|103:106|146:109,1,85,0|0,1:0|0:0,0:0:0:0:
300,224,60125,2,0,P|340:236|382:233,1,85,0|8,1:0|1:0,0:0:0:0:
474,215,60464,1,0,0:0:0:0:
231,334,60633,6,0,P|211:248|219:165,1,170,0|8,1:0|1:0,0:0:0:0:
129,194,61142,2,0,P|151:109|198:39,1,170,0|0,1:0|1:0,0:0:0:0:
364,108,61650,1,8,1:0:0:0:
308,182,61820,1,0,0:0:0:0:
274,94,61989,1,0,1:0:0:0:
444,64,62159,6,0,P|455:105|440:161,1,85,0|8,1:0|1:0,0:0:0:0:
352,260,62498,2,0,P|311:271|255:256,1,85,0|0,1:0|0:0,0:0:0:0:
183,227,62837,1,0,1:0:0:0:
183,227,63006,2,0,L|163:331,1,85,8|0,1:0|0:0,0:0:0:0:
120,72,63345,5,0,1:0:0:0:
183,227,63514,1,0,0:0:0:0:
208,24,63684,1,8,1:0:0:0:
290,67,63853,6,0,P|265:102|220:116,1,85,0|0,1:0|0:0,0:0:0:0:
272,196,64192,2,0,P|297:231|341:245,1,85,0|8,0:0|1:0,0:0:0:0:
472,248,64531,1,0,1:0:0:0:
472,248,64701,2,0,P|447:283|402:297,1,85,0|0,1:0|1:0,0:0:0:0:
232,280,65040,1,8,1:0:0:0:
232,104,65209,2,0,P|195:127|179:170,1,85,0|0,1:0|0:0,0:0:0:0:
64,264,65548,2,0,P|101:242|147:248,1,85,0|8,0:0|1:0,0:0:0:0:
232,280,65887,1,0,0:0:0:0:
310,331,66057,5,8,1:0:0:0:
452,172,66226,1,0,1:0:0:0:
281,287,66396,5,8,1:0:0:0:
356,88,66565,1,0,1:0:0:0:
232,280,66735,5,8,1:0:0:0:
220,68,66904,1,0,1:0:0:0:
184,292,67074,5,8,1:0:0:0:
112,92,67243,1,0,1:0:0:0:
152,328,67413,5,0,0:0:0:0:
48,204,67583,1,0,1:0:0:0:
16,368,67752,1,0,1:0:0:0:
16,368,67921,2,0,P|49:341|69:294,1,85,0|0,1:0|0:0,0:0:0:0:
140,176,68260,6,0,P|186:170|228:188,1,85
312,162,68599,2,0,P|318:116|300:74,1,85
211,71,68938,1,0,0:0:0:0:
125,273,69108,1,0,1:0:0:0:
53,213,69277,1,0,0:0:0:0:
140,176,69447,1,0,0:0:0:0:
231,193,69616,2,0,P|231:155|208:113,1,85
156,320,69955,6,0,B|237:367|320:316|320:316,1,170,4|0,1:0|1:0,0:0:0:0:
408,288,70464,1,8,1:0:0:0:
344,219,70633,1,0,0:0:0:0:
318,317,70803,1,0,1:0:0:0:
468,360,70972,2,0,P|491:328|498:271,1,85,0|8,1:0|1:0,0:0:0:0:
400,132,71311,6,0,L|308:120,1,85,0|0,1:0|0:0,0:0:0:0:
124,216,71650,2,0,P|112:175|120:104,1,85,0|8,1:0|1:0,0:0:0:0:
208,52,71989,2,0,P|220:93|212:164,1,85,0|0,0:0|1:0,0:0:0:0:
24,288,72328,2,0,P|12:247|20:176,1,85,0|8,1:0|1:0,0:0:0:0:
276,304,72667,6,0,B|196:348|108:312|108:312,1,170,0|0,1:0|1:0,0:0:0:0:
109,127,73176,1,8,1:0:0:0:
170,197,73345,1,0,0:0:0:0:
203,110,73514,1,0,1:0:0:0:
157,28,73684,2,0,P|196:13|237:20,1,85,0|8,1:0|1:0,0:0:0:0:
36,176,74023,6,0,P|21:136|28:95,1,85,0|0,1:0|0:0,0:0:0:0:
203,110,74362,1,0,1:0:0:0:
170,197,74531,1,8,1:0:0:0:
109,127,74700,1,0,0:0:0:0:
248,248,74870,2,0,P|288:258|337:251,1,85,0|0,1:0|1:0,0:0:0:0:
216,336,75209,2,0,P|140:313|67:245,1,170,8|0,1:0|1:0,0:0:0:0:
50,162,75718,5,0,0:0:0:0:
142,175,75887,2,0,L|238:161,1,85,8|0,1:0|1:0,0:0:0:0:
240,272,76226,1,0,0:0:0:0:
240,272,76396,2,0,L|344:272,1,85,0|8,0:0|1:0,0:0:0:0:
383,198,76735,5,0,1:0:0:0:
383,198,76820,1,0,1:0:0:0:
383,198,76904,2,0,P|364:165|315:141,1,85,0|0,1:0|0:0,0:0:0:0:
448,104,77243,1,8,1:0:0:0:
488,204,77413,2,0,P|482:273|423:370,1,170,0|0,1:0|0:0,0:0:0:0:
340,357,77921,2,0,L|252:332,1,85,8|0,1:0|0:0,0:0:0:0:
44,268,78260,5,4,0:0:0:0:
76,44,78430,1,0,1:0:0:0:
76,44,78514,1,0,1:0:0:0:
76,44,78599,1,8,1:0:0:0:
256,192,78769,1,0,1:0:0:0:
256,192,78853,1,0,1:0:0:0:
256,192,78938,1,0,1:0:0:0:
168,100,79108,5,0,1:0:0:0:
220,324,79278,1,8,1:0:0:0:
388,168,79447,1,0,1:0:0:0:
388,168,79786,5,0,1:0:0:0:
220,324,79955,1,0,1:0:0:0:
304,64,80125,1,0,1:0:0:0:
368,328,80294,1,0,0:0:0:0:
112,232,80464,1,0,0:0:0:0:
112,232,80803,6,0,P|99:189|107:132,1,85,4|0,1:0|0:0,0:0:0:0:
184,105,81142,1,0,1:0:0:0:
40,296,81311,1,8,1:0:0:0:
208,208,81481,1,0,0:0:0:0:
0,148,81650,1,0,1:0:0:0:
208,208,81820,2,0,P|213:249|197:293,1,85,0|8,1:0|1:0,0:0:0:0:
420,304,82159,6,0,P|379:285|321:285,1,85,0|0,1:0|0:0,0:0:0:0:
392,168,82498,2,0,P|351:186|293:186,1,85,0|8,1:0|1:0,0:0:0:0:
328,88,82837,2,0,P|285:72|245:31,2,85,0|0|0,0:0|1:0|1:0,0:0:0:0:
412,47,83345,1,8,1:0:0:0:
489,98,83514,6,0,P|507:58|499:11,1,85,0|0,1:0|0:0,0:0:0:0:
392,168,83853,1,0,1:0:0:0:
392,168,84023,1,8,1:0:0:0:
400,336,84192,1,0,0:0:0:0:
400,336,84362,1,0,1:0:0:0:
496,192,84531,2,0,L|472:300,1,85,0|8,1:0|1:0,0:0:0:0:
236,332,84870,6,0,P|292:352|412:328,1,170,0|0,1:0|1:0,0:0:0:0:
324,156,85379,1,8,1:0:0:0:
360,241,85548,2,0,P|317:247|267:233,1,85,0|0,0:0|1:0,0:0:0:0:
186,213,85887,1,0,1:0:0:0:
184,32,86057,1,8,1:0:0:0:
184,32,86396,6,0,P|196:72|188:121,1,85,0|0,1:0|0:0,0:0:0:0:
24,88,86735,1,8,1:0:0:0:
24,88,86904,2,0,P|64:75|113:84,1,85,0|0,1:0|0:0,0:0:0:0:
73,169,87243,2,0,L|52:258,1,85,0|8,0:0|1:0,0:0:0:0:
208,344,87582,5,0,1:0:0:0:
208,344,87667,1,0,1:0:0:0:
208,344,87752,1,0,1:0:0:0:
232,184,87921,1,0,0:0:0:0:
352,296,88091,1,8,1:0:0:0:
120,336,88260,2,0,P|135:290|172:256,1,85,0|0,1:0|0:0,0:0:0:0:
267,271,88599,5,0,0:0:0:0:
296,359,88769,1,8,1:0:0:0:
208,344,88938,1,0,0:0:0:0:
280,144,89108,5,4,1:0:0:0:
384,220,89277,1,0,1:0:0:0:
267,271,89447,1,8,1:0:0:0:
152,48,89617,5,0,1:0:0:0:
280,144,89786,1,8,1:0:0:0:
132,208,89956,1,0,1:0:0:0:
256,32,90125,5,8,1:0:0:0:
176,304,90294,2,0,P|93:305|32:243,1,170,0|0,1:0|1:0,0:0:0:0:
152,48,90803,1,0,1:0:0:0:
267,271,90972,1,0,1:0:0:0:
342,215,91142,5,0,0:0:0:0:
342,215,91311,2,0,P|361:175|362:130,1,85
152,48,91650,2,0,P|133:88|132:133,1,85,4|0,1:0|0:0,0:0:0:0:
200,344,91989,5,0,1:0:0:0:
158,259,92159,2,0,L|58:250,1,85,8|0,1:0|0:0,0:0:0:0:
200,344,92498,5,0,1:0:0:0:
368,304,92667,1,0,1:0:0:0:
243,163,92837,1,8,1:0:0:0:
200,344,93006,6,0,P|238:354|290:342,1,85,0|0,1:0|0:0,0:0:0:0:
243,163,93345,1,0,1:0:0:0:
217,253,93515,1,8,1:0:0:0:
152,185,93684,1,0,0:0:0:0:
243,163,93854,5,0,1:0:0:0:
200,344,94023,1,0,1:0:0:0:
64,216,94192,1,8,1:0:0:0:
318,212,94362,6,0,P|330:172|321:117,1,85,0|0,1:0|0:0,0:0:0:0:
243,163,94701,1,0,1:0:0:0:
299,299,94870,2,0,P|336:301|384:276,1,85,8|0,1:0|0:0,0:0:0:0:
416,152,95209,1,0,1:0:0:0:
464,314,95379,2,0,P|468:272|451:215,1,85,0|8,1:0|1:0,0:0:0:0:
296,208,95718,2,0,L|308:36,1,170,0|0,1:0|1:0,0:0:0:0:
215,56,96226,6,0,L|206:163,1,85,8|0,1:0|0:0,0:0:0:0:
388,256,96565,1,0,1:0:0:0:
388,256,96735,2,0,L|395:171,1,85,0|8,1:0|1:0,0:0:0:0:
452,97,97074,2,0,P|436:57|390:22,1,85,4|0,1:0|0:0,0:0:0:0:
312,40,97413,5,0,1:0:0:0:
207,140,97583,2,0,L|294:132,1,85,8|0,1:0|0:0,0:0:0:0:
312,40,97922,5,0,1:0:0:0:
269,221,98091,1,0,1:0:0:0:
144,80,98261,1,8,1:0:0:0:
312,40,98430,6,0,P|274:30|222:42,1,85,0|0,0:0|1:0,0:0:0:0:
269,221,98769,1,0,1:0:0:0:
295,131,98939,1,8,1:0:0:0:
360,199,99108,1,0,0:0:0:0:
269,221,99278,5,0,1:0:0:0:
312,40,99447,1,0,1:0:0:0:
448,168,99616,1,8,1:0:0:0:
194,172,99786,6,0,P|182:212|191:267,1,85,0|0,0:0|1:0,0:0:0:0:
269,221,100125,1,0,1:0:0:0:
213,85,100294,2,0,P|175:82|127:107,1,85,8|0,1:0|0:0,0:0:0:0:
65,166,100632,1,0,1:0:0:0:
32,336,100803,1,0,1:0:0:0:
32,336,100887,1,0,1:0:0:0:
32,336,100972,1,8,1:0:0:0:
200,309,101142,2,0,P|171:278|132:262,1,85,0|0,1:0|0:0,0:0:0:0:
269,221,101481,5,0,0:0:0:0:
269,221,101565,1,0,1:0:0:0:
269,221,101650,2,0,L|365:227,1,85,0|0,1:0|0:0,0:0:0:0:
256,376,101989,1,0,1:0:0:0:
168,216,102159,5,0,1:0:0:0:
170,177,102243,1,0,1:0:0:0:
192,146,102328,1,0,1:0:0:0:
223,126,102413,1,0,1:0:0:0:
259,112,102498,1,0,1:0:0:0:
297,120,102582,1,0,1:0:0:0:
329,139,102667,2,0,P|407:154|496:134,1,170,4|8,1:0|0:0,0:0:0:0:
400,312,103176,6,0,P|345:253|255:203,1,170,0|0,1:0|0:0,0:0:0:0:
105,151,103684,2,0,P|131:186|144:244,1,85,8|0,0:0|0:0,0:0:0:0:
104,312,104023,2,0,P|72:342|16:362,2,85,0|0|8,1:0|1:0|0:0,0:0:0:0:
143,226,104531,2,0,P|223:239|320:231,1,170,0|0,1:0|0:0,0:0:0:0:
404,219,105040,1,8,0:0:0:0:
480,165,105209,1,0,0:0:0:0:
460,340,105379,6,0,P|479:308|486:248,1,85,0|0,1:0|0:0,0:0:0:0:
480,165,105718,1,8,0:0:0:0:
317,98,105887,2,0,P|349:115|410:119,1,85,0|0,1:0|0:0,0:0:0:0:
476,71,106226,1,0,0:0:0:0:
320,204,106396,2,0,P|287:221|226:225,1,85,8|0,0:0|0:0,0:0:0:0:
52,204,106735,5,0,1:0:0:0:
125,147,106904,1,0,1:0:0:0:
139,239,107074,1,8,0:0:0:0:
131,332,107243,2,0,P|90:321|62:291,1,85,0|0,1:0|0:0,0:0:0:0:
40,108,107582,1,0,0:0:0:0:
128,52,107752,2,0,P|168:63|197:93,1,85,8|0,0:0|0:0,0:0:0:0:
260,336,108091,6,0,L|255:167,1,170,0|8,1:0|0:0,0:0:0:0:
476,72,108599,2,0,L|482:242,1,170,0|0,1:0|0:0,0:0:0:0:
439,326,109108,1,8,0:0:0:0:
354,366,109277,1,0,0:0:0:0:
292,172,109447,5,0,1:0:0:0:
292,172,109616,1,0,1:0:0:0:
352,232,109786,1,8,0:0:0:0:
352,232,109955,2,0,B|440:184|424:80|424:80,1,170,0|0,1:0|0:0,0:0:0:0:
292,172,110464,2,0,B|380:220|364:324|364:324,1,170,8|0,0:0|1:0,0:0:0:0:
277,348,110972,5,0,0:0:0:0:
277,348,111142,1,8,0:0:0:0:
143,253,111311,2,0,P|114:222|109:157,1,85,0|0,1:0|0:0,0:0:0:0:
196,176,111650,1,0,0:0:0:0:
120,336,111820,1,8,0:0:0:0:
196,176,111989,1,0,0:0:0:0:
244,256,112159,5,0,1:0:0:0:
423,243,112328,1,0,1:0:0:0:
244,256,112498,1,8,0:0:0:0:
432,328,112667,2,0,B|511:267|479:167|479:167,1,170,0|0,1:0|0:0,0:0:0:0:
328,264,113176,2,0,B|231:286|174:197|174:197,1,170,8|4,0:0|0:0,0:0:0:0:
184,144,123006,5,0,1:0:0:0:
184,144,123176,1,0,1:0:0:0:
276,72,123345,1,0,0:0:0:0:
352,188,123514,5,0,1:0:0:0:
168,40,123684,1,0,1:0:0:0:
248,208,123853,1,0,1:0:0:0:
218,232,123938,1,0,1:0:0:0:
181,241,124023,1,0,1:0:0:0:
144,232,124108,1,0,1:0:0:0:
119,205,124192,1,0,1:0:0:0:
84,190,124277,1,0,1:0:0:0:
48,201,124362,2,0,B|-8:280|36:364|36:364,1,170,4|0,1:0|0:0,0:0:0:0:
188,296,124870,5,0,0:0:0:0:
108,340,125040,2,0,L|280:318,1,170,8|0,0:0|0:0,0:0:0:0:
376,220,125548,2,0,P|300:232|208:196,1,170,0|0,1:0|1:0,0:0:0:0:
120,144,126057,2,0,P|158:130|201:83,1,85,0|0,1:0|0:0,0:0:0:0:
274,58,126396,2,0,P|248:29|198:13,1,85,8|0,0:0|0:0,0:0:0:0:
48,224,126735,6,0,P|84:244|148:244,1,85
464,160,127074,2,0,P|428:140|364:140,1,85,0|0,1:0|1:0,0:0:0:0:
292,152,127413,1,0,0:0:0:0:
200,133,127582,2,0,P|202:84|227:45,2,85,0|8|0,0:0|0:0|0:0,0:0:0:0:
200,133,128091,1,0,0:0:0:0:
128,260,128260,6,0,P|212:240|304:255,1,170,0|0,1:0|1:0,0:0:0:0:
428,220,128769,2,0,P|357:169|266:149,1,170,0|8,0:0|0:0,0:0:0:0:
276,336,129277,1,0,0:0:0:0:
276,336,129447,1,0,0:0:0:0:
366,312,129616,6,0,P|410:303|474:304,1,85,0|0,0:0|1:0,0:0:0:0:
340,148,129955,1,0,1:0:0:0:
276,336,130125,2,0,P|232:327|168:328,1,85
24,296,130464,6,0,P|68:287|132:288,1,85,8|0,0:0|0:0,0:0:0:0:
196,236,130803,1,0,0:0:0:0:
99,109,130972,2,0,P|121:178|228:242,1,170,0|0,1:0|0:0,0:0:0:0:
160,48,131481,2,0,P|128:27|68:24,1,85,0|0,1:0|0:0,0:0:0:0:
316,68,131820,2,0,P|284:89|224:92,1,85,8|0,0:0|0:0,0:0:0:0:
344,232,132159,2,0,P|322:200|268:173,1,85
176,328,132498,6,0,L|286:322,1,85,0|0,1:0|1:0,0:0:0:0:
424,296,132837,1,0,0:0:0:0:
424,296,133006,2,0,P|441:258|440:212,2,85,0|8|0,0:0|0:0|0:0,0:0:0:0:
351,355,133514,1,0,0:0:0:0:
337,262,133684,2,0,L|314:82,1,170,0|0,1:0|0:0,0:0:0:0:
251,25,134192,6,0,P|224:65|224:107,1,85,0|0,1:0|0:0,0:0:0:0:
129,92,134531,2,0,P|134:139|161:172,2,85,8|0|0,0:0|0:0|0:0,0:0:0:0:
40,176,135040,1,0,0:0:0:0:
40,176,135209,2,0,L|61:350,1,170,4|8,1:0|1:0,0:0:0:0:
472,208,135718,2,0,L|451:34,1,170,0|0,1:0|1:0,0:0:0:0:
248,40,136226,2,0,P|226:77|228:123,1,85,8|0,1:0|0:0,0:0:0:0:
312,284,136565,5,0,1:0:0:0:
312,284,136735,2,0,L|330:199,1,85,0|8,1:0|1:0,0:0:0:0:
232,352,137074,2,0,L|196:272,1,85,0|0,1:0|0:0,0:0:0:0:
104,348,137413,1,0,1:0:0:0:
152,184,137582,1,8,1:0:0:0:
104,348,137752,1,0,0:0:0:0:
63,212,137921,6,0,P|43:140|-4:48,1,170,0|8,1:0|1:0,0:0:0:0:
152,184,138430,2,0,P|159:109|148:6,1,170,0|0,1:0|1:0,0:0:0:0:
284,112,138938,1,8,1:0:0:0:
284,112,139108,1,0,0:0:0:0:
449,172,139277,6,0,P|462:224|489:277,1,85,0|0,1:0|1:0,0:0:0:0:
280,312,139616,1,8,1:0:0:0:
372,120,139786,2,0,P|364:194|375:297,1,170,0|0,1:0|1:0,0:0:0:0:
256,192,140294,1,8,1:0:0:0:
256,192,140464,1,0,0:0:0:0:
108,328,140633,5,0,1:0:0:0:
32,176,140803,1,0,0:0:0:0:
108,328,140972,1,8,1:0:0:0:
32,176,141142,2,0,P|66:154|110:153,1,85,0|0,1:0|0:0,0:0:0:0:
152,236,141481,2,0,L|255:236,1,85,0|8,0:0|1:0,0:0:0:0:
332,236,141820,1,0,1:0:0:0:
404,328,141989,5,0,1:0:0:0:
480,176,142159,1,0,1:0:0:0:
404,328,142328,1,8,1:0:0:0:
480,176,142498,2,0,P|446:154|402:153,1,85,0|0,1:0|0:0,0:0:0:0:
332,236,142837,2,0,P|303:204|293:156,1,85,0|8,0:0|1:0,0:0:0:0:
292,164,143176,1,0,0:0:0:0:
202,331,143345,5,8,1:0:0:0:
60,172,143514,1,0,1:0:0:0:
231,287,143684,5,8,1:0:0:0:
156,88,143853,1,0,1:0:0:0:
280,280,144023,5,8,1:0:0:0:
292,68,144192,1,0,1:0:0:0:
328,292,144362,5,8,1:0:0:0:
400,92,144531,1,0,1:0:0:0:
360,328,144701,5,0,0:0:0:0:
464,204,144871,1,0,1:0:0:0:
496,368,145040,1,0,1:0:0:0:
496,368,145209,2,0,P|463:341|443:294,1,85,0|0,1:0|0:0,0:0:0:0:
372,176,145548,6,0,P|326:170|284:188,1,85
200,162,145887,2,0,P|194:116|212:74,1,85
301,71,146226,1,0,0:0:0:0:
387,273,146396,1,0,1:0:0:0:
459,213,146565,1,0,0:0:0:0:
372,176,146735,1,0,0:0:0:0:
281,193,146904,2,0,P|281:155|304:113,1,85
208,332,147243,6,0,B|123:292|117:195|117:195,1,170,4|0,1:0|1:0,0:0:0:0:
52,60,147752,2,0,L|39:177,1,85,8|0,1:0|0:0,0:0:0:0:
16,344,148091,1,0,1:0:0:0:
16,344,148260,2,0,L|25:259,1,85,0|8,1:0|1:0,0:0:0:0:
128,280,148599,6,0,L|200:208,1,85,0|0,1:0|0:0,0:0:0:0:
268,153,148938,2,0,P|309:141|380:149,1,85,0|8,1:0|1:0,0:0:0:0:
304,296,149277,2,0,P|263:308|192:300,1,85,0|0,0:0|1:0,0:0:0:0:
92,104,149616,2,0,P|134:111|194:149,1,85,0|8,1:0|1:0,0:0:0:0:
416,312,149955,6,0,B|480:256|480:160|480:160,1,170,0|0,1:0|1:0,0:0:0:0:
450,69,150464,2,0,L|352:58,1,85,8|0,1:0|0:0,0:0:0:0:
171,129,150803,1,0,1:0:0:0:
230,200,150972,2,0,L|314:209,1,85,0|8,1:0|1:0,0:0:0:0:
276,84,151311,6,0,B|220:20|124:20|124:20,1,170,0|0,1:0|1:0,0:0:0:0:
31,39,151820,2,0,L|40:152,1,85,8|0,1:0|0:0,0:0:0:0:
76,312,152159,1,0,1:0:0:0:
144,184,152328,1,0,1:0:0:0:
236,300,152498,2,0,B|316:352|412:309|412:309,1,170,8|0,1:0|1:0,0:0:0:0:
336,136,153006,5,0,0:0:0:0:
272,216,153176,2,0,L|227:138,1,85,8|0,1:0|1:0,0:0:0:0:
241,49,153514,1,0,0:0:0:0:
160,224,153684,2,0,P|136:191|134:134,1,85,0|8,0:0|1:0,0:0:0:0:
241,49,154023,5,0,1:0:0:0:
241,49,154108,1,0,1:0:0:0:
241,49,154192,2,0,L|424:62,1,170,0|8,1:0|1:0,0:0:0:0:
271,335,154701,2,0,L|88:322,1,170,0|0,1:0|0:0,0:0:0:0:
7,326,155209,2,0,P|13:283|55:244,1,85,8|0,1:0|0:0,0:0:0:0:
260,136,155548,6,0,L|252:232,1,85,4|0,1:0|1:0,0:0:0:0:
251,249,155803,1,0,1:0:0:0:
251,249,155887,1,8,1:0:0:0:
268,44,156057,1,0,1:0:0:0:
268,44,156142,1,0,1:0:0:0:
268,44,156226,1,0,1:0:0:0:
380,300,156396,5,0,1:0:0:0:
103,271,156565,1,8,1:0:0:0:
268,44,156735,1,0,1:0:0:0:
268,44,157074,5,0,1:0:0:0:
128,80,157243,1,0,1:0:0:0:
264,144,157413,1,0,1:0:0:0:
128,80,157582,1,0,0:0:0:0:
160,248,157752,2,0,P|175:206|168:152,1,85
48,184,158091,6,0,B|-5:290|76:355|76:355,1,170,4|0,1:0|1:0,0:0:0:0:
163,366,158599,2,0,L|337:347,1,170,8|0,0:0|1:0,0:0:0:0:
332,201,159108,1,0,1:0:0:0:
332,201,159277,1,8,1:0:0:0:
240,184,159447,2,0,L|146:172,1,85,0|0,1:0|0:0,0:0:0:0:
247,337,159786,2,0,L|331:347,1,85,0|8,1:0|1:0,0:0:0:0:
444,224,160125,6,0,P|397:222|354:241,1,85,0|0,0:0|1:0,0:0:0:0:
140,364,160464,2,0,P|123:319|128:273,1,85,0|8,1:0|1:0,0:0:0:0:
240,184,160803,2,0,P|239:231|218:272,1,85,0|0,1:0|0:0,0:0:0:0:
52,212,161142,5,0,1:0:0:0:
52,212,161312,1,8,1:0:0:0:
76,113,161481,1,0,0:0:0:0:
76,113,161651,1,0,1:0:0:0:
240,184,161820,2,0,P|194:186|144:156,1,85,0|8,1:0|1:0,0:0:0:0:
224,32,162159,2,0,P|270:30|320:60,1,85,0|0,1:0|0:0,0:0:0:0:
472,152,162498,5,0,1:0:0:0:
368,280,162667,1,8,1:0:0:0:
472,152,162837,5,0,0:0:0:0:
388,188,163006,1,0,1:0:0:0:
472,152,163176,1,0,1:0:0:0:
468,244,163345,2,0,L|456:336,1,85,8|0,1:0|0:0,0:0:0:0:
288,208,163684,6,0,P|247:200|205:210,1,85,0|0,1:0|0:0,0:0:0:0:
176,300,164023,1,8,1:0:0:0:
372,244,164192,2,0,P|379:203|370:161,1,85,0|0,1:0|0:0,0:0:0:0:
263,26,164531,2,0,P|301:44|331:75,1,85,0|8,0:0|1:0,0:0:0:0:
172,48,164870,1,0,1:0:0:0:
172,48,164955,1,0,1:0:0:0:
172,48,165040,1,0,1:0:0:0:
96,200,165209,5,0,0:0:0:0:
76,28,165379,1,8,1:0:0:0:
224,120,165548,2,0,B|240:212|156:268|156:268,1,170,0|0,1:0|0:0,0:0:0:0:
32,332,166057,2,0,L|138:344,1,85,8|0,1:0|0:0,0:0:0:0:
460,260,166396,2,0,L|375:250,1,85,4|0,1:0|1:0,0:0:0:0:
128,204,166735,5,8,1:0:0:0:
280,44,166904,1,0,1:0:0:0:
288,328,167074,1,8,1:0:0:0:
136,92,167243,1,0,1:0:0:0:
392,216,167413,1,8,1:0:0:0:
88,240,167582,2,0,B|165:284|253:232|253:232,1,170,0|0,1:0|1:0,0:0:0:0:
184,104,168091,1,0,1:0:0:0:
88,352,168260,1,0,1:0:0:0:
24,160,168430,2,0,P|68:155|118:170,1,85
480,128,168938,6,0,B|397:171|315:120|315:120,1,170,4|0,1:0|1:0,0:0:0:0:
244,72,169447,1,0,1:0:0:0:
200,154,169616,1,0,0:0:0:0:
213,246,169786,2,0,P|252:231|282:189,1,85,8|0,0:0|0:0,0:0:0:0:
156,76,170125,1,0,0:0:0:0:
134,201,170294,2,0,P|160:168|200:154,1,85,0|0,1:0|0:0,0:0:0:0:
200,340,170633,1,0,1:0:0:0:
200,340,170803,2,0,P|160:325|130:283,1,85,0|0,1:0|0:0,0:0:0:0:
213,246,171142,5,8,0:0:0:0:
306,246,171311,2,0,L|497:246,1,170
512,160,171820,1,0,1:0:0:0:
512,160,171990,1,0,1:0:0:0:
464,80,172159,2,0,P|424:72|380:84,1,85,0|0,1:0|0:0,0:0:0:0:
192,108,172498,5,8,0:0:0:0:
312,160,172667,1,0,0:0:0:0:
192,108,172837,1,0,0:0:0:0:
312,160,173006,2,0,L|207:204,1,85,0|0,1:0|0:0,0:0:0:0:
112,292,173345,1,0,1:0:0:0:
112,292,173514,2,0,L|217:336,1,85,0|0,1:0|0:0,0:0:0:0:
281,345,173853,1,8,0:0:0:0:
155,164,174023,2,0,P|195:171|240:199,1,85
308,249,174362,1,0,0:0:0:0:
252,64,174531,5,0,1:0:0:0:
252,64,174701,1,0,1:0:0:0:
36,116,174870,1,0,1:0:0:0:
87,37,175040,2,0,P|123:26|178:29,1,85,0|8,0:0|0:0,0:0:0:0:
352,24,175379,2,0,P|355:68|345:108,1,85
429,172,175718,2,0,P|428:123|446:91,1,85,0|0,1:0|0:0,0:0:0:0:
345,107,176057,1,0,1:0:0:0:
288,176,176226,6,0,P|278:251|302:356,1,170,0|8,1:0|0:0,0:0:0:0:
208,340,176735,2,0,P|126:296|46:286,1,170
208,340,177243,5,0,1:0:0:0:
184,160,177413,1,0,1:0:0:0:
184,160,177582,2,0,P|207:198|212:266,1,85,0|0,1:0|0:0,0:0:0:0:
352,224,177921,1,8,0:0:0:0:
352,224,178091,2,0,P|375:186|380:118,1,85,0|0,1:0|0:0,0:0:0:0:
468,360,178430,2,0,P|507:286|508:198,2,170,0|0|0,1:0|0:0|0:0,0:0:0:0:
381,324,179277,6,0,L|286:317,1,85
210,356,179616,1,0,0:0:0:0:
256,192,179786,2,0,P|256:148|240:104,1,85,4|0,1:0|0:0,0:0:0:0:
68,40,180125,1,0,1:0:0:0:
100,216,180294,2,0,P|128:182|144:138,1,85,8|0,1:0|0:0,0:0:0:0:
36,148,180633,5,0,1:0:0:0:
100,216,180803,1,0,1:0:0:0:
183,257,180972,1,8,1:0:0:0:
36,332,181142,2,0,P|81:333|119:310,1,85,0|0,1:0|0:0,0:0:0:0:
276,236,181481,1,0,1:0:0:0:
276,236,181565,1,0,1:0:0:0:
276,236,181650,2,0,L|306:329,2,85,8|0|0,1:0|0:0|1:0,0:0:0:0:
248,144,182159,5,0,1:0:0:0:
200,332,182328,1,8,1:0:0:0:
388,280,182498,2,0,B|436:196|404:104|404:104,1,170,0|0,1:0|1:0,0:0:0:0:
199,129,183006,5,8,1:0:0:0:
275,73,183175,1,0,0:0:0:0:
199,129,183345,1,0,1:0:0:0:
320,176,183514,1,0,1:0:0:0:
199,129,183684,1,8,1:0:0:0:
368,260,183853,2,0,P|354:295|329:335,1,85,0|0,1:0|2:0,0:0:0:0:
199,129,184192,1,0,1:0:0:0:
196,360,184362,2,0,P|219:324|234:284,1,85,8|0,1:0|2:0,0:0:0:0:
80,188,184701,5,0,1:0:0:0:
132,280,184870,1,0,1:0:0:0:
199,129,185040,1,8,1:0:0:0:
132,280,185209,1,0,0:0:0:0:
136,60,185379,6,0,P|170:38|232:44,1,85,0|0,1:0|0:0,0:0:0:0:
199,129,185718,1,8,1:0:0:0:
261,198,185887,2,0,P|227:220|165:214,1,85,0|0,1:0|0:0,0:0:0:0:
199,129,186226,5,0,0:0:0:0:
288,332,186396,1,8,1:0:0:0:
432,164,186565,1,0,1:0:0:0:
432,164,186650,1,0,1:0:0:0:
432,164,186735,1,0,1:0:0:0:
261,198,186904,5,0,0:0:0:0:
292,109,187074,1,8,1:0:0:0:
336,272,187243,2,0,P|256:292|172:260,1,170,0|0,1:0|0:0,0:0:0:0:
101,207,187752,1,8,1:0:0:0:
43,133,187921,1,0,0:0:0:0:
96,328,188091,6,0,P|77:296|70:236,1,85,8|0,1:0|1:0,0:0:0:0:
82,226,188345,1,0,1:0:0:0:
101,207,188430,2,0,P|133:190|194:186,1,85,8|0,1:0|1:0,0:0:0:0:
346,327,188769,2,0,P|315:307|281:256,1,85,8|0,1:0|1:0,0:0:0:0:
328,56,189108,1,8,1:0:0:0:
328,56,189277,2,0,P|326:92|299:147,1,85,0|0,1:0|0:0,0:0:0:0:
101,207,189616,5,0,1:0:0:0:
328,56,189786,1,0,1:0:0:0:
346,327,189955,1,0,1:0:0:0:
101,207,190125,1,0,0:0:0:0:
328,56,190294,2,0,B|392:136|336:223,1,170,0|4,0:0|0:0,0:0:0:0:
37,122,196226,6,0,P|103:111|167:126,1,127.500004863739,2|0,0:0|0:0,0:0:0:0:
214,188,196735,1,0,0:0:0:0:
214,188,196904,1,0,0:0:0:0:
270,249,197074,2,0,L|125:231,1,127.500004863739
77,292,197582,6,0,P|105:312|153:321,1,63.7500024318696
215,348,197921,1,0,0:0:0:0:
215,348,198091,2,0,P|277:356|358:335,1,127.500004863739
414,305,198599,1,0,0:0:0:0:
324,85,198938,6,0,P|309:119|319:157,1,63.7500024318696
356,214,199277,1,0,0:0:0:0:
356,214,199447,2,0,B|496:208,2,127.500004863739
171,152,200633,5,0,0:0:0:0:
171,152,200803,1,0,0:0:0:0:
236,224,200972,1,0,0:0:0:0:
236,224,201142,2,0,P|258:189|264:150,1,63.7500024318696
256,64,201481,6,0,B|168:36|88:68|88:68,1,170,4|0,1:0|1:0,0:0:0:0:
56,156,201989,1,8,1:0:0:0:
148,336,202159,1,0,0:0:0:0:
264,168,202328,1,0,1:0:0:0:
56,156,202498,2,0,B|98:143|144:148|144:148,1,85,0|8,1:0|1:0,0:0:0:0:
456,228,202837,6,0,B|414:241|368:236|368:236,1,85,0|0,1:0|0:0,0:0:0:0:
168,40,203176,2,0,B|206:62|233:100|233:100,1,85,0|8,1:0|1:0,0:0:0:0:
344,344,203515,2,0,B|306:322|279:284|279:284,1,85,0|0,0:0|1:0,0:0:0:0:
336,68,203853,2,0,B|347:104|339:150|339:150,1,85,0|8,1:0|1:0,0:0:0:0:
184,340,204192,6,0,P|128:348|24:292,1,170,0|0,1:0|1:0,0:0:0:0:
179,102,204701,1,8,1:0:0:0:
338,152,204870,1,0,0:0:0:0:
338,152,205040,1,0,1:0:0:0:
165,182,205209,2,0,P|163:136|193:86,1,85,0|8,1:0|1:0,0:0:0:0:
432,128,205548,2,0,P|434:174|404:224,1,85,0|0,1:0|0:0,0:0:0:0:
280,296,205887,5,0,1:0:0:0:
272,32,206057,1,8,1:0:0:0:
272,32,206226,2,0,L|276:129,1,85,0|0,0:0|1:0,0:0:0:0:
68,324,206565,1,0,1:0:0:0:
68,324,206735,2,0,L|64:227,1,85,8|0,1:0|0:0,0:0:0:0:
275,116,207074,5,0,1:0:0:0:
250,206,207243,1,0,1:0:0:0:
179,144,207413,1,8,1:0:0:0:
247,29,207582,2,0,P|289:27|335:44,1,85,0|0,1:0|0:0,0:0:0:0:
160,240,207921,2,0,P|118:242|72:225,1,85,0|8,0:0|1:0,0:0:0:0:
179,144,208260,5,0,1:0:0:0:
179,144,208345,1,8,1:0:0:0:
179,144,208429,1,0,1:0:0:0:
260,340,208599,1,0,0:0:0:0:
380,164,208769,1,8,1:0:0:0:
89,178,208938,2,0,P|83:136|96:96,1,85,0|0,1:0|0:0,0:0:0:0:
178,51,209277,1,0,0:0:0:0:
252,240,209447,2,0,P|293:250|349:233,1,85,8|0,1:0|0:0,0:0:0:0:
480,96,209786,6,0,L|468:200,1,85,4|0,1:0|1:0,0:0:0:0:
236,344,210125,1,8,1:0:0:0:
268,128,210294,1,0,1:0:0:0:
268,128,210379,1,0,1:0:0:0:
268,128,210463,1,8,1:0:0:0:
440,264,210633,1,0,1:0:0:0:
440,264,210718,1,0,1:0:0:0:
440,264,210802,1,8,1:0:0:0:
236,344,210972,6,0,P|144:348|60:320,1,170,0|0,1:0|1:0,0:0:0:0:
51,232,211481,1,0,1:0:0:0:
160,64,211650,1,0,1:0:0:0:
244,248,211820,1,0,0:0:0:0:
244,248,211989,2,0,P|200:241|162:212,1,85
280,68,212328,2,0,P|320:49|365:48,1,85,4|0,1:0|0:0,0:0:0:0:
400,220,212667,5,0,1:0:0:0:
314,182,212837,1,8,1:0:0:0:
390,129,213006,1,0,0:0:0:0:
340,344,213176,5,0,1:0:0:0:
152,284,213345,1,0,1:0:0:0:
340,344,213515,1,8,1:0:0:0:
72,332,213684,2,0,P|62:294|74:242,1,85,0|0,1:0|0:0,0:0:0:0:
232,72,214023,5,0,1:0:0:0:
207,162,214193,1,8,1:0:0:0:
137,99,214362,1,0,0:0:0:0:
252,44,214532,5,0,1:0:0:0:
220,192,214701,1,0,1:0:0:0:
104,92,214870,1,8,1:0:0:0:
320,156,215040,6,0,P|335:116|332:56,1,85,0|0,1:0|0:0,0:0:0:0:
284,256,215379,1,0,1:0:0:0:
88,208,215548,2,0,P|117:239|172:262,1,85,8|0,1:0|0:0,0:0:0:0:
220,192,215887,1,0,1:0:0:0:
256,288,216057,1,0,1:0:0:0:
220,192,216226,1,8,1:0:0:0:
256,288,216396,2,0,L|268:116,1,170,0|0,1:0|1:0,0:0:0:0:
392,68,216904,6,0,L|383:175,1,85,8|0,1:0|0:0,0:0:0:0:
444,340,217243,1,0,1:0:0:0:
444,340,217413,2,0,L|451:255,1,85,0|8,1:0|1:0,0:0:0:0:
296,36,217752,2,0,P|253:33|201:60,1,85,4|0,1:0|0:0,0:0:0:0:
232,344,218090,5,0,1:0:0:0:
317,306,218260,1,8,1:0:0:0:
242,250,218429,1,0,0:0:0:0:
232,344,218599,5,0,1:0:0:0:
332,212,218768,1,0,1:0:0:0:
232,344,218938,1,8,1:0:0:0:
332,212,219108,2,0,P|309:179|261:155,1,85,0|0,0:0|1:0,0:0:0:0:
177,144,219446,5,0,1:0:0:0:
348,80,219616,1,8,1:0:0:0:
177,144,219785,1,0,0:0:0:0:
332,212,219955,5,0,1:0:0:0:
128,236,220124,1,0,1:0:0:0:
332,212,220293,1,8,1:0:0:0:
128,236,220463,2,0,P|88:220|45:178,1,85,0|0,0:0|1:0,0:0:0:0:
85,103,220802,5,0,1:0:0:0:
244,56,220972,2,0,P|214:87|159:110,1,85,8|0,1:0|0:0,0:0:0:0:
244,56,221310,1,0,1:0:0:0:
272,216,221481,1,0,1:0:0:0:
336,24,221650,1,8,1:0:0:0:
272,216,221820,2,0,P|313:229|364:223,1,85,0|0,0:0|1:0,0:0:0:0:
440,187,222159,5,0,1:0:0:0:
324,128,222328,1,8,1:0:0:0:
218,321,222498,1,0,0:0:0:0:
208,56,222667,1,0,1:0:0:0:
52,312,222837,1,0,1:0:0:0:
48,292,222921,1,0,1:0:0:0:
44,272,223006,1,8,1:0:0:0:
40,252,223091,1,0,1:0:0:0:
36,232,223176,1,0,1:0:0:0:
32,212,223260,1,0,1:0:0:0:
28,192,223345,2,0,P|67:170|108:164,1,85,4|0,1:0|0:0,0:0:0:0:
288,320,223684,6,0,P|249:342|208:348,1,85,8|0,1:0|0:0,0:0:0:0:
288,228,224023,2,0,P|328:238|363:263,1,85,0|0,1:0|0:0,0:0:0:0:
292,124,224362,2,0,P|255:145|213:152,1,85,8|0,1:0|0:0,0:0:0:0:
112,216,224701,6,0,P|148:237|190:244,1,85,0|0,1:0|0:0,0:0:0:0:
392,144,225040,2,0,P|392:96|376:60,1,85,8|0,1:0|0:0,0:0:0:0:
276,256,225379,2,0,P|276:304|292:340,1,85,0|0,1:0|0:0,0:0:0:0:
240,72,225718,2,0,P|192:72|156:88,1,85,8|0,1:0|0:0,0:0:0:0:
28,184,226057,6,0,P|76:184|112:168,1,85,0|0,1:0|0:0,0:0:0:0:
80,288,226396,2,0,P|123:309|162:310,1,85,8|0,1:0|0:0,0:0:0:0:
484,200,226735,2,0,P|436:200|400:216,1,85,0|0,1:0|0:0,0:0:0:0:
432,96,227074,2,0,P|388:74|349:73,1,85,8|0,1:0|0:0,0:0:0:0:
152,220,227413,5,0,1:0:0:0:
172,252,227498,1,0,1:0:0:0:
206,267,227582,1,0,1:0:0:0:
244,264,227667,1,0,1:0:0:0:
277,244,227752,1,0,1:0:0:0:
295,209,227837,1,0,1:0:0:0:
298,171,227921,1,0,1:0:0:0:
298,171,228006,1,0,1:0:0:0:
298,171,228091,2,0,L|292:133,12,21.25,0|0|0|0|0|0|0|0|0|0|0|0|4,1:0|1:0|1:0|1:0|1:0|1:0|1:0|1:0|1:0|1:0|1:0|1:0|1:0,0:0:0:0:
256,192,228684,12,0,233176,0:0:0:0:
