osu file format v14

[General]
AudioFilename: Amadeus.mp3
AudioLeadIn: 0
PreviewTime: 68430
Countdown: 0
SampleSet: Soft
StackLeniency: 0.7
Mode: 0
LetterboxInBreaks: 0
WidescreenStoryboard: 0

[Editor]
DistanceSpacing: 1.3
BeatDivisor: 4
GridSize: 8
TimelineZoom: 1.9

[Metadata]
Title:Amadeus
TitleUnicode:アマデウス
Artist:Ito Kanako
ArtistUnicode:いとうかなこ
Creator:FrostxE
Version:Hard
Source:STEINS;GATE 0
Tags:シュタインズ・ゲート ゼロ Frostmourne
BeatmapID:863620
BeatmapSetID:384688

[Difficulty]
HPDrainRate:5
CircleSize:4
OverallDifficulty:6
ApproachRate:7.7
SliderMultiplier:1.3
SliderTickRate:1

[Events]
//Background and Video events
0,0,"bgblack.jpg",0,0
//Break Periods
2,113714,122211
2,190832,195431
//Storyboard Layer 0 (Background)
//Storyboard Layer 1 (Fail)
//Storyboard Layer 2 (Pass)
//Storyboard Layer 3 (Foreground)
//Storyboard Sound Samples

[TimingPoints]
953,338.983050847458,4,2,1,20,1,0
953,-200,4,2,1,20,0,0
13176,338.983050847458,4,1,1,40,1,0
14531,-100,4,2,1,60,0,0
68091,-100,4,2,1,30,0,0
69955,-100,4,2,1,60,0,1
91650,-100,4,2,1,60,0,0
145379,-100,4,2,1,30,0,0
147243,-100,4,2,1,60,0,1
168938,-100,4,2,1,60,0,0
196226,-133.333333333333,4,2,1,30,0,0
201481,-100,4,2,1,60,0,1
212328,-100,4,2,1,60,0,0
228769,-100,4,2,1,20,0,0
230125,-100,4,2,1,10,0,0
231142,-100,4,2,1,5,0,0

[Colours]
Combo1 : 168,168,213
Combo2 : 192,192,192

[HitObjects]
471,196,953,6,0,B|442:269|370:287|370:287,1,130,2|0,0:0|0:0,0:0:0:0:
224,144,1969,1,0,0:0:0:0:
224,144,2139,1,0,0:0:0:0:
224,144,2308,2,0,L|243:37,2,97.5,0|0|0,0:0|0:0|0:0,0:0:0:0:
228,228,3664,6,0,P|259:269|397:302,1,195
463,257,5020,1,0,0:0:0:0:
394,207,5359,2,0,P|359:162|357:84,1,130
375,53,6207,1,0,0:0:0:0:
413,35,6376,2,0,L|525:45,2,97.5
235,160,7732,6,0,P|174:144|112:110,1,130
320,72,9088,2,0,L|332:184,2,97.5,0|0|0,0:0|0:0|0:0,0:0:0:0:
256,192,10783,12,0,12308,0:0:0:0:
233,293,13176,6,0,L|223:226,1,65,0|0,0:0|0:0,0:0:0:0:
255,150,13514,1,0,0:0:0:0:
304,218,13684,1,0,0:0:0:0:
341,142,13853,1,0,0:0:0:0:
400,220,14023,1,0,0:0:0:0:
400,220,14108,1,0,0:0:0:0:
400,220,14192,2,0,P|417:228|447:222,4,32.5,0|0|0|0|4,0:0|0:0|0:0|0:0|1:0,0:0:0:0:
322,36,14870,5,8,1:0:0:0:
322,36,15040,2,0,P|291:26|250:32,1,65,0|0,0:0|1:0,0:0:0:0:
178,53,15379,2,0,L|185:127,1,65,0|8,0:0|1:0,0:0:0:0:
124,236,15718,2,0,L|117:171,1,65,0|0,0:0|1:0,0:0:0:0:
208,200,16057,2,0,L|215:274,1,65,0|8,0:0|1:0,0:0:0:0:
292,220,16396,2,0,L|285:155,2,65,0|0|0,0:0|1:0|0:0,0:0:0:0:
300,304,16904,1,8,1:0:0:0:
406,115,17243,6,0,P|428:84|468:67,1,65,0|0,1:0|0:0,0:0:0:0:
496,142,17582,1,8,1:0:0:0:
496,142,17752,2,0,L|488:215,1,65,0|0,0:0|1:0,0:0:0:0:
447,280,18091,1,0,0:0:0:0:
447,280,18261,1,8,1:0:0:0:
374,236,18430,6,0,P|343:227|300:240,1,65,0|0,0:0|1:0,0:0:0:0:
233,266,18769,2,0,P|224:297|237:340,1,65,0|8,0:0|1:0,0:0:0:0:
136,324,19108,2,0,P|145:293|132:250,1,65,0|0,0:0|1:0,0:0:0:0:
57,285,19447,2,0,P|37:259|34:214,1,65,0|8,0:0|1:0,0:0:0:0:
40,16,19955,6,0,L|56:164,1,130,0|8,1:0|1:0,0:0:0:0:
132,178,20464,1,0,0:0:0:0:
212,153,20633,2,0,P|223:118|218:74,2,65,0|0|8,1:0|0:0|1:0,0:0:0:0:
282,201,21142,2,0,P|271:236|276:280,1,65,0|0,0:0|1:0,0:0:0:0:
336,319,21481,2,0,P|371:330|415:325,1,65,0|8,0:0|1:0,0:0:0:0:
483,326,21820,2,0,L|490:238,1,65,0|0,0:0|1:0,0:0:0:0:
435,195,22159,6,0,P|435:162|448:128,2,65,0|8|0,0:0|1:0|0:0,0:0:0:0:
350,199,22667,2,0,P|321:182|298:154,2,65,0|0|8,1:0|0:0|1:0,0:0:0:0:
315,276,23176,2,0,P|282:274|248:260,1,65,0|0,0:0|1:0,0:0:0:0:
181,217,23514,1,0,0:0:0:0:
118,160,23684,1,8,1:0:0:0:
88,316,23853,1,2,0:0:0:0:
256,192,24023,12,0,25379,1:0:0:0:
24,108,25887,6,0,B|44:180|120:200|120:200,1,130,0|0,1:0|0:0,0:0:0:0:
192,168,26396,1,0,0:0:0:0:
192,168,26565,1,0,0:0:0:0:
268,132,26735,2,0,L|284:288,1,130,0|0,0:0|1:0,0:0:0:0:
364,256,27243,2,0,L|350:126,1,130,0|0,0:0|0:0,0:0:0:0:
416,72,27752,1,0,0:0:0:0:
488,344,28091,6,0,P|508:312|496:216,1,130,0|0,1:0|0:0,0:0:0:0:
459,149,28599,2,0,L|331:208,1,130,0|0,1:0|0:0,0:0:0:0:
266,245,29108,1,0,0:0:0:0:
285,327,29277,1,0,0:0:0:0:
360,289,29447,1,0,0:0:0:0:
72,292,29786,1,0,1:0:0:0:
72,292,29955,2,0,L|221:309,1,130,0|0,0:0|0:0,0:0:0:0:
184,223,30464,2,0,P|145:218|105:198,1,65,0|0,0:0|0:0,0:0:0:0:
36,210,30803,6,0,L|20:58,1,130,0|0,1:0|0:0,0:0:0:0:
84,20,31311,2,0,B|144:-8|218:15|218:15,1,130,0|0,1:0|0:0,0:0:0:0:
269,76,31820,1,0,0:0:0:0:
269,76,31989,1,0,0:0:0:0:
298,155,32159,2,0,B|238:183|163:159|163:159,1,130,0|0,0:0|1:0,0:0:0:0:
147,243,32667,1,0,0:0:0:0:
360,352,33006,1,0,0:0:0:0:
360,352,33176,1,0,0:0:0:0:
336,72,33514,6,0,L|464:89,1,130,0|0,1:0|0:0,0:0:0:0:
490,170,34023,1,0,1:0:0:0:
384,364,34362,2,0,P|357:316|361:231,1,130,0|0,0:0|0:0,0:0:0:0:
276,270,34870,2,0,P|277:214|324:144,1,130,0|0,0:0|1:0,0:0:0:0:
340,72,35379,2,0,B|267:14|145:44,1,195,0|0,0:0|0:0,0:0:0:0:
0,364,36226,6,0,L|144:356,1,130,4|8,1:0|1:0,0:0:0:0:
213,374,36735,2,0,L|238:230,1,130,0|0,1:0|0:0,0:0:0:0:
261,165,37243,2,0,P|256:129|227:100,1,65,8|0,1:0|0:0,0:0:0:0:
163,146,37582,1,0,1:0:0:0:
163,146,37752,1,0,1:0:0:0:
140,64,37921,1,8,1:0:0:0:
80,124,38091,1,0,1:0:0:0:
268,300,38430,2,0,L|287:348,2,32.5,0|0|8,0:0|0:0|1:0,0:0:0:0:
488,96,38938,6,0,P|417:102|354:60,1,130,0|8,1:0|1:0,0:0:0:0:
299,10,39447,2,0,L|274:154,1,130,0|0,1:0|0:0,0:0:0:0:
251,219,39955,2,0,P|256:255|285:284,1,65,8|0,1:0|0:0,0:0:0:0:
349,238,40294,1,0,1:0:0:0:
349,238,40464,1,0,1:0:0:0:
372,320,40633,1,8,1:0:0:0:
432,260,40803,1,0,1:0:0:0:
470,96,41142,2,0,L|479:46,2,32.5,0|0|8,0:0|0:0|1:0,0:0:0:0:
254,161,41650,6,0,L|248:32,1,130,0|8,1:0|1:0,0:0:0:0:
167,60,42159,2,0,L|173:189,1,130,0|0,1:0|0:0,0:0:0:0:
254,161,42667,1,8,1:0:0:0:
323,209,42837,1,0,0:0:0:0:
250,251,43006,2,0,P|210:277|122:273,1,130,0|8,1:0|1:0,0:0:0:0:
57,231,43514,2,0,L|50:86,1,130,0|0,1:0|0:0,0:0:0:0:
109,39,44023,1,8,1:0:0:0:
264,212,44362,6,0,L|238:359,1,130,0|8,1:0|1:0,0:0:0:0:
325,351,44870,2,0,L|347:222,1,130,0|0,1:0|0:0,0:0:0:0:
416,352,45379,1,8,1:0:0:0:
462,281,45548,1,0,0:0:0:0:
506,207,45718,2,0,P|473:195|427:204,1,65,0|0,1:0|1:0,0:0:0:0:
381,139,46057,1,8,1:0:0:0:
437,76,46226,1,0,1:0:0:0:
216,44,46565,5,0,0:0:0:0:
293,91,46735,1,4,1:2:0:0:
212,133,46904,1,0,0:0:0:0:
216,44,47074,1,4,1:0:0:0:
293,91,47243,2,0,L|305:244,1,130,0|0,1:0|0:0,0:0:0:0:
233,273,47752,6,0,P|166:286|85:261,1,130,8|0,0:0|0:0,0:0:0:0:
67,197,48260,2,0,P|54:130|79:49,1,130,0|0,1:0|1:0,0:0:0:0:
148,96,48769,2,0,L|225:84,1,65,0|0,1:0|0:0,0:0:0:0:
274,143,49108,2,0,L|351:131,1,65,8|0,0:0|0:0,0:0:0:0:
356,50,49447,2,0,L|291:60,1,65,0|0,0:0|0:0,0:0:0:0:
272,232,49786,6,0,P|322:237|400:192,1,130,0|0,1:0|0:0,0:0:0:0:
467,165,50294,2,0,L|476:86,2,65,0|8|0,0:0|0:0|0:0,0:0:0:0:
473,249,50803,1,0,0:0:0:0:
425,318,50972,1,0,1:0:0:0:
220,336,51311,1,0,1:0:0:0:
248,256,51481,1,0,0:0:0:0:
340,60,51820,6,0,P|336:104|315:132,1,65,8|0,0:0|0:0,0:0:0:0:
251,161,52159,1,0,0:0:0:0:
175,124,52328,2,0,P|147:104|99:102,2,65,0|0|0,0:0|1:0|1:0,0:0:0:0:
58,160,52837,2,0,L|37:306,1,130,0|8,0:0|0:0,0:0:0:0:
103,344,53345,1,0,0:0:0:0:
103,344,53514,1,0,0:0:0:0:
176,296,53684,2,0,L|332:296,1,130,0|0,1:0|0:0,0:0:0:0:
379,337,54192,5,0,1:0:0:0:
443,180,54531,1,8,1:0:0:0:
281,130,54870,1,0,0:0:0:0:
443,180,55209,6,0,P|446:145|436:104,1,65,0|0,1:0|1:0,0:0:0:0:
385,51,55548,1,0,0:0:0:0:
308,84,55718,2,0,L|240:60,1,65,0|8,0:0|0:0,0:0:0:0:
168,36,56057,1,0,0:0:0:0:
168,36,56226,1,0,0:0:0:0:
83,43,56396,2,0,P|42:90|36:162,1,130,0|0,1:0|0:0,0:0:0:0:
45,239,56904,1,0,1:0:0:0:
113,189,57074,1,0,0:0:0:0:
130,271,57243,1,8,0:0:0:0:
264,112,57582,6,0,L|256:272,1,130,0|4,0:0|1:0,0:0:0:0:
288,321,58091,1,0,0:0:0:0:
348,261,58260,1,8,1:0:0:0:
384,337,58430,2,0,P|418:342|458:329,1,65,0|0,1:0|0:0,0:0:0:0:
495,264,58769,1,0,1:0:0:0:
460,186,58938,1,8,1:0:0:0:
376,188,59108,6,0,L|376:108,2,65,0|0|0,0:0|1:0|1:0,0:0:0:0:
376,188,59616,1,8,1:0:0:0:
296,160,59786,2,0,L|152:160,1,130,0|0,1:0|1:0,0:0:0:0:
80,160,60294,1,8,1:0:0:0:
48,328,60633,6,0,P|92:312|184:308,1,130,0|8,1:0|1:0,0:0:0:0:
249,347,61142,2,0,L|270:208,1,130,0|0,1:0|1:0,0:0:0:0:
285,135,61650,1,8,1:0:0:0:
368,146,61820,1,0,0:0:0:0:
428,86,61989,2,0,P|402:66|351:63,1,65,0|0,1:0|1:0,0:0:0:0:
288,38,62328,1,8,1:0:0:0:
211,73,62498,2,0,L|64:79,1,130,0|0,1:0|1:0,0:0:0:0:
13,27,63006,1,8,1:0:0:0:
40,332,63345,5,0,1:0:0:0:
40,332,63514,1,0,0:0:0:0:
82,258,63684,1,8,1:0:0:0:
82,258,63853,2,0,L|222:275,1,130,0|0,1:0|0:0,0:0:0:0:
295,287,64362,1,8,1:0:0:0:
371,322,64531,1,0,1:0:0:0:
441,274,64701,6,0,L|448:188,1,65,0|0,1:0|1:0,0:0:0:0:
430,125,65040,1,8,1:0:0:0:
501,80,65209,2,0,L|455:11,1,65,0|0,1:0|0:0,0:0:0:0:
430,125,65548,1,0,0:0:0:0:
345,122,65718,1,8,1:0:0:0:
275,74,65887,1,0,0:0:0:0:
196,41,66057,6,0,P|186:75|197:112,1,65,8|0,1:0|1:0,0:0:0:0:
121,150,66396,2,0,P|144:176|181:186,1,65,8|0,1:0|1:0,0:0:0:0:
255,171,66735,1,8,1:0:0:0:
256,255,66904,2,0,P|226:269|184:269,1,65,0|0,1:0|0:0,0:0:0:0:
111,259,67243,5,0,1:0:0:0:
111,259,67413,1,0,0:0:0:0:
35,224,67582,1,0,1:0:0:0:
35,224,67752,1,0,1:0:0:0:
28,140,67921,1,0,1:0:0:0:
28,140,68091,2,0,P|93:113|166:136,2,130
255,171,69108,5,0,1:0:0:0:
255,171,69277,1,0,0:0:0:0:
255,171,69447,2,0,L|248:240,1,65,0|0,0:0|0:0,0:0:0:0:
364,92,69955,6,0,P|324:48|236:32,1,130,4|0,1:0|1:0,0:0:0:0:
199,91,70464,1,8,1:0:0:0:
119,118,70633,1,0,0:0:0:0:
51,66,70803,1,0,1:0:0:0:
51,66,70972,2,0,L|29:141,1,65,0|8,1:0|1:0,0:0:0:0:
12,210,71311,6,0,P|14:247|29:283,1,65,0|0,1:0|0:0,0:0:0:0:
48,354,71650,2,0,P|83:365|122:364,1,65,0|8,1:0|1:0,0:0:0:0:
180,316,71989,2,0,L|256:316,1,65,0|0,0:0|1:0,0:0:0:0:
328,316,72328,2,0,L|404:316,1,65,0|8,1:0|1:0,0:0:0:0:
464,361,72667,6,0,L|501:222,1,130,0|0,1:0|1:0,0:0:0:0:
492,152,73176,1,8,1:0:0:0:
416,188,73345,2,0,P|383:195|340:192,1,65,0|0,0:0|1:0,0:0:0:0:
276,233,73684,2,0,P|242:226|204:206,1,65,0|8,1:0|1:0,0:0:0:0:
133,238,74023,2,0,P|129:205|182:111,1,130,0|0,1:0|1:0,0:0:0:0:
88,94,74531,1,8,1:0:0:0:
44,166,74701,2,0,L|14:250,2,65,0|0|0,0:0|1:0|1:0,0:0:0:0:
88,94,75209,1,8,1:0:0:0:
320,52,75548,6,0,L|184:40,1,130,0|8,1:0|1:0,0:0:0:0:
190,40,76057,1,0,1:0:0:0:
178,123,76226,1,0,0:0:0:0:
178,123,76396,2,0,L|195:215,1,65,0|8,0:0|1:0,0:0:0:0:
234,259,76735,1,0,1:0:0:0:
234,259,76820,1,0,1:0:0:0:
234,259,76904,2,0,L|225:337,2,65,0|0|8,1:0|0:0|1:0,0:0:0:0:
144,280,77413,1,0,1:0:0:0:
316,176,77752,5,0,0:0:0:0:
310,260,77921,1,8,1:0:0:0:
383,301,78091,1,0,0:0:0:0:
418,224,78260,6,0,P|453:223|492:235,1,65,4|0,0:0|1:0,0:0:0:0:
508,154,78599,1,8,1:0:0:0:
508,154,78769,2,0,P|507:120|489:83,1,65,0|0,1:0|1:0,0:0:0:0:
430,36,79108,2,0,L|344:18,1,65,0|8,1:0|1:0,0:0:0:0:
289,58,79447,1,0,1:0:0:0:
78,123,79786,5,0,1:0:0:0:
154,157,79955,2,0,L|146:246,1,65,0|0,1:0|1:0,0:0:0:0:
68,249,80294,1,0,0:0:0:0:
40,329,80464,6,0,P|96:358|168:354,2,130,0|4|0,0:0|1:0|1:0,0:0:0:0:
68,249,81311,1,8,1:0:0:0:
150,268,81481,1,0,0:0:0:0:
233,254,81650,1,0,1:0:0:0:
286,186,81820,2,0,P|292:152|280:104,1,65,0|8,1:0|1:0,0:0:0:0:
368,96,82159,2,0,P|351:65|312:35,1,65,0|0,1:0|0:0,0:0:0:0:
460,124,82498,6,0,P|436:146|421:175,1,65,0|8,1:0|1:0,0:0:0:0:
392,254,82837,2,0,L|410:341,1,65,0|0,0:0|1:0,0:0:0:0:
489,305,83176,2,0,L|475:241,1,65,0|8,1:0|1:0,0:0:0:0:
392,254,83514,2,0,L|254:236,1,130,0|0,1:0|1:0,0:0:0:0:
184,203,84023,5,8,1:0:0:0:
100,194,84192,1,0,0:0:0:0:
24,232,84362,1,0,1:0:0:0:
24,232,84531,2,0,L|32:326,1,65,0|8,1:0|1:0,0:0:0:0:
105,333,84870,2,0,P|122:303|128:267,1,65,0|0,1:0|0:0,0:0:0:0:
100,194,85209,5,0,1:0:0:0:
33,141,85379,1,8,1:0:0:0:
33,141,85548,2,0,B|24:100|44:72|44:72,1,65,0|0,0:0|1:0,0:0:0:0:
112,32,85887,1,0,1:0:0:0:
112,32,86057,1,8,1:0:0:0:
376,136,86396,6,0,L|456:128,1,65,0|0,1:0|0:0,0:0:0:0:
485,57,86735,1,8,1:0:0:0:
401,44,86904,2,0,P|339:39|277:13,1,130,0|0,1:0|0:0,0:0:0:0:
255,95,87413,1,8,1:0:0:0:
198,32,87582,1,0,1:0:0:0:
198,32,87667,1,0,1:0:0:0:
198,32,87752,2,0,L|113:26,1,65,0|0,1:0|0:0,0:0:0:0:
52,44,88091,5,8,1:0:0:0:
52,44,88260,2,0,P|44:101|71:181,1,130,0|0,1:0|0:0,0:0:0:0:
127,226,88769,2,0,L|270:215,2,130,8|4|8,1:0|1:0|1:0,0:0:0:0:
146,143,89616,2,0,P|167:116|203:95,1,65,0|8,1:0|1:0,0:0:0:0:
273,73,89955,1,0,1:0:0:0:
353,100,90125,1,8,1:0:0:0:
388,176,90294,2,0,L|352:311,1,130,0|0,1:0|1:0,0:0:0:0:
277,318,90803,5,0,1:0:0:0:
255,236,90972,1,0,1:0:0:0:
195,297,91142,1,0,0:0:0:0:
195,297,91311,2,0,L|56:277,2,130,0|4|0,0:0|1:0|1:0,0:0:0:0:
277,318,92159,5,8,1:0:0:0:
255,236,92328,1,0,0:0:0:0:
195,297,92498,1,0,1:0:0:0:
277,318,92667,2,0,P|339:331|426:308,1,130,0|0,1:0|1:0,0:0:0:0:
235,66,93345,5,0,1:0:0:0:
257,148,93514,1,8,1:0:0:0:
317,87,93684,1,0,0:0:0:0:
235,66,93853,1,0,1:0:0:0:
164,113,94023,2,0,P|130:116|92:106,1,65,0|8,1:0|1:0,0:0:0:0:
24,70,94362,1,0,1:0:0:0:
64,328,94701,5,0,1:0:0:0:
143,300,94870,1,8,1:0:0:0:
215,343,95040,2,0,P|227:312|223:259,1,65,0|0,0:0|1:0,0:0:0:0:
169,219,95379,1,0,1:0:0:0:
143,300,95548,1,8,1:0:0:0:
215,343,95718,1,0,1:0:0:0:
424,148,96057,5,0,1:0:0:0:
369,84,96226,1,8,1:0:0:0:
297,41,96396,2,0,P|285:72|289:125,1,65,0|0,0:0|1:0,0:0:0:0:
343,165,96735,1,0,1:0:0:0:
369,84,96904,1,8,1:0:0:0:
297,41,97074,2,0,L|157:36,1,130,4|0,1:0|1:0,0:0:0:0:
83,47,97582,6,0,P|78:103|118:166,1,130,8|0,1:0|1:0,0:0:0:0:
198,146,98091,2,0,P|229:136|285:138,1,65,0|8,1:0|1:0,0:0:0:0:
314,199,98430,2,0,L|317:287,1,65,0|0,0:0|1:0,0:0:0:0:
372,327,98769,5,0,1:0:0:0:
452,298,98939,1,8,1:0:0:0:
393,239,99108,1,0,0:0:0:0:
474,213,99277,2,0,P|484:182|482:126,2,65,0|0|8,1:0|1:0|1:0,0:0:0:0:
393,239,99786,2,0,L|311:229,1,65,0|0,0:0|1:0,0:0:0:0:
244,223,100125,5,0,1:0:0:0:
159,226,100294,1,8,1:0:0:0:
83,186,100464,1,0,0:0:0:0:
64,103,100633,1,0,1:0:0:0:
146,124,100803,1,0,1:0:0:0:
146,124,100887,1,0,1:0:0:0:
146,124,100972,2,0,L|186:53,1,65,8|0,1:0|1:0,0:0:0:0:
440,192,101481,6,0,P|460:193|492:190,2,32.5,0|0|0,0:0|1:0|1:0,0:0:0:0:
356,176,101820,1,0,0:0:0:0:
276,203,101989,1,0,1:0:0:0:
192,187,102159,1,0,1:0:0:0:
192,187,102243,1,0,1:0:0:0:
192,187,102328,2,0,P|182:204|175:228,4,32.5,0|0|0|0|4,1:0|1:0|1:0|1:0|1:0,0:0:0:0:
349,269,103006,5,8,0:0:0:0:
395,341,103176,2,0,P|325:353|256:342,1,130,0|0,1:0|0:0,0:0:0:0:
183,352,103684,1,8,0:0:0:0:
84,96,104023,1,0,1:0:0:0:
163,122,104192,1,0,1:0:0:0:
192,201,104362,1,8,0:0:0:0:
192,201,104531,2,0,P|131:226|54:220,1,130,0|0,1:0|0:0,0:0:0:0:
10,160,105040,1,8,0:0:0:0:
71,351,105379,6,0,L|217:346,1,130,0|8,1:0|0:0,0:0:0:0:
283,364,105887,2,0,L|314:219,1,130,0|0,1:0|0:0,0:0:0:0:
278,157,106396,2,0,P|326:108|391:88,1,130,8|0,0:0|1:0,0:0:0:0:
461,56,106904,1,0,1:0:0:0:
448,141,107074,1,8,0:0:0:0:
448,141,107243,2,0,L|463:291,1,130,0|0,1:0|0:0,0:0:0:0:
471,354,107752,1,8,0:0:0:0:
264,272,108091,6,0,L|249:122,1,130,0|8,1:0|0:0,0:0:0:0:
241,59,108599,2,0,P|180:37|112:48,1,130,0|0,1:0|0:0,0:0:0:0:
45,93,109108,1,8,0:0:0:0:
45,93,109277,1,0,0:0:0:0:
45,93,109447,2,0,L|31:172,1,65,0|0,1:0|1:0,0:0:0:0:
43,241,109786,5,8,0:0:0:0:
119,204,109955,2,0,P|127:229|118:276,1,65,0|0,1:0|0:0,0:0:0:0:
60,325,110294,1,0,0:0:0:0:
60,325,110464,2,0,L|210:321,1,130,8|0,0:0|1:0,0:0:0:0:
256,268,110972,5,0,0:0:0:0:
316,328,111142,1,8,0:0:0:0:
316,328,111311,2,0,P|378:333|443:305,1,130,0|0,1:0|0:0,0:0:0:0:
493,241,111820,1,8,0:0:0:0:
411,220,111989,1,0,0:0:0:0:
326,230,112159,6,0,P|298:242|241:243,1,65,0|0,1:0|1:0,0:0:0:0:
195,196,112498,1,8,0:0:0:0:
130,250,112667,2,0,P|102:237|63:195,1,65,0|0,1:0|0:0,0:0:0:0:
23,148,113006,1,0,0:0:0:0:
32,63,113176,1,8,0:0:0:0:
256,192,113514,5,4,0:0:0:0:
112,192,123006,5,0,1:0:0:0:
148,115,123176,1,0,1:0:0:0:
400,192,123514,1,0,1:0:0:0:
340,251,123683,1,0,1:0:0:0:
308,172,123853,1,0,1:0:0:0:
251,235,124023,1,0,1:0:0:0:
251,235,124108,1,0,1:0:0:0:
251,235,124192,2,0,P|221:260|181:271,1,65,0|4,1:0|1:0,0:0:0:0:
112,275,124531,5,0,0:0:0:0:
54,212,124701,2,0,L|37:79,1,130,0|8,0:0|0:0,0:0:0:0:
101,27,125209,1,0,0:0:0:0:
135,104,125379,1,0,0:0:0:0:
202,154,125548,2,0,P|259:165|347:157,1,130,0|0,1:0|1:0,0:0:0:0:
320,256,126057,2,0,P|263:245|175:253,2,130,0|8|0,1:0|0:0|0:0,0:0:0:0:
414,84,127074,5,0,1:0:0:0:
497,101,127243,2,0,P|508:164|491:245,1,130,0|0,1:0|0:0,0:0:0:0:
490,313,127752,2,0,L|353:327,1,130,8|0,0:0|0:0,0:0:0:0:
279,351,128260,2,0,P|257:293|266:210,1,130,0|0,1:0|1:0,0:0:0:0:
345,230,128769,2,0,P|367:172|358:89,1,130,0|8,0:0|0:0,0:0:0:0:
290,62,129277,1,0,0:0:0:0:
214,100,129447,1,0,0:0:0:0:
142,55,129616,2,0,P|129:87|133:124,2,65,0|0|0,0:0|1:0|1:0,0:0:0:0:
56,20,130125,6,0,P|41:81|52:165,1,130,0|8,0:0|0:0,0:0:0:0:
79,225,130633,1,0,0:0:0:0:
79,225,130803,1,0,0:0:0:0:
138,285,130972,2,0,P|111:305|67:308,1,65,0|0,1:0|0:0,0:0:0:0:
3,275,131311,1,0,0:0:0:0:
0,192,131481,2,0,L|0:60,2,130,0|8|0,1:0|0:0|0:0,0:0:0:0:
183,190,132498,5,0,1:0:0:0:
248,243,132667,2,0,P|311:254|392:237,1,130,0|0,1:0|0:0,0:0:0:0:
460,236,133176,2,0,L|472:160,2,65,8|0|0,0:0|0:0|0:0,0:0:0:0:
375,243,133684,2,0,P|353:185|362:102,1,130,0|0,1:0|0:0,0:0:0:0:
301,52,134193,2,0,P|243:30|160:39,1,130,0|8,1:0|0:0,0:0:0:0:
105,80,134701,5,0,0:0:0:0:
90,163,134871,1,0,0:0:0:0:
17,119,135040,2,0,P|4:151|8:188,1,65,0|4,0:0|1:0,0:0:0:0:
27,262,135379,5,0,0:0:0:0:
70,334,135548,1,8,1:0:0:0:
115,262,135718,2,0,L|264:253,1,130,0|0,1:0|1:0,0:0:0:0:
329,248,136226,1,8,1:0:0:0:
409,274,136396,5,0,0:0:0:0:
409,274,136565,2,0,P|406:307|389:344,2,65,0|0|8,1:0|1:0|1:0,0:0:0:0:
496,296,137074,2,0,L|483:209,1,65,0|0,1:0|0:0,0:0:0:0:
428,170,137413,2,0,P|394:162|351:171,1,65,0|8,1:0|1:0,0:0:0:0:
286,199,137752,1,0,0:0:0:0:
212,157,137921,6,0,P|202:91|228:19,1,130,0|8,1:0|1:0,0:0:0:0:
305,23,138430,2,0,P|370:13|443:39,1,130,0|0,1:0|1:0,0:0:0:0:
498,83,138938,1,8,1:0:0:0:
477,165,139108,1,0,0:0:0:0:
394,148,139277,5,0,1:0:0:0:
328,201,139447,2,0,P|296:205|248:192,1,65,0|8,1:0|1:0,0:0:0:0:
181,179,139786,2,0,P|172:147|178:98,1,65,0|0,1:0|0:0,0:0:0:0:
213,40,140125,1,0,1:0:0:0:
261,108,140294,1,8,1:0:0:0:
485,194,140633,5,0,1:0:0:0:
485,194,140802,1,0,0:0:0:0:
430,258,140972,1,8,1:0:0:0:
430,258,141142,2,0,L|290:275,1,130,0|0,1:0|0:0,0:0:0:0:
217,287,141650,1,8,1:0:0:0:
141,322,141819,1,0,1:0:0:0:
71,274,141989,6,0,L|64:188,1,65,0|0,1:0|1:0,0:0:0:0:
82,125,142328,1,8,1:0:0:0:
11,80,142497,2,0,L|57:11,1,65,0|0,1:0|0:0,0:0:0:0:
82,125,142836,1,0,0:0:0:0:
167,122,143006,1,8,1:0:0:0:
237,74,143175,1,0,0:0:0:0:
316,41,143345,6,0,P|326:75|315:112,1,65,8|0,1:0|1:0,0:0:0:0:
391,150,143684,2,0,P|368:176|331:186,1,65,8|0,1:0|1:0,0:0:0:0:
257,171,144023,1,8,1:0:0:0:
256,255,144192,2,0,P|286:269|328:269,1,65,0|8,1:0|1:0,0:0:0:0:
401,259,144531,5,0,1:0:0:0:
401,259,144701,1,0,0:0:0:0:
477,224,144870,1,0,1:0:0:0:
477,224,145040,1,0,1:0:0:0:
484,140,145209,1,0,1:0:0:0:
484,140,145379,2,0,P|419:113|346:136,2,130
255,213,146396,5,0,1:0:0:0:
255,213,146565,1,0,0:0:0:0:
255,213,146735,2,0,L|248:144,1,65,0|0,0:0|0:0,0:0:0:0:
428,212,147243,6,0,P|384:252|368:340,1,130,4|0,1:0|1:0,0:0:0:0:
440,358,147752,1,8,1:0:0:0:
491,291,147921,1,0,0:0:0:0:
491,291,148091,1,0,1:0:0:0:
512,210,148260,2,0,L|493:147,1,65,0|8,1:0|1:0,0:0:0:0:
451,74,148599,6,0,P|421:88|390:121,1,65,0|0,1:0|0:0,0:0:0:0:
272,160,148938,2,0,P|307:171|346:170,1,65,0|8,1:0|1:0,0:0:0:0:
204,264,149277,2,0,L|284:250,1,65,0|0,0:0|1:0,0:0:0:0:
184,176,149616,2,0,L|119:176,1,65,0|8,1:0|1:0,0:0:0:0:
34,181,149955,6,0,P|33:110|71:42,1,130,0|0,1:0|1:0,0:0:0:0:
140,76,150464,1,8,1:0:0:0:
280,96,150633,2,0,P|247:103|204:100,1,65,0|0,0:0|1:0,0:0:0:0:
332,204,150972,2,0,P|298:197|260:177,1,65,0|8,1:0|1:0,0:0:0:0:
188,192,151311,2,0,P|169:230|173:326,1,130,0|0,1:0|1:0,0:0:0:0:
248,344,151819,1,8,1:0:0:0:
169,315,151989,2,0,L|100:321,2,65,0|0|0,0:0|1:0|1:0,0:0:0:0:
248,344,152497,1,8,1:0:0:0:
198,179,152837,6,0,P|138:190|62:167,1,130,0|8,1:0|1:0,0:0:0:0:
54,89,153345,1,0,1:0:0:0:
125,45,153514,1,0,0:0:0:0:
125,45,153684,2,0,L|179:100,1,65,0|8,0:0|1:0,0:0:0:0:
240,43,154023,1,0,1:0:0:0:
240,43,154108,1,0,1:0:0:0:
240,43,154192,2,0,L|315:39,2,65,0|0|8,1:0|0:0|1:0,0:0:0:0:
272,124,154701,1,0,1:0:0:0:
114,315,155040,5,0,0:0:0:0:
187,273,155209,1,8,1:0:0:0:
187,273,155379,1,0,0:0:0:0:
238,339,155548,2,0,L|325:331,1,65,4|0,1:0|1:0,0:0:0:0:
302,333,155803,1,0,1:0:0:0:
302,333,155887,1,8,1:0:0:0:
355,266,156057,6,0,P|354:232|336:195,1,65,0|0,1:0|1:0,0:0:0:0:
428,307,156396,2,0,L|461:239,1,65,0|8,1:0|1:0,0:0:0:0:
418,172,156735,1,0,1:0:0:0:
247,50,157074,5,0,1:0:0:0:
247,50,157243,2,0,L|239:139,1,65,0|0,1:0|1:0,0:0:0:0:
229,198,157582,1,0,0:0:0:0:
144,189,157752,2,0,P|123:248|137:319,2,130,0|4|0,0:0|1:0|1:0,0:0:0:0:
60,173,158599,6,0,P|39:113|53:42,1,130,8|0,1:0|1:0,0:0:0:0:
129,80,159108,2,0,P|135:46|123:-2,1,65,0|8,1:0|1:0,0:0:0:0:
256,96,159447,2,0,P|239:65|200:35,1,65,0|0,1:0|0:0,0:0:0:0:
228,173,159786,2,0,P|204:195|189:224,1,65,0|8,1:0|1:0,0:0:0:0:
288,312,160125,2,0,L|274:248,1,65,0|0,0:0|1:0,0:0:0:0:
364,264,160464,2,0,L|386:186,1,65,0|8,1:0|1:0,0:0:0:0:
461,175,160803,6,0,P|494:228|505:298,1,130,0|0,1:0|1:0,0:0:0:0:
450,359,161311,1,8,1:0:0:0:
365,357,161480,1,0,0:0:0:0:
300,301,161650,1,0,1:0:0:0:
300,301,161819,2,0,L|308:207,1,65,0|8,1:0|1:0,0:0:0:0:
298,151,162158,2,0,P|270:129|235:119,1,65,0|0,1:0|0:0,0:0:0:0:
157,128,162497,5,0,1:0:0:0:
94,185,162667,1,8,1:0:0:0:
13,159,162836,2,0,B|4:200|24:228|24:228,1,65,0|0,0:0|1:0,0:0:0:0:
57,298,163175,1,0,1:0:0:0:
57,298,163345,1,8,1:0:0:0:
352,348,163684,6,0,L|432:340,1,65,0|0,1:0|0:0,0:0:0:0:
467,273,164023,1,8,1:0:0:0:
383,259,164192,2,0,P|321:254|259:228,1,130,0|0,1:0|0:0,0:0:0:0:
241,144,164701,1,8,1:0:0:0:
162,175,164870,5,0,1:0:0:0:
162,175,164955,1,0,1:0:0:0:
162,175,165040,2,0,L|77:169,2,65,0|0|8,1:0|0:0|1:0,0:0:0:0:
328,168,165548,2,0,P|357:118|364:34,1,130,0|0,1:0|0:0,0:0:0:0:
448,104,166057,2,0,L|461:244,2,130,8|4|8,1:0|1:0|1:0,0:0:0:0:
380,52,166904,6,0,P|346:47|305:58,1,65,0|8,1:0|1:0,0:0:0:0:
251,108,167243,1,0,1:0:0:0:
171,79,167413,1,8,1:0:0:0:
171,79,167582,2,0,L|135:214,1,130,0|0,1:0|1:0,0:0:0:0:
180,352,168091,5,0,1:0:0:0:
202,270,168260,1,0,1:0:0:0:
262,331,168430,1,0,0:0:0:0:
262,331,168599,2,0,L|401:311,2,130,0|4|0,0:0|1:0|1:0,0:0:0:0:
202,270,169447,6,0,P|135:255|62:261,1,130,0|8,1:0|0:0,0:0:0:0:
31,185,169955,2,0,L|14:50,2,130,0|0|0,0:0|1:0|1:0,0:0:0:0:
74,258,170803,1,0,1:0:0:0:
248,192,171142,1,8,0:0:0:0:
248,192,171311,2,0,L|260:341,1,130,0|0,0:0|0:0,0:0:0:0:
341,303,171820,6,0,P|373:293|418:295,1,65,0|0,1:0|1:0,0:0:0:0:
464,233,172159,2,0,L|484:91,1,130,0|8,1:0|0:0,0:0:0:0:
429,37,172667,1,0,0:0:0:0:
429,37,172837,1,0,0:0:0:0:
352,72,173006,2,0,L|216:72,1,130,0|0,1:0|1:0,0:0:0:0:
136,72,173514,2,0,L|72:72,1,65,0|0,1:0|0:0,0:0:0:0:
17,137,173853,5,8,0:0:0:0:
97,164,174023,2,0,L|226:164,1,130
258,242,174531,1,0,1:0:0:0:
215,314,174701,2,0,P|174:326|143:318,2,65,0|0|0,1:0|1:0|0:0,0:0:0:0:
215,314,175209,1,8,0:0:0:0:
296,336,175379,2,0,L|434:328,2,130,0|0|0,0:0|1:0|1:0,0:0:0:0:
215,314,176226,1,0,1:0:0:0:
24,192,176565,5,8,0:0:0:0:
104,224,176735,2,0,P|120:164|116:96,1,130,0|0,0:0|0:0,0:0:0:0:
47,46,177243,1,0,1:0:0:0:
116,96,177413,1,0,1:0:0:0:
192,61,177582,1,0,1:0:0:0:
274,81,177752,2,0,P|273:121|257:158,1,65,0|8,0:0|0:0,0:0:0:0:
208,207,178091,2,0,L|224:354,2,130,0|0|0,1:0|1:0|0:0,0:0:0:0:
128,176,178938,6,0,L|-16:176,1,130,0|0,0:0|0:0,0:0:0:0:
28,96,179447,1,0,0:0:0:0:
104,56,179616,1,0,0:0:0:0:
176,100,179786,2,0,L|316:100,1,130,4|0,1:0|1:0,0:0:0:0:
384,68,180294,2,0,B|436:120|410:192|410:192,1,130,8|0,1:0|1:0,0:0:0:0:
362,258,180803,5,0,1:0:0:0:
444,274,180972,1,8,1:0:0:0:
508,216,181142,2,0,L|508:76,1,130,0|0,1:0|1:0,0:0:0:0:
456,20,181650,1,8,1:0:0:0:
384,64,181820,2,0,L|304:64,1,65,0|0,0:0|1:0,0:0:0:0:
236,64,182159,1,0,1:0:0:0:
236,148,182328,1,8,1:0:0:0:
152,148,182498,6,0,P|136:208|152:288,1,130,0|0,1:0|1:0,0:0:0:0:
94,341,183006,2,0,L|27:319,1,65,8|0,1:0|0:0,0:0:0:0:
40,176,183345,2,0,L|52:252,1,65,0|0,1:0|1:0,0:0:0:0:
40,88,183684,1,8,1:0:0:0:
40,88,183853,2,0,P|52:51|78:13,1,65,0|0,1:0|2:0,0:0:0:0:
150,36,184192,5,0,1:0:0:0:
150,36,184362,1,8,1:0:0:0:
200,103,184531,2,0,L|195:188,1,65,0|0,2:0|1:0,0:0:0:0:
139,230,184870,1,0,1:0:0:0:
110,150,185040,1,8,1:0:0:0:
364,152,185379,6,0,P|430:139|508:144,1,130,0|8,1:0|1:0,0:0:0:0:
501,225,185887,2,0,P|435:238|357:233,1,130,0|0,1:0|0:0,0:0:0:0:
291,209,186396,1,8,1:0:0:0:
247,280,186565,1,0,1:0:0:0:
247,280,186650,1,0,1:0:0:0:
247,280,186735,2,0,L|236:364,1,65,0|0,1:0|0:0,0:0:0:0:
153,349,187074,5,8,1:0:0:0:
153,349,187243,2,0,L|13:356,1,130,0|0,1:0|0:0,0:0:0:0:
0,273,187752,1,8,1:0:0:0:
47,203,187921,1,0,0:0:0:0:
125,235,188091,6,0,P|142:204|147:163,1,65,8|0,1:0|1:0,0:0:0:0:
148,148,188345,1,0,1:0:0:0:
148,148,188430,2,0,L|137:76,1,65,8|0,1:0|1:0,0:0:0:0:
216,44,188769,2,0,L|236:184,1,130,8|8,1:0|1:0,0:0:0:0:
248,256,189277,1,0,1:0:0:0:
448,276,189616,5,0,1:0:0:0:
511,220,189786,1,0,1:0:0:0:
432,188,189955,1,0,1:0:0:0:
364,239,190125,1,0,0:0:0:0:
311,172,190294,2,0,P|300:108|312:40,1,130,0|4,0:0|0:0,0:0:0:0:
64,307,196226,6,0,P|49:263|60:198,1,97.50000371933,2|0,0:0|0:0,0:0:0:0:
94,145,196735,1,0,0:0:0:0:
94,145,196904,1,0,0:0:0:0:
161,186,197074,2,0,P|216:205|269:193,1,97.50000371933
307,140,197582,1,0,0:0:0:0:
307,140,197752,1,0,0:0:0:0:
370,200,197921,1,0,0:0:0:0:
370,200,198091,2,0,L|477:203,1,97.50000371933
495,129,198599,1,0,0:0:0:0:
462,331,198938,6,0,P|414:343|356:326,1,97.50000371933
293,307,199447,2,0,L|185:327,2,97.50000371933
10,332,200633,5,0,0:0:0:0:
45,255,200803,1,0,0:0:0:0:
107,313,200972,1,0,0:0:0:0:
107,313,201142,2,0,P|131:275|138:218,1,97.50000371933,0|4,0:0|1:0,0:0:0:0:
121,140,201650,5,0,0:0:0:0:
49,95,201820,1,0,1:0:0:0:
49,95,201989,2,0,L|8:160,1,65,8|0,1:0|0:0,0:0:0:0:
121,140,202328,1,0,1:0:0:0:
205,135,202498,2,0,P|211:101|199:53,1,65,0|8,1:0|1:0,0:0:0:0:
286,172,202837,6,0,P|263:195|248:224,1,65,0|0,1:0|0:0,0:0:0:0:
294,295,203176,2,0,P|318:317|333:346,1,65,0|8,1:0|1:0,0:0:0:0:
364,244,203515,2,0,L|377:180,1,65,0|0,0:0|1:0,0:0:0:0:
326,112,203854,2,0,P|311:87|303:43,1,65,0|8,1:0|1:0,0:0:0:0:
454,95,204192,2,0,L|325:111,1,130,0|0,1:0|1:0,0:0:0:0:
253,157,204701,5,8,1:0:0:0:
253,157,204870,1,0,0:0:0:0:
192,98,205040,1,0,1:0:0:0:
192,98,205209,2,0,L|128:88,1,65,0|8,1:0|1:0,0:0:0:0:
84,200,205548,2,0,P|67:170|61:134,1,65,0|0,1:0|0:0,0:0:0:0:
168,184,205887,5,0,1:0:0:0:
156,320,206057,1,8,1:0:0:0:
156,320,206226,2,0,B|188:293|189:258|189:258,1,65,0|0,0:0|1:0,0:0:0:0:
268,232,206565,1,0,1:0:0:0:
268,232,206735,2,0,L|408:232,1,130,8|0,1:0|1:0,0:0:0:0:
460,288,207243,5,0,1:0:0:0:
404,352,207413,1,8,1:0:0:0:
319,353,207582,2,0,P|257:348|195:322,1,130,0|0,1:0|0:0,0:0:0:0:
125,272,208091,1,8,1:0:0:0:
47,304,208260,1,0,1:0:0:0:
47,304,208345,1,8,1:0:0:0:
47,304,208430,2,0,L|29:225,2,65,0|0|8,1:0|0:0|1:0,0:0:0:0:
125,272,208938,6,0,P|133:215|106:135,1,130,0|0,1:0|0:0,0:0:0:0:
175,88,209447,2,0,L|318:77,2,130,8|4|8,1:0|1:0|1:0,0:0:0:0:
141,7,210294,2,0,P|114:24|97:52,1,65,0|8,1:0|1:0,0:0:0:0:
44,118,210633,1,0,1:0:0:0:
44,118,210803,1,8,1:0:0:0:
24,200,210972,2,0,P|15:268|18:331,1,130,0|0,1:0|1:0,0:0:0:0:
101,345,211481,5,0,1:0:0:0:
166,291,211650,1,0,1:0:0:0:
244,320,211820,1,0,0:0:0:0:
244,320,211989,2,0,L|384:320,1,130,0|4,0:0|1:0,0:0:0:0:
478,180,212667,5,0,1:0:0:0:
426,112,212837,2,0,P|396:102|346:108,1,65,8|0,1:0|0:0,0:0:0:0:
299,158,213176,1,0,1:0:0:0:
215,148,213345,2,0,P|202:86|225:-1,2,130,0|0|0,1:0|1:0|1:0,0:0:0:0:
226,232,214192,5,8,1:0:0:0:
150,269,214362,1,0,0:0:0:0:
68,249,214531,2,0,P|41:227|22:193,1,65,0|0,1:0|1:0,0:0:0:0:
36,117,214870,1,8,1:0:0:0:
97,58,215040,1,0,1:0:0:0:
288,176,215379,5,0,1:0:0:0:
345,237,215548,1,8,1:0:0:0:
429,245,215718,2,0,P|441:214|437:161,1,65,0|0,0:0|1:0,0:0:0:0:
447,97,216057,2,0,P|388:80|312:80,2,130,0|0|0,1:0|1:0|1:0,0:0:0:0:
447,97,216904,5,8,1:0:0:0:
489,170,217074,2,0,P|477:201|481:254,1,65,0|0,0:0|1:0,0:0:0:0:
428,302,217413,1,0,1:0:0:0:
378,233,217582,1,8,1:0:0:0:
313,288,217752,2,0,L|173:283,1,130,4|0,1:0|1:0,0:0:0:0:
36,208,218260,5,8,1:0:0:0:
65,128,218430,1,0,0:0:0:0:
124,187,218599,1,0,1:0:0:0:
150,106,218769,2,0,P|181:96|237:98,1,65,0|8,1:0|1:0,0:0:0:0:
297,95,219108,2,0,L|300:183,1,65,0|0,0:0|1:0,0:0:0:0:
268,340,219447,5,0,1:0:0:0:
188,311,219617,1,8,1:0:0:0:
247,252,219786,1,0,0:0:0:0:
327,277,219956,2,0,P|357:264|398:227,2,65,0|0|8,1:0|1:0|1:0,0:0:0:0:
188,311,220464,2,0,L|106:301,1,65,0|0,0:0|1:0,0:0:0:0:
84,112,220803,5,0,1:0:0:0:
102,194,220972,1,8,1:0:0:0:
166,138,221142,1,0,0:0:0:0:
184,220,221311,1,0,1:0:0:0:
253,172,221481,1,0,1:0:0:0:
253,172,221565,1,0,0:0:0:0:
253,172,221650,2,0,P|282:157|324:152,2,65,8|0|0,1:0|0:0|1:0,0:0:0:0:
260,72,222159,5,0,1:0:0:0:
260,72,222328,2,0,P|224:62|176:56,2,65,8|0|0,1:0|0:0|1:0,0:0:0:0:
344,64,222837,1,0,1:0:0:0:
344,64,222921,1,0,1:0:0:0:
344,64,223006,2,0,L|380:62,4,32.5,8|0|0|0|4,1:0|1:0|1:0|1:0|1:0,0:0:0:0:
260,72,223514,5,0,0:0:0:0:
182,106,223684,2,0,P|119:110|53:91,2,130,8|0|8,1:0|1:0|1:0,0:0:0:0:
241,166,224531,1,0,0:0:0:0:
241,166,224701,2,0,P|245:229|226:295,2,130,0|8|0,1:0|1:0|1:0,0:0:0:0:
297,102,225548,1,0,0:0:0:0:
297,102,225718,1,8,1:0:0:0:
347,169,225887,2,0,P|380:170|425:160,1,65,0|0,0:0|1:0,0:0:0:0:
492,139,226226,5,0,0:0:0:0:
489,223,226396,2,0,L|482:304,1,65,8|0,1:0|0:0,0:0:0:0:
409,330,226735,2,0,P|392:301|389:261,1,65,0|0,1:0|0:0,0:0:0:0:
304,256,227074,2,0,L|297:337,1,65,8|0,1:0|0:0,0:0:0:0:
216,317,227413,5,0,1:0:0:0:
158,255,227582,1,0,1:0:0:0:
158,255,227752,1,0,1:0:0:0:
90,306,227921,1,0,1:0:0:0:
46,233,228091,2,0,P|40:182|54:99,1,130,0|0,1:0|1:0,0:0:0:0:
109,42,228599,1,4,1:0:0:0:
256,192,228684,12,0,233176,0:0:0:0:
