osu file format v14

[General]
AudioFilename: Amadeus.mp3
AudioLeadIn: 0
PreviewTime: 68430
Countdown: 0
SampleSet: Soft
StackLeniency: 0.7
Mode: 0
LetterboxInBreaks: 0
WidescreenStoryboard: 0

[Editor]
DistanceSpacing: 1.2
BeatDivisor: 4
GridSize: 8
TimelineZoom: 1.2

[Metadata]
Title:Amadeus
TitleUnicode:アマデウス
Artist:Ito Kanako
ArtistUnicode:いとうかなこ
Creator:FrostxE
Version:Easy
Source:STEINS;GATE 0
Tags:シュタインズ・ゲート ゼロ Frostmourne
BeatmapID:865679
BeatmapSetID:384688

[Difficulty]
HPDrainRate:2
CircleSize:3
OverallDifficulty:2
ApproachRate:3.5
SliderMultiplier:0.7
SliderTickRate:1

[Events]
//Background and Video events
0,0,"bgblack.jpg",0,0
//Break Periods
2,91850,100270
2,113714,121626
2,190832,194846
//Storyboard Layer 0 (Background)
//Storyboard Layer 1 (Fail)
//Storyboard Layer 2 (Pass)
//Storyboard Layer 3 (Foreground)
//Storyboard Sound Samples

[TimingPoints]
953,338.983050847458,4,2,1,20,1,0
953,-200,4,2,1,20,0,0
13176,338.983050847458,4,1,1,40,1,0
14531,-100,4,2,1,60,0,0
68091,-100,4,2,1,30,0,0
69955,-100,4,2,1,60,0,1
91650,-100,4,2,1,60,0,0
145379,-100,4,2,1,30,0,0
147243,-100,4,2,1,60,0,1
168938,-100,4,2,1,60,0,0
196226,-100,4,2,1,30,0,0
201481,-100,4,2,1,60,0,1
212328,-100,4,2,1,60,0,0
228769,-100,4,2,1,20,0,0
230125,-100,4,2,1,10,0,0
231142,-100,4,2,1,5,0,0

[Colours]
Combo1 : 168,168,213
Combo2 : 192,192,192

[HitObjects]
410,340,953,6,0,P|344:327|270:344,1,140,2|0,0:0|0:0,0:0:0:0:
214,362,2817,2,0,L|120:354,1,87.5
80,319,4173,2,0,L|65:229,1,87.5
116,72,6376,6,0,P|191:54|254:71,1,140
325,106,8410,1,0,0:0:0:0:
405,129,9088,2,0,P|427:96|429:78,2,52.5
256,192,10783,12,0,13176,0:0:0:0:
468,232,14531,6,0,P|463:292|399:344,1,140,4|0,1:0|1:0,0:0:0:0:
238,362,15887,2,0,L|87:360,1,140,0|0,1:0|1:0,0:0:0:0:
23,209,17243,2,0,P|71:174|148:182,1,140,0|0,1:0|1:0,0:0:0:0:
294,264,18599,2,0,P|323:217|319:131,1,140,0|0,1:0|1:0,0:0:0:0:
176,46,19955,5,0,1:0:0:0:
343,57,20633,1,0,1:0:0:0:
198,141,21311,2,0,P|181:208|200:279,1,140,0|0,1:0|1:0,0:0:0:0:
358,325,22667,5,0,1:0:0:0:
467,198,23345,2,0,P|477:147|451:91,1,105,0|0,1:0|0:0,0:0:0:0:
105,235,25379,6,0,P|46:161|54:44,1,210,0|0,1:0|0:0,0:0:0:0:
136,56,26735,2,0,P|196:76|281:70,1,140,0|0,0:0|0:0,0:0:0:0:
319,233,28091,6,0,L|336:348,2,105,0|0|0,1:0|1:0|0:0,0:0:0:0:
340,151,29447,2,0,P|359:130|402:118,2,70,0|0|0,0:0|1:0|0:0,0:0:0:0:
186,81,30803,6,0,L|80:56,2,105,0|0|0,1:0|1:0|0:0,0:0:0:0:
226,154,32159,2,0,P|253:173|300:173,1,70,0|0,0:0|1:0,0:0:0:0:
363,136,32837,1,0,0:0:0:0:
314,297,33514,6,0,L|198:291,1,105,0|0,1:0|1:0,0:0:0:0:
125,301,34362,2,0,P|100:254|95:191,1,105
99,119,35209,1,0,1:0:0:0:
120,37,35548,2,0,P|183:28|264:43,1,140,0|4,0:0|1:0,0:0:0:0:
333,77,36565,5,8,1:0:0:0:
495,34,37243,1,8,1:0:0:0:
496,117,37582,2,0,L|487:229,2,105,0|0|8,1:0|1:0|1:0,0:0:0:0:
411,117,38938,6,0,L|402:229,2,105,0|0|8,1:0|1:0|1:0,0:0:0:0:
336,76,40294,2,0,P|281:68|226:84,2,105,0|0|8,1:0|1:0|1:0,0:0:0:0:
318,158,41650,1,0,1:0:0:0:
262,220,41989,2,0,P|188:233|114:205,1,140,8|8,1:0|1:0,0:0:0:0:
82,142,43006,5,0,1:0:0:0:
132,75,43345,1,8,1:0:0:0:
287,138,44023,1,8,1:0:0:0:
370,128,44362,6,0,P|378:76|366:25,2,105,0|0|8,1:0|1:0|1:0,0:0:0:0:
287,138,45718,2,0,P|238:158|214:203,2,105,0|0|8,1:0|1:0|1:0,0:0:0:0:
371,128,47074,6,0,L|453:135,1,70,4|0,1:0|0:0,0:0:0:0:
468,213,47752,2,0,P|432:250|373:262,1,105,8|0,0:0|1:0,0:0:0:0:
316,315,48599,2,0,L|201:310,1,105,0|8,1:0|0:0,0:0:0:0:
43,320,49786,6,0,P|39:278|51:249,1,70,0|0,1:0|0:0,0:0:0:0:
93,181,50464,2,0,P|134:164|201:160,1,105,8|0,0:0|1:0,0:0:0:0:
277,159,51311,2,0,P|331:165|382:143,1,105,0|8,1:0|0:0,0:0:0:0:
264,22,52498,5,0,1:0:0:0:
135,130,53176,2,0,P|85:132|22:114,2,105,8|0|0,0:0|1:0|1:0,0:0:0:0:
216,107,54531,1,8,0:0:0:0:
207,274,55209,6,0,P|287:272|325:228,1,140,0|8,1:0|0:0,0:0:0:0:
323,103,56396,2,0,P|375:88|439:103,1,105,0|0,1:0|1:0,0:0:0:0:
492,146,57243,1,8,0:0:0:0:
476,313,57921,6,0,P|427:297|369:295,1,105,4|0,1:0|1:0,0:0:0:0:
305,245,58769,2,0,L|325:133,2,105,0|0|0,1:0|1:0|1:0,0:0:0:0:
257,314,60125,2,0,P|206:332|143:328,1,105,0|0,1:0|1:0,0:0:0:0:
74,353,60972,6,0,L|53:215,1,140,8|8,1:0|1:0,0:0:0:0:
29,133,61989,2,0,P|39:98|89:40,2,105,0|0|8,1:0|1:0|1:0,0:0:0:0:
52,214,63345,2,0,P|103:245|157:257,2,105,0|0|8,1:0|1:0|1:0,0:0:0:0:
104,148,64701,2,0,P|142:139|213:154,2,105,0|0|8,1:0|1:0|1:0,0:0:0:0:
256,192,66057,12,0,67921,1:0:0:0:
258,122,69955,5,4,1:0:0:0:
195,65,70294,2,0,P|138:49|81:61,2,105,0|0|0,1:0|1:0|1:0,0:0:0:0:
179,147,71650,2,0,L|133:208,2,70,0|0|0,1:0|0:0|1:0,0:0:0:0:
262,154,72667,6,0,P|286:201|280:251,2,105,0|8|0,1:0|1:0|1:0,0:0:0:0:
250,70,74023,2,0,P|294:45|350:42,1,105,0|8,1:0|1:0,0:0:0:0:
430,53,74870,2,0,L|440:130,1,70,0|8,1:0|1:0,0:0:0:0:
408,201,75548,6,0,L|453:313,2,105,0|0|8,1:0|1:0|1:0,0:0:0:0:
325,210,76904,2,0,B|307:321,2,105,0|0|8,1:0|1:0|1:0,0:0:0:0:
240,212,78260,5,4,0:0:0:0:
224,129,78599,1,8,1:0:0:0:
160,183,78938,2,0,P|118:180|54:195,2,105,0|0|0,1:0|1:0|1:0,0:0:0:0:
240,212,80294,2,0,L|257:106,2,105,0|4|8,0:0|1:0|1:0,0:0:0:0:
240,296,81650,6,0,P|276:327|336:322,1,105,0|0,1:0|1:0,0:0:0:0:
409,353,82498,2,0,L|480:360,2,70,0|0|0,1:0|0:0|1:0,0:0:0:0:
393,270,83514,2,0,P|400:224|449:183,1,105,0|8,1:0|1:0,0:0:0:0:
455,102,84362,6,0,P|411:88|353:99,1,105,0|0,1:0|1:0,0:0:0:0:
275,128,85209,2,0,L|257:15,1,105,0|0,1:0|1:0,0:0:0:0:
174,23,86057,1,8,1:0:0:0:
96,56,86396,6,0,P|44:50|-6:9,2,105,0|0|8,1:0|1:0|1:0,0:0:0:0:
136,130,87752,2,0,P|130:182|89:232,2,105,0|0|8,1:0|1:0|1:0,0:0:0:0:
216,104,89108,6,0,L|291:92,1,70,4|8,1:0|1:0,0:0:0:0:
367,108,89786,2,0,P|376:158|358:215,1,105,8|0,1:0|1:0,0:0:0:0:
296,262,90633,2,0,L|143:258,1,140,0|0,1:0|0:0,0:0:0:0:
100,194,91650,5,4,1:0:0:0:
388,68,101650,6,0,P|306:52|238:71,1,140,0|0,1:0|1:0,0:0:0:0:
197,128,102667,6,0,P|152:142|89:131,2,105,4|0|8,1:0|1:0|0:0,0:0:0:0:
248,194,104023,1,0,1:0:0:0:
206,267,104362,2,0,P|138:255|68:214,1,140,8|8,0:0|0:0,0:0:0:0:
21,157,105379,6,0,P|24:104|58:48,2,105,0|0|8,1:0|1:0|0:0,0:0:0:0:
104,143,106735,2,0,B|156:128|216:128,1,105,0|0,1:0|1:0,0:0:0:0:
256,244,107752,2,0,L|256:328,1,70,8|0,0:0|1:0,0:0:0:0:
337,334,108430,6,0,P|406:357|477:345,2,140,8|8|8,1:0|0:0|0:0,0:0:0:0:
395,176,110464,2,0,P|429:174|467:156,1,70,8|0,0:0|1:0,0:0:0:0:
488,80,111142,2,0,P|444:64|352:76,1,140,8|8,0:0|0:0,0:0:0:0:
295,136,112159,2,0,L|276:240,2,105,0|0|8,1:0|1:0|0:0,0:0:0:0:
246,67,113514,5,4,0:0:0:0:
300,112,123006,6,0,L|408:112,2,105,0|0|0,1:0|1:0|1:0,0:0:0:0:
221,141,124362,1,4,1:0:0:0:
93,250,125040,2,0,P|82:265|72:356,2,105,8|0|0,0:0|1:0|1:0,0:0:0:0:
169,284,126396,2,0,P|181:318|209:345,1,70,8|0,0:0|0:0,0:0:0:0:
286,358,127074,6,0,L|431:348,1,140,0|8,1:0|0:0,0:0:0:0:
492,240,128260,2,0,P|496:144|460:72,1,175,0|8,1:0|0:0,0:0:0:0:
396,22,129447,1,0,0:0:0:0:
337,82,129786,2,0,L|301:227,1,140,0|8,1:0|0:0,0:0:0:0:
177,205,130972,2,0,P|183:256|211:304,1,105,0|0,1:0|1:0,0:0:0:0:
137,346,131820,2,0,L|57:343,1,70,8|0,0:0|0:0,0:0:0:0:
23,270,132498,5,0,1:0:0:0:
60,111,133176,2,0,P|99:79|153:71,2,105,8|0|0,0:0|1:0|1:0,0:0:0:0:
106,181,134531,1,8,0:0:0:0:
273,178,135209,6,0,P|322:162|380:160,1,105,4|0,1:0|1:0,0:0:0:0:
442,211,136057,2,0,L|417:326,2,105,0|0|0,1:0|1:0|1:0,0:0:0:0:
477,134,137413,2,0,P|473:78|433:36,2,105,0|0|0,1:0|1:0|1:0,0:0:0:0:
393,146,138769,1,0,1:0:0:0:
264,144,139277,2,0,L|268:30,2,105,0|0|8,1:0|1:0|1:0,0:0:0:0:
216,213,140633,6,0,P|158:211|106:178,2,105,0|0|8,1:0|1:0|1:0,0:0:0:0:
265,282,141989,2,0,P|303:273|374:288,2,105,0|0|8,1:0|1:0|1:0,0:0:0:0:
256,192,143345,12,0,145209,1:0:0:0:
424,302,147243,6,0,L|312:325,2,105,4|8|0,1:0|1:0|1:0,0:0:0:0:
480,239,148599,2,0,L|487:160,1,70,0|0,1:0|1:0,0:0:0:0:
459,89,149277,2,0,P|428:75|379:80,1,70,0|0,0:0|1:0,0:0:0:0:
311,97,149955,6,0,P|235:111|202:104,1,105,0|8,1:0|1:0,0:0:0:0:
124,115,150803,2,0,L|106:230,2,105,0|0|8,1:0|1:0|1:0,0:0:0:0:
43,88,152159,2,0,L|20:227,1,140,0|0,1:0|1:0,0:0:0:0:
12,310,153176,6,0,P|65:337|152:324,1,140,8|8,1:0|1:0,0:0:0:0:
211,280,154192,2,0,L|224:162,2,105,0|0|8,1:0|1:0|1:0,0:0:0:0:
259,348,155548,5,4,1:0:0:0:
342,337,155887,1,8,1:0:0:0:
425,342,156226,2,0,B|456:296|432:232,2,105,0|0|0,1:0|1:0|1:0,0:0:0:0:
342,337,157582,2,0,L|304:232,1,105,0|4,0:0|1:0,0:0:0:0:
295,112,158599,6,0,P|339:88|399:92,1,105,8|0,1:0|1:0,0:0:0:0:
472,116,159447,2,0,L|484:196,1,70,0|0,1:0|1:0,0:0:0:0:
450,263,160125,2,0,L|380:294,1,70,0|0,0:0|1:0,0:0:0:0:
308,260,160803,2,0,P|260:244|196:248,1,105,0|8,1:0|1:0,0:0:0:0:
132,285,161650,6,0,L|24:262,2,105,0|0|8,1:0|1:0|1:0,0:0:0:0:
184,351,163006,1,0,1:0:0:0:
244,292,163345,1,8,1:0:0:0:
232,208,163684,6,0,P|200:160|158:119,2,105,0|0|8,1:0|1:0|1:0,0:0:0:0:
315,195,165040,2,0,P|321:137|315:79,2,105,0|0|8,1:0|1:0|1:0,0:0:0:0:
360,265,166396,2,0,P|393:268|434:256,1,70,4|8,1:0|1:0,0:0:0:0:
489,200,167074,2,0,P|477:146|472:92,1,105,8|0,1:0|1:0,0:0:0:0:
416,33,167921,2,0,P|380:27|344:30,1,70,0|0,1:0|1:0,0:0:0:0:
179,46,168938,6,0,P|105:29|1:45,1,175,4|8,1:0|0:0,0:0:0:0:
4,168,170294,2,0,L|13:280,2,105,0|0|0,1:0|1:0|0:0,0:0:0:0:
113,232,171820,2,0,L|120:312,1,70,0|0,1:0|1:0,0:0:0:0:
202,311,172498,2,0,L|193:206,2,105,8|0|0,0:0|1:0|1:0,0:0:0:0:
285,300,173853,6,0,P|349:275|425:280,2,140,8|0|8,0:0|1:0|0:0,0:0:0:0:
244,180,175718,2,0,L|235:65,1,105,0|0,1:0|1:0,0:0:0:0:
151,77,176565,2,0,L|163:223,1,140,8|0,0:0|1:0,0:0:0:0:
115,286,177582,2,0,P|59:289|7:257,1,105,0|0,1:0|1:0,0:0:0:0:
5,183,178430,1,0,1:0:0:0:
200,104,179277,6,0,L|308:120,2,105,0|4|8,0:0|1:0|1:0,0:0:0:0:
223,23,180633,2,0,L|331:39,2,105,0|0|8,1:0|1:0|1:0,0:0:0:0:
140,38,181989,1,0,1:0:0:0:
76,92,182328,2,0,L|60:232,1,140,8|8,1:0|1:0,0:0:0:0:
132,274,183345,6,0,P|168:280|236:256,2,105,0|0|8,1:0|1:0|1:0,0:0:0:0:
83,343,184701,1,0,1:0:0:0:
163,368,185040,1,8,1:0:0:0:
245,352,185379,6,0,L|352:344,2,105,0|0|8,1:0|1:0|1:0,0:0:0:0:
234,268,186735,2,0,L|129:275,2,105,0|0|8,1:0|1:0|1:0,0:0:0:0:
306,225,188091,6,0,P|338:213|378:212,1,70,8|8,1:0|1:0,0:0:0:0:
455,232,188769,2,0,P|475:184|467:121,1,105,8|0,1:0|1:0,0:0:0:0:
404,79,189616,2,0,P|307:90|192:75,1,210,0|4,1:0|0:0,0:0:0:0:
314,268,196226,6,0,P|353:302|416:311,2,105,2|0|0,0:0|0:0|0:0,0:0:0:0:
238,304,197582,2,0,P|199:338|136:347,2,105,0|0|0,0:0|0:0|0:0,0:0:0:0:
195,231,198938,1,0,0:0:0:0:
27,233,199616,2,0,P|33:179|57:136,1,105
384,80,201481,6,0,P|440:79|503:95,2,105,4|8|0,1:0|1:0|1:0,0:0:0:0:
331,145,202837,2,0,L|311:229,1,70,0|0,1:0|1:0,0:0:0:0:
234,191,203514,2,0,L|250:122,1,70,0|0,0:0|1:0,0:0:0:0:
198,57,204192,2,0,P|142:56|79:72,2,105,0|8|0,1:0|1:0|1:0,0:0:0:0:
277,26,205548,6,0,P|312:28|352:42,1,70,0|0,1:0|1:0,0:0:0:0:
394,106,206226,2,0,P|439:130|492:137,1,105,0|8,0:0|1:0,0:0:0:0:
488,222,207074,2,0,L|476:330,2,105,0|0|8,1:0|1:0|1:0,0:0:0:0:
404,213,208430,2,0,L|392:321,2,105,0|0|8,1:0|1:0|1:0,0:0:0:0:
320,198,209786,5,4,1:0:0:0:
268,264,210125,1,8,1:0:0:0:
217,331,210464,2,0,P|166:335|106:314,1,105,8|0,1:0|1:0,0:0:0:0:
35,293,211311,2,0,L|48:212,1,70,0|0,1:0|1:0,0:0:0:0:
32,56,212328,6,0,P|83:61|136:93,1,105,4|8,1:0|1:0,0:0:0:0:
209,115,213176,1,0,1:0:0:0:
285,79,213515,2,0,P|306:146|295:219,1,140,8|8,1:0|1:0,0:0:0:0:
274,295,214531,1,0,1:0:0:0:
343,343,214870,2,0,P|377:348|478:294,1,140,8|8,1:0|1:0,0:0:0:0:
494,224,215887,6,0,L|505:119,2,105,0|0|8,1:0|1:0|1:0,0:0:0:0:
411,215,217243,2,0,L|422:110,2,105,0|4|8,1:0|1:0|1:0,0:0:0:0:
336,256,218599,2,0,P|311:210|262:171,1,105,0|0,1:0|0:0,0:0:0:0:
193,147,219447,2,0,L|208:40,2,105,0|0|0,1:0|1:0|0:0,0:0:0:0:
173,228,220803,6,0,P|134:246|66:246,1,105,0|0,1:0|1:0,0:0:0:0:
29,175,221650,2,0,P|12:104|25:29,1,140,8|8,1:0|1:0,0:0:0:0:
105,33,222667,2,0,L|249:47,1,140,0|4,1:0|1:0,0:0:0:0:
326,62,223684,5,8,1:0:0:0:
406,39,224023,2,0,P|421:76|416:120,1,70,0|8,1:0|1:0,0:0:0:0:
468,174,224701,2,0,P|444:206|404:225,1,70,0|8,1:0|1:0,0:0:0:0:
340,191,225379,2,0,P|283:178|260:180,1,70,0|8,1:0|1:0,0:0:0:0:
208,234,226057,5,0,1:0:0:0:
127,208,226396,2,0,P|112:243|110:278,1,70,8|0,1:0|1:0,0:0:0:0:
32,307,227074,2,0,L|19:233,2,70,8|0|0,1:0|1:0|1:0,0:0:0:0:
97,360,228091,2,0,P|144:368|215:354,1,105,0|4,1:0|1:0,0:0:0:0:
256,192,228769,12,0,233176,0:0:0:0:
