osu file format v14

[General]
AudioFilename: audio.mp3
AudioLeadIn: 0
PreviewTime: 48055
Countdown: 0
SampleSet: Soft
StackLeniency: 0.7
Mode: 3
LetterboxInBreaks: 0
SpecialStyle: 0
WidescreenStoryboard: 0

[Editor]
DistanceSpacing: 1
BeatDivisor: 4
GridSize: 4
TimelineZoom: 2.2

[Metadata]
Title:Watashiwa No.1!
TitleUnicode:私はNo.1!
Artist:Ito Asuka
ArtistUnicode:Ito Asuka
Creator:arcwinolivirus
Version:Sandy Numba Wan in Big Seven!
Source:Azur Lane
Tags:sandy san diego I am number one 私はNo.1! ced nirvanis gacha
BeatmapID:1777961
BeatmapSetID:848425

[Difficulty]
HPDrainRate:8
CircleSize:7
OverallDifficulty:8
ApproachRate:5
SliderMultiplier:1.4
SliderTickRate:1

[Events]
//Background and Video events
0,0,"sandy.png",0,0
//Break Periods
//Storyboard Layer 0 (Background)
//Storyboard Layer 1 (Fail)
//Storyboard Layer 2 (Pass)
//Storyboard Layer 3 (Foreground)
//Storyboard Sound Samples

[TimingPoints]
864,337.078651685393,4,2,1,40,1,0
864,-100,4,2,1,40,0,0
885,-66.6666666666667,4,2,1,40,0,0
948,-133.333333333333,4,2,1,40,0,0
1369,-66.6666666666667,4,2,1,40,0,0
1453,-133.333333333333,4,2,1,40,0,0
1538,-66.6666666666667,4,2,1,40,0,0
1622,-133.333333333333,4,2,1,40,0,0
1875,-66.6666666666667,4,2,1,40,0,0
1959,-133.333333333333,4,2,1,40,0,0
2212,-66.6666666666667,4,2,1,40,0,0
2296,-133.333333333333,4,2,1,40,0,0
2549,-66.6666666666667,4,2,1,40,0,0
2633,-133.333333333333,4,2,1,40,0,0
2886,-66.6666666666667,4,2,1,40,0,0
2970,-133.333333333333,4,2,1,40,0,0
3223,-100,4,2,1,40,0,0
48055,-133.333333333333,4,2,1,40,0,0
48139,-83.3333333333333,4,2,1,40,0,0
48392,-133.333333333333,4,2,1,40,0,0
48476,-83.3333333333333,4,2,1,40,0,0
48729,-133.333333333333,4,2,1,40,0,0
48813,-83.3333333333333,4,2,1,40,0,0
49066,-133.333333333333,4,2,1,40,0,0
49150,-66.6666666666667,4,2,1,40,0,0
49403,-100,4,2,1,40,0,1
59852,-100,4,2,1,40,0,0
60189,-100,4,2,1,40,0,1
65583,-100,4,2,1,40,0,0
68279,-66.6666666666667,4,2,1,40,0,0
68363,-133.333333333333,4,2,1,40,0,0
68616,-100,4,2,1,40,0,0
68785,-133.333333333333,4,2,1,40,0,0
68953,-66.6666666666667,4,2,1,40,0,0
69038,-133.333333333333,4,2,1,40,0,0
69290,-66.6666666666667,4,2,1,40,0,0
69375,-133.333333333333,4,2,1,40,0,0
69628,-66.6666666666667,4,2,1,40,0,0
69712,-133.333333333333,4,2,1,40,0,0
69965,-66.6666666666667,4,2,1,40,0,0
70049,-133.333333333333,4,2,1,40,0,0
70302,-66.6666666666667,4,2,1,40,0,0
70386,-133.333333333333,4,2,1,40,0,0
70639,-66.6666666666667,4,2,1,40,0,0
70723,-250,4,2,1,40,0,0
70976,-66.6666666666667,4,2,1,40,0,0
71060,-133.333333333333,4,2,1,40,0,0
71313,-100,4,2,1,40,0,0
71481,-66.6666666666667,4,2,1,40,0,0
71566,-133.333333333333,4,2,1,40,0,0
71650,-66.6666666666667,4,2,1,40,0,0
71734,-133.333333333333,4,2,1,40,0,0
71987,-66.6666666666667,4,2,1,40,0,0
72071,-133.333333333333,4,2,1,40,0,0
72324,-66.6666666666667,4,2,1,40,0,0
72408,-133.333333333333,4,2,1,40,0,0
72661,-66.6666666666667,4,2,1,40,0,0
72746,-133.333333333333,4,2,1,40,0,0
72998,-66.6666666666667,4,2,1,40,0,0
73083,-133.333333333333,4,2,1,40,0,0
73335,-66.6666666666667,4,2,1,40,0,0
73420,-133.333333333333,4,2,1,40,0,0

[HitObjects]
448,192,864,5,0,0:0:0:0:
192,192,864,1,0,0:0:0:0:
64,192,864,1,0,0:0:0:0:
402,192,864,1,0,0:0:0:0:
320,192,1369,1,0,0:0:0:0:
448,192,1369,1,0,0:0:0:0:
64,192,1369,1,0,0:0:0:0:
109,192,1369,1,0,0:0:0:0:
64,192,1538,1,0,0:0:0:0:
192,192,1538,1,0,0:0:0:0:
448,192,1538,1,0,0:0:0:0:
402,192,1538,1,0,0:0:0:0:
402,192,1875,1,0,0:0:0:0:
109,192,1875,1,0,0:0:0:0:
448,192,1875,128,0,2212:0:0:0:0:
64,192,1875,128,0,2212:0:0:0:0:
256,192,1875,128,0,2212:0:0:0:0:
402,192,2212,1,0,0:0:0:0:
320,192,2212,1,0,0:0:0:0:
192,192,2212,1,0,0:0:0:0:
109,192,2212,1,0,0:0:0:0:
109,192,2549,1,0,0:0:0:0:
402,192,2549,1,0,0:0:0:0:
320,192,2549,128,0,2886:0:0:0:0:
256,192,2549,128,0,2886:0:0:0:0:
192,192,2549,128,0,2886:0:0:0:0:
36,192,2886,1,0,0:0:0:0:
475,192,2886,1,0,0:0:0:0:
402,192,2886,1,0,0:0:0:0:
109,192,2886,1,0,0:0:0:0:
182,192,3223,1,0,0:0:0:0:
109,192,3223,1,0,0:0:0:0:
64,192,3223,1,0,0:0:0:0:
256,192,3223,1,0,0:0:0:0:
320,192,3307,1,0,0:0:0:0:
402,192,3307,1,0,0:0:0:0:
475,192,3307,1,0,0:0:0:0:
192,192,3392,1,0,0:0:0:0:
109,192,3392,1,0,0:0:0:0:
256,192,3392,1,0,0:0:0:0:
320,192,3476,1,0,0:0:0:0:
402,192,3476,1,0,0:0:0:0:
475,192,3476,1,0,0:0:0:0:
64,192,3560,1,0,0:0:0:0:
182,192,3560,1,0,0:0:0:0:
256,192,3560,1,0,0:0:0:0:
109,192,3560,1,0,0:0:0:0:
320,192,3729,1,0,0:0:0:0:
448,192,3729,1,0,0:0:0:0:
109,192,3729,1,0,0:0:0:0:
192,192,3897,1,0,0:0:0:0:
320,192,3897,1,0,0:0:0:0:
64,192,3897,1,0,0:0:0:0:
402,192,3897,1,0,0:0:0:0:
64,192,4066,1,0,0:0:0:0:
448,192,4066,1,0,0:0:0:0:
256,192,4066,1,0,0:0:0:0:
448,192,4234,1,0,0:0:0:0:
192,192,4234,1,0,0:0:0:0:
109,192,4234,1,0,0:0:0:0:
320,192,4403,1,0,0:0:0:0:
192,192,4403,1,0,0:0:0:0:
402,192,4403,1,0,0:0:0:0:
320,192,4571,1,0,0:0:0:0:
64,192,4571,1,0,0:0:0:0:
448,192,4571,1,0,0:0:0:0:
256,192,4571,1,0,0:0:0:0:
192,192,4740,1,0,0:0:0:0:
448,192,4740,128,0,5077:0:0:0:0:
109,192,4740,1,0,0:0:0:0:
320,192,4908,1,0,0:0:0:0:
64,192,4908,1,0,0:0:0:0:
256,192,4908,1,0,0:0:0:0:
320,192,5077,1,0,0:0:0:0:
192,192,5077,1,0,0:0:0:0:
402,192,5077,1,0,0:0:0:0:
64,192,5246,1,0,0:0:0:0:
448,192,5246,1,0,0:0:0:0:
192,192,5246,1,0,0:0:0:0:
256,192,5246,1,0,0:0:0:0:
320,192,5414,1,0,0:0:0:0:
64,192,5414,1,0,0:0:0:0:
109,192,5414,1,0,0:0:0:0:
402,192,5414,1,0,0:0:0:0:
192,192,5583,1,0,0:0:0:0:
448,192,5583,1,0,0:0:0:0:
402,192,5583,1,0,0:0:0:0:
192,192,5751,1,0,0:0:0:0:
320,192,5751,1,0,0:0:0:0:
256,192,5751,1,0,0:0:0:0:
448,192,5920,1,0,0:0:0:0:
320,192,5920,1,0,0:0:0:0:
64,192,5920,128,0,6257:0:0:0:0:
109,192,5920,1,0,0:0:0:0:
448,192,6088,1,0,0:0:0:0:
192,192,6088,1,0,0:0:0:0:
256,192,6088,1,0,0:0:0:0:
320,192,6257,1,0,0:0:0:0:
192,192,6257,1,0,0:0:0:0:
402,192,6257,1,0,0:0:0:0:
320,192,6425,1,0,0:0:0:0:
109,192,6425,1,0,0:0:0:0:
256,192,6425,1,0,0:0:0:0:
448,192,6594,1,0,0:0:0:0:
64,192,6594,1,0,0:0:0:0:
109,192,6594,1,0,0:0:0:0:
256,192,6594,1,0,0:0:0:0:
402,192,6762,1,0,0:0:0:0:
192,192,6762,1,0,0:0:0:0:
475,192,6762,1,0,0:0:0:0:
329,192,6847,1,0,0:0:0:0:
256,192,6847,1,0,0:0:0:0:
402,192,6931,1,0,0:0:0:0:
192,192,6931,1,0,0:0:0:0:
109,192,6931,1,0,0:0:0:0:
448,192,7099,1,0,0:0:0:0:
64,192,7099,1,0,0:0:0:0:
256,192,7099,1,0,0:0:0:0:
320,192,7268,1,0,0:0:0:0:
192,192,7268,1,0,0:0:0:0:
64,192,7268,1,0,0:0:0:0:
402,192,7268,1,0,0:0:0:0:
475,192,7437,1,0,0:0:0:0:
256,192,7437,128,0,7774:0:0:0:0:
109,192,7437,1,0,0:0:0:0:
320,192,7605,1,0,0:0:0:0:
64,192,7605,1,0,0:0:0:0:
402,192,7605,1,0,0:0:0:0:
192,192,7774,1,0,0:0:0:0:
64,192,7774,1,0,0:0:0:0:
475,192,7774,1,0,0:0:0:0:
320,192,7942,1,0,0:0:0:0:
402,192,7942,1,0,0:0:0:0:
192,192,7942,1,0,0:0:0:0:
109,192,7942,1,0,0:0:0:0:
475,192,7942,1,0,0:0:0:0:
64,192,8111,1,0,0:0:0:0:
448,192,8111,1,0,0:0:0:0:
256,192,8111,1,0,0:0:0:0:
448,192,8279,1,0,0:0:0:0:
64,192,8279,1,0,0:0:0:0:
256,192,8279,1,0,0:0:0:0:
402,192,8448,1,0,0:0:0:0:
109,192,8448,1,0,0:0:0:0:
182,192,8532,1,0,0:0:0:0:
475,192,8532,1,0,0:0:0:0:
329,192,8616,1,0,0:0:0:0:
64,192,8616,1,0,0:0:0:0:
402,192,8616,1,0,0:0:0:0:
256,192,8616,1,0,0:0:0:0:
109,192,8616,1,0,0:0:0:0:
448,192,8785,1,0,0:0:0:0:
402,192,8785,1,0,0:0:0:0:
182,192,8785,1,0,0:0:0:0:
64,192,8953,1,0,0:0:0:0:
320,192,8953,1,0,0:0:0:0:
448,192,8953,1,0,0:0:0:0:
109,192,8953,1,0,0:0:0:0:
256,192,8953,1,0,0:0:0:0:
64,192,9122,1,0,0:0:0:0:
192,192,9122,1,0,0:0:0:0:
402,192,9122,1,0,0:0:0:0:
448,192,9290,1,0,0:0:0:0:
192,192,9290,1,0,0:0:0:0:
320,192,9290,1,0,0:0:0:0:
109,192,9290,1,0,0:0:0:0:
64,192,9459,1,0,0:0:0:0:
448,192,9459,1,0,0:0:0:0:
256,192,9459,1,0,0:0:0:0:
320,192,9628,1,0,0:0:0:0:
64,192,9628,1,0,0:0:0:0:
402,192,9628,1,0,0:0:0:0:
320,192,9796,1,0,0:0:0:0:
192,192,9796,1,0,0:0:0:0:
109,192,9796,1,0,0:0:0:0:
64,192,9965,1,0,0:0:0:0:
448,192,9965,1,0,0:0:0:0:
192,192,9965,1,0,0:0:0:0:
402,192,9965,1,0,0:0:0:0:
64,192,10133,128,0,10470:0:0:0:0:
320,192,10133,1,0,0:0:0:0:
256,192,10133,1,0,0:0:0:0:
448,192,10302,1,0,0:0:0:0:
192,192,10302,1,0,0:0:0:0:
402,192,10302,1,0,0:0:0:0:
320,192,10470,1,0,0:0:0:0:
192,192,10470,1,0,0:0:0:0:
256,192,10470,1,0,0:0:0:0:
320,192,10639,1,0,0:0:0:0:
64,192,10639,1,0,0:0:0:0:
448,192,10639,1,0,0:0:0:0:
109,192,10639,1,0,0:0:0:0:
448,192,10807,1,0,0:0:0:0:
192,192,10807,1,0,0:0:0:0:
402,192,10807,1,0,0:0:0:0:
64,192,10976,1,0,0:0:0:0:
320,192,10976,1,0,0:0:0:0:
256,192,10976,1,0,0:0:0:0:
192,192,11144,1,0,0:0:0:0:
320,192,11144,1,0,0:0:0:0:
109,192,11144,1,0,0:0:0:0:
448,192,11313,128,0,11650:0:0:0:0:
192,192,11313,1,0,0:0:0:0:
64,192,11313,1,0,0:0:0:0:
402,192,11313,1,0,0:0:0:0:
320,192,11397,1,0,0:0:0:0:
256,192,11397,1,0,0:0:0:0:
64,192,11481,1,0,0:0:0:0:
109,192,11481,1,0,0:0:0:0:
320,192,11566,1,0,0:0:0:0:
402,192,11566,1,0,0:0:0:0:
64,192,11650,1,0,0:0:0:0:
192,192,11650,1,0,0:0:0:0:
256,192,11650,1,0,0:0:0:0:
320,192,11734,1,0,0:0:0:0:
109,192,11734,1,0,0:0:0:0:
448,192,11819,1,0,0:0:0:0:
192,192,11819,1,0,0:0:0:0:
402,192,11819,1,0,0:0:0:0:
64,192,11903,1,0,0:0:0:0:
256,192,11903,1,0,0:0:0:0:
109,192,11987,1,0,0:0:0:0:
448,192,11987,1,0,0:0:0:0:
192,192,11987,1,0,0:0:0:0:
402,192,11987,1,0,0:0:0:0:
64,192,12071,1,0,0:0:0:0:
329,192,12071,1,0,0:0:0:0:
109,192,12156,1,0,0:0:0:0:
192,192,12156,1,0,0:0:0:0:
256,192,12156,1,0,0:0:0:0:
448,192,12240,1,0,0:0:0:0:
402,192,12240,1,0,0:0:0:0:
320,192,12324,1,0,0:0:0:0:
192,192,12324,1,0,0:0:0:0:
256,192,12324,1,0,0:0:0:0:
64,192,12408,1,0,0:0:0:0:
109,192,12408,1,0,0:0:0:0:
448,192,12493,1,0,0:0:0:0:
402,192,12493,1,0,0:0:0:0:
329,192,12493,1,0,0:0:0:0:
192,192,12577,1,0,0:0:0:0:
109,192,12577,1,0,0:0:0:0:
448,192,12661,1,0,0:0:0:0:
64,192,12661,1,0,0:0:0:0:
256,192,12661,1,0,0:0:0:0:
402,192,12661,1,0,0:0:0:0:
192,192,12746,1,0,0:0:0:0:
329,192,12746,1,0,0:0:0:0:
256,192,12830,128,0,13167:0:0:0:0:
36,192,12830,1,0,0:0:0:0:
109,192,12830,1,0,0:0:0:0:
448,192,12914,1,0,0:0:0:0:
402,192,12914,1,0,0:0:0:0:
109,192,12998,1,0,0:0:0:0:
192,192,12998,1,0,0:0:0:0:
329,192,12998,1,0,0:0:0:0:
448,192,13083,1,0,0:0:0:0:
402,192,13083,1,0,0:0:0:0:
182,192,13167,1,0,0:0:0:0:
320,192,13167,1,0,0:0:0:0:
36,192,13167,1,0,0:0:0:0:
448,192,13251,1,0,0:0:0:0:
402,192,13251,1,0,0:0:0:0:
256,192,13335,1,0,0:0:0:0:
36,192,13335,1,0,0:0:0:0:
192,192,13335,1,0,0:0:0:0:
109,192,13335,1,0,0:0:0:0:
329,192,13420,1,0,0:0:0:0:
402,192,13420,1,0,0:0:0:0:
256,192,13504,1,0,0:0:0:0:
475,192,13504,1,0,0:0:0:0:
36,192,13504,1,0,0:0:0:0:
109,192,13588,1,0,0:0:0:0:
182,192,13588,1,0,0:0:0:0:
320,192,13672,1,0,0:0:0:0:
475,192,13672,1,0,0:0:0:0:
402,192,13672,1,0,0:0:0:0:
182,192,13757,1,0,0:0:0:0:
256,192,13757,1,0,0:0:0:0:
475,192,13841,1,0,0:0:0:0:
36,192,13841,1,0,0:0:0:0:
402,192,13841,1,0,0:0:0:0:
329,192,13925,1,0,0:0:0:0:
109,192,13925,1,0,0:0:0:0:
256,192,14010,1,0,0:0:0:0:
182,192,14010,1,0,0:0:0:0:
402,192,14010,1,0,0:0:0:0:
475,192,14094,1,0,0:0:0:0:
64,192,14094,1,0,0:0:0:0:
109,192,14094,1,0,0:0:0:0:
256,192,14178,1,0,0:0:0:0:
320,192,14178,1,0,0:0:0:0:
402,192,14178,1,0,0:0:0:0:
36,192,14262,1,0,0:0:0:0:
109,192,14262,1,0,0:0:0:0:
182,192,14347,1,0,0:0:0:0:
448,192,14347,1,0,0:0:0:0:
320,192,14347,1,0,0:0:0:0:
256,192,14347,1,0,0:0:0:0:
402,192,14347,1,0,0:0:0:0:
109,192,14515,1,0,0:0:0:0:
475,192,14515,1,0,0:0:0:0:
36,192,14515,1,0,0:0:0:0:
182,192,14684,1,0,0:0:0:0:
329,192,14684,1,0,0:0:0:0:
402,192,14684,1,0,0:0:0:0:
64,192,14852,1,0,0:0:0:0:
256,192,14852,1,0,0:0:0:0:
192,192,15021,1,0,0:0:0:0:
320,192,15021,1,0,0:0:0:0:
402,192,15021,1,0,0:0:0:0:
448,192,15189,1,0,0:0:0:0:
64,192,15189,1,0,0:0:0:0:
256,192,15189,1,0,0:0:0:0:
192,192,15358,1,0,0:0:0:0:
64,192,15358,1,0,0:0:0:0:
402,192,15358,1,0,0:0:0:0:
320,192,15526,1,0,0:0:0:0:
448,192,15526,1,0,0:0:0:0:
109,192,15526,1,0,0:0:0:0:
448,192,15695,1,0,0:0:0:0:
64,192,15695,1,0,0:0:0:0:
256,192,15695,1,0,0:0:0:0:
192,192,15863,1,0,0:0:0:0:
320,192,15863,1,0,0:0:0:0:
109,192,15863,1,0,0:0:0:0:
320,192,16032,1,0,0:0:0:0:
448,192,16032,1,0,0:0:0:0:
256,192,16032,1,0,0:0:0:0:
64,192,16201,1,0,0:0:0:0:
448,192,16201,1,0,0:0:0:0:
109,192,16201,1,0,0:0:0:0:
192,192,16369,1,0,0:0:0:0:
320,192,16369,1,0,0:0:0:0:
402,192,16369,1,0,0:0:0:0:
448,192,16538,1,0,0:0:0:0:
64,192,16538,1,0,0:0:0:0:
256,192,16538,1,0,0:0:0:0:
192,192,16706,1,0,0:0:0:0:
64,192,16706,1,0,0:0:0:0:
402,192,16706,1,0,0:0:0:0:
320,192,16875,1,0,0:0:0:0:
448,192,16875,1,0,0:0:0:0:
109,192,16875,1,0,0:0:0:0:
192,192,17043,1,0,0:0:0:0:
448,192,17043,1,0,0:0:0:0:
256,192,17043,1,0,0:0:0:0:
192,192,17212,1,0,0:0:0:0:
64,192,17212,1,0,0:0:0:0:
109,192,17212,1,0,0:0:0:0:
320,192,17296,1,0,0:0:0:0:
256,192,17296,1,0,0:0:0:0:
64,192,17380,1,0,0:0:0:0:
448,192,17380,1,0,0:0:0:0:
402,192,17380,1,0,0:0:0:0:
192,192,17549,1,0,0:0:0:0:
320,192,17549,1,0,0:0:0:0:
109,192,17549,1,0,0:0:0:0:
64,192,17717,1,0,0:0:0:0:
320,192,17717,1,0,0:0:0:0:
402,192,17717,1,0,0:0:0:0:
448,192,17886,1,0,0:0:0:0:
192,192,17886,1,0,0:0:0:0:
256,192,17886,1,0,0:0:0:0:
320,192,18055,1,0,0:0:0:0:
64,192,18055,1,0,0:0:0:0:
109,192,18055,1,0,0:0:0:0:
448,192,18223,1,0,0:0:0:0:
192,192,18223,1,0,0:0:0:0:
402,192,18223,1,0,0:0:0:0:
192,192,18392,1,0,0:0:0:0:
320,192,18392,1,0,0:0:0:0:
256,192,18392,1,0,0:0:0:0:
64,192,18560,1,0,0:0:0:0:
320,192,18560,1,0,0:0:0:0:
109,192,18560,1,0,0:0:0:0:
192,192,18729,1,0,0:0:0:0:
448,192,18729,1,0,0:0:0:0:
402,192,18729,1,0,0:0:0:0:
320,192,18897,1,0,0:0:0:0:
64,192,18897,1,0,0:0:0:0:
256,192,18897,1,0,0:0:0:0:
448,192,19066,1,0,0:0:0:0:
64,192,19066,1,0,0:0:0:0:
109,192,19066,1,0,0:0:0:0:
320,192,19234,1,0,0:0:0:0:
402,192,19234,1,0,0:0:0:0:
36,192,19319,1,0,0:0:0:0:
109,192,19319,1,0,0:0:0:0:
320,192,19403,1,0,0:0:0:0:
448,192,19403,1,0,0:0:0:0:
182,192,19403,1,0,0:0:0:0:
256,192,19403,1,0,0:0:0:0:
36,192,19571,1,0,0:0:0:0:
109,192,19571,1,0,0:0:0:0:
448,192,19571,1,0,0:0:0:0:
402,192,19571,1,0,0:0:0:0:
192,192,19740,1,0,0:0:0:0:
320,192,19740,1,0,0:0:0:0:
64,192,19740,1,0,0:0:0:0:
256,192,19740,1,0,0:0:0:0:
402,192,19908,1,0,0:0:0:0:
109,192,19908,1,0,0:0:0:0:
192,192,20077,1,0,0:0:0:0:
320,192,20077,1,0,0:0:0:0:
256,192,20077,1,0,0:0:0:0:
109,192,20246,1,0,0:0:0:0:
448,192,20246,128,0,21088:0:0:0:0:
402,192,20246,1,0,0:0:0:0:
320,192,20414,1,0,0:0:0:0:
64,192,20414,1,0,0:0:0:0:
182,192,20414,1,0,0:0:0:0:
109,192,20583,1,0,0:0:0:0:
256,192,20583,1,0,0:0:0:0:
192,192,20751,1,0,0:0:0:0:
320,192,20751,1,0,0:0:0:0:
402,192,20751,1,0,0:0:0:0:
320,192,20920,1,0,0:0:0:0:
109,192,20920,1,0,0:0:0:0:
64,192,21088,1,0,0:0:0:0:
192,192,21088,128,0,21425:0:0:0:0:
256,192,21088,1,0,0:0:0:0:
320,192,21257,1,0,0:0:0:0:
402,192,21257,1,0,0:0:0:0:
448,192,21425,1,0,0:0:0:0:
64,192,21425,1,0,0:0:0:0:
256,192,21425,1,0,0:0:0:0:
320,192,21594,1,0,0:0:0:0:
64,192,21594,128,0,22437:0:0:0:0:
109,192,21594,1,0,0:0:0:0:
448,192,21762,1,0,0:0:0:0:
192,192,21762,1,0,0:0:0:0:
402,192,21762,1,0,0:0:0:0:
448,192,21931,1,0,0:0:0:0:
256,192,21931,1,0,0:0:0:0:
320,192,22099,1,0,0:0:0:0:
192,192,22099,1,0,0:0:0:0:
109,192,22099,1,0,0:0:0:0:
320,192,22268,1,0,0:0:0:0:
402,192,22268,1,0,0:0:0:0:
192,192,22437,1,0,0:0:0:0:
448,192,22437,128,0,22605:0:0:0:0:
256,192,22437,1,0,0:0:0:0:
320,192,22605,1,0,0:0:0:0:
109,192,22605,1,0,0:0:0:0:
448,192,22774,1,0,0:0:0:0:
64,192,22774,128,0,22942:0:0:0:0:
402,192,22774,1,0,0:0:0:0:
192,192,22942,1,0,0:0:0:0:
256,192,22942,1,0,0:0:0:0:
64,192,23111,1,0,0:0:0:0:
320,192,23111,128,0,23279:0:0:0:0:
402,192,23111,1,0,0:0:0:0:
192,192,23279,1,0,0:0:0:0:
448,192,23279,128,0,23448:0:0:0:0:
256,192,23279,1,0,0:0:0:0:
320,192,23448,1,0,0:0:0:0:
64,192,23448,1,0,0:0:0:0:
109,192,23448,1,0,0:0:0:0:
192,192,23532,1,0,0:0:0:0:
256,192,23532,1,0,0:0:0:0:
320,192,23616,1,0,0:0:0:0:
448,192,23616,1,0,0:0:0:0:
402,192,23616,1,0,0:0:0:0:
192,192,23785,1,0,0:0:0:0:
64,192,23785,1,0,0:0:0:0:
448,192,23785,128,0,23953:0:0:0:0:
256,192,23785,1,0,0:0:0:0:
320,192,23953,128,0,24122:0:0:0:0:
64,192,23953,1,0,0:0:0:0:
109,192,23953,1,0,0:0:0:0:
192,192,24122,128,0,24290:0:0:0:0:
448,192,24122,1,0,0:0:0:0:
402,192,24122,1,0,0:0:0:0:
64,192,24290,128,0,24459:0:0:0:0:
320,192,24290,1,0,0:0:0:0:
256,192,24290,1,0,0:0:0:0:
402,192,24459,128,0,24628:0:0:0:0:
475,192,24459,1,0,0:0:0:0:
109,192,24459,1,0,0:0:0:0:
256,192,24628,128,0,24796:0:0:0:0:
64,192,24628,1,0,0:0:0:0:
329,192,24628,1,0,0:0:0:0:
109,192,24796,128,0,24965:0:0:0:0:
448,192,24796,1,0,0:0:0:0:
182,192,24796,1,0,0:0:0:0:
36,192,24965,1,0,0:0:0:0:
402,192,24965,128,0,25133:0:0:0:0:
329,192,24965,1,0,0:0:0:0:
448,192,25133,1,0,0:0:0:0:
109,192,25133,1,0,0:0:0:0:
192,192,25133,1,0,0:0:0:0:
256,192,25133,1,0,0:0:0:0:
64,192,25302,1,0,0:0:0:0:
109,192,25302,1,0,0:0:0:0:
329,192,25302,1,0,0:0:0:0:
182,192,25386,1,0,0:0:0:0:
256,192,25470,1,0,0:0:0:0:
329,192,25470,1,0,0:0:0:0:
402,192,25470,1,0,0:0:0:0:
475,192,25470,1,0,0:0:0:0:
448,192,25639,1,0,0:0:0:0:
109,192,25639,1,0,0:0:0:0:
320,192,25807,1,0,0:0:0:0:
192,192,25807,1,0,0:0:0:0:
402,192,25807,1,0,0:0:0:0:
64,192,25976,1,0,0:0:0:0:
448,192,25976,1,0,0:0:0:0:
109,192,25976,1,0,0:0:0:0:
320,192,26144,1,0,0:0:0:0:
448,192,26144,1,0,0:0:0:0:
182,192,26144,1,0,0:0:0:0:
402,192,26144,1,0,0:0:0:0:
256,192,26313,1,0,0:0:0:0:
64,192,26313,1,0,0:0:0:0:
109,192,26313,1,0,0:0:0:0:
182,192,26481,1,0,0:0:0:0:
448,192,26481,1,0,0:0:0:0:
402,192,26481,1,0,0:0:0:0:
320,192,26650,1,0,0:0:0:0:
109,192,26650,1,0,0:0:0:0:
256,192,26650,1,0,0:0:0:0:
256,192,26819,1,0,0:0:0:0:
64,192,26819,1,0,0:0:0:0:
402,192,26819,1,0,0:0:0:0:
182,192,26819,1,0,0:0:0:0:
448,192,26987,1,0,0:0:0:0:
64,192,26987,1,0,0:0:0:0:
109,192,26987,1,0,0:0:0:0:
320,192,27156,1,0,0:0:0:0:
192,192,27156,1,0,0:0:0:0:
402,192,27156,1,0,0:0:0:0:
64,192,27324,1,0,0:0:0:0:
448,192,27324,1,0,0:0:0:0:
256,192,27324,1,0,0:0:0:0:
320,192,27493,1,0,0:0:0:0:
448,192,27493,1,0,0:0:0:0:
109,192,27493,1,0,0:0:0:0:
182,192,27493,1,0,0:0:0:0:
192,192,27661,1,0,0:0:0:0:
64,192,27661,1,0,0:0:0:0:
402,192,27661,1,0,0:0:0:0:
320,192,27830,1,0,0:0:0:0:
109,192,27830,1,0,0:0:0:0:
256,192,27830,1,0,0:0:0:0:
320,192,27998,1,0,0:0:0:0:
448,192,27998,1,0,0:0:0:0:
402,192,27998,1,0,0:0:0:0:
192,192,28083,1,0,0:0:0:0:
256,192,28083,1,0,0:0:0:0:
448,192,28167,1,0,0:0:0:0:
64,192,28167,1,0,0:0:0:0:
109,192,28167,1,0,0:0:0:0:
402,192,28167,1,0,0:0:0:0:
320,192,28335,1,0,0:0:0:0:
192,192,28335,1,0,0:0:0:0:
36,192,28335,1,0,0:0:0:0:
448,192,28504,1,0,0:0:0:0:
192,192,28504,1,0,0:0:0:0:
402,192,28504,1,0,0:0:0:0:
64,192,28672,1,0,0:0:0:0:
320,192,28672,1,0,0:0:0:0:
256,192,28672,1,0,0:0:0:0:
192,192,28841,1,0,0:0:0:0:
448,192,28841,1,0,0:0:0:0:
402,192,28841,1,0,0:0:0:0:
109,192,28841,1,0,0:0:0:0:
64,192,29010,1,0,0:0:0:0:
320,192,29010,1,0,0:0:0:0:
109,192,29010,1,0,0:0:0:0:
320,192,29178,1,0,0:0:0:0:
192,192,29178,1,0,0:0:0:0:
256,192,29178,1,0,0:0:0:0:
448,192,29347,1,0,0:0:0:0:
192,192,29347,1,0,0:0:0:0:
402,192,29347,1,0,0:0:0:0:
320,192,29515,1,0,0:0:0:0:
64,192,29515,1,0,0:0:0:0:
109,192,29515,1,0,0:0:0:0:
256,192,29515,1,0,0:0:0:0:
192,192,29684,1,0,0:0:0:0:
448,192,29684,1,0,0:0:0:0:
256,192,29684,1,0,0:0:0:0:
64,192,29852,1,0,0:0:0:0:
448,192,29852,1,0,0:0:0:0:
402,192,29852,1,0,0:0:0:0:
320,192,30021,1,0,0:0:0:0:
192,192,30021,1,0,0:0:0:0:
109,192,30021,1,0,0:0:0:0:
192,192,30189,1,0,0:0:0:0:
448,192,30189,1,0,0:0:0:0:
256,192,30189,1,0,0:0:0:0:
402,192,30189,1,0,0:0:0:0:
320,192,30358,1,0,0:0:0:0:
64,192,30358,1,0,0:0:0:0:
402,192,30358,1,0,0:0:0:0:
192,192,30526,1,0,0:0:0:0:
448,192,30526,1,0,0:0:0:0:
109,192,30526,1,0,0:0:0:0:
64,192,30695,1,0,0:0:0:0:
256,192,30695,1,0,0:0:0:0:
320,192,30863,1,0,0:0:0:0:
192,192,30863,1,0,0:0:0:0:
402,192,30863,1,0,0:0:0:0:
475,192,30863,1,0,0:0:0:0:
320,192,31032,1,0,0:0:0:0:
64,192,31032,128,0,31875:0:0:0:0:
109,192,31032,1,0,0:0:0:0:
192,192,31201,1,0,0:0:0:0:
448,192,31201,1,0,0:0:0:0:
256,192,31201,1,0,0:0:0:0:
109,192,31369,1,0,0:0:0:0:
402,192,31369,1,0,0:0:0:0:
320,192,31538,1,0,0:0:0:0:
192,192,31538,1,0,0:0:0:0:
475,192,31538,1,0,0:0:0:0:
256,192,31538,1,0,0:0:0:0:
109,192,31706,1,0,0:0:0:0:
402,192,31706,1,0,0:0:0:0:
448,192,31875,1,0,0:0:0:0:
320,192,31875,128,0,32212:0:0:0:0:
256,192,31875,1,0,0:0:0:0:
192,192,32043,1,0,0:0:0:0:
402,192,32043,1,0,0:0:0:0:
64,192,32212,1,0,0:0:0:0:
448,192,32212,1,0,0:0:0:0:
109,192,32212,1,0,0:0:0:0:
256,192,32212,1,0,0:0:0:0:
192,192,32380,1,0,0:0:0:0:
448,192,32380,128,0,32717:0:0:0:0:
329,192,32380,1,0,0:0:0:0:
109,192,32549,1,0,0:0:0:0:
256,192,32549,1,0,0:0:0:0:
402,192,32549,1,0,0:0:0:0:
36,192,32717,1,0,0:0:0:0:
329,192,32717,1,0,0:0:0:0:
192,192,32886,1,0,0:0:0:0:
256,192,32886,1,0,0:0:0:0:
402,192,32886,1,0,0:0:0:0:
109,192,32886,1,0,0:0:0:0:
192,192,33055,1,0,0:0:0:0:
329,192,33055,1,0,0:0:0:0:
402,192,33223,1,0,0:0:0:0:
64,192,33223,128,0,33392:0:0:0:0:
109,192,33223,1,0,0:0:0:0:
475,192,33392,1,0,0:0:0:0:
256,192,33392,1,0,0:0:0:0:
192,192,33560,1,0,0:0:0:0:
329,192,33560,128,0,33729:0:0:0:0:
402,192,33560,1,0,0:0:0:0:
109,192,33560,1,0,0:0:0:0:
64,192,33729,1,0,0:0:0:0:
109,192,33729,1,0,0:0:0:0:
475,192,33813,1,0,0:0:0:0:
402,192,33813,1,0,0:0:0:0:
329,192,33897,1,0,0:0:0:0:
192,192,33897,128,0,34066:0:0:0:0:
256,192,33897,1,0,0:0:0:0:
475,192,34066,1,0,0:0:0:0:
64,192,34066,128,0,34234:0:0:0:0:
109,192,34066,1,0,0:0:0:0:
256,192,34234,1,0,0:0:0:0:
402,192,34234,1,0,0:0:0:0:
329,192,34234,1,0,0:0:0:0:
475,192,34234,1,0,0:0:0:0:
182,192,34319,1,0,0:0:0:0:
109,192,34319,1,0,0:0:0:0:
329,192,34403,1,0,0:0:0:0:
402,192,34403,1,0,0:0:0:0:
256,192,34403,1,0,0:0:0:0:
192,192,34571,1,0,0:0:0:0:
475,192,34571,1,0,0:0:0:0:
64,192,34571,128,0,34740:0:0:0:0:
109,192,34571,1,0,0:0:0:0:
192,192,34740,128,0,34908:0:0:0:0:
320,192,34740,1,0,0:0:0:0:
256,192,34740,1,0,0:0:0:0:
448,192,34824,1,0,0:0:0:0:
402,192,34824,1,0,0:0:0:0:
320,192,34908,128,0,35077:0:0:0:0:
64,192,34908,1,0,0:0:0:0:
109,192,34908,1,0,0:0:0:0:
448,192,35077,128,0,35246:0:0:0:0:
64,192,35077,1,0,0:0:0:0:
109,192,35077,1,0,0:0:0:0:
192,192,35161,1,0,0:0:0:0:
256,192,35161,1,0,0:0:0:0:
109,192,35246,128,0,35414:0:0:0:0:
320,192,35246,1,0,0:0:0:0:
402,192,35246,1,0,0:0:0:0:
36,192,35246,1,0,0:0:0:0:
256,192,35414,128,0,35583:0:0:0:0:
329,192,35414,1,0,0:0:0:0:
182,192,35414,1,0,0:0:0:0:
475,192,35498,1,0,0:0:0:0:
36,192,35498,1,0,0:0:0:0:
402,192,35583,128,0,35751:0:0:0:0:
329,192,35583,1,0,0:0:0:0:
182,192,35583,1,0,0:0:0:0:
109,192,35751,128,0,35920:0:0:0:0:
475,192,35751,1,0,0:0:0:0:
256,192,35751,1,0,0:0:0:0:
320,192,35920,1,0,0:0:0:0:
64,192,35920,1,0,0:0:0:0:
182,192,35920,1,0,0:0:0:0:
402,192,35920,1,0,0:0:0:0:
475,192,35920,1,0,0:0:0:0:
448,192,36088,1,0,0:0:0:0:
256,192,36088,1,0,0:0:0:0:
320,192,36257,1,0,0:0:0:0:
192,192,36257,1,0,0:0:0:0:
109,192,36257,1,0,0:0:0:0:
448,192,36425,1,0,0:0:0:0:
64,192,36425,1,0,0:0:0:0:
402,192,36425,1,0,0:0:0:0:
64,192,36594,1,0,0:0:0:0:
320,192,36594,1,0,0:0:0:0:
192,192,36594,1,0,0:0:0:0:
256,192,36594,1,0,0:0:0:0:
448,192,36762,1,0,0:0:0:0:
402,192,36762,1,0,0:0:0:0:
192,192,36931,1,0,0:0:0:0:
64,192,36931,1,0,0:0:0:0:
256,192,36931,1,0,0:0:0:0:
320,192,37099,1,0,0:0:0:0:
402,192,37099,1,0,0:0:0:0:
192,192,37268,1,0,0:0:0:0:
64,192,37268,1,0,0:0:0:0:
475,192,37268,1,0,0:0:0:0:
320,192,37437,1,0,0:0:0:0:
256,192,37437,1,0,0:0:0:0:
448,192,37605,1,0,0:0:0:0:
64,192,37605,1,0,0:0:0:0:
109,192,37605,1,0,0:0:0:0:
192,192,37774,1,0,0:0:0:0:
320,192,37774,1,0,0:0:0:0:
402,192,37774,1,0,0:0:0:0:
320,192,37942,1,0,0:0:0:0:
448,192,37942,1,0,0:0:0:0:
64,192,37942,1,0,0:0:0:0:
256,192,37942,1,0,0:0:0:0:
192,192,38111,1,0,0:0:0:0:
109,192,38111,1,0,0:0:0:0:
320,192,38279,1,0,0:0:0:0:
448,192,38279,1,0,0:0:0:0:
256,192,38279,1,0,0:0:0:0:
64,192,38448,1,0,0:0:0:0:
109,192,38448,1,0,0:0:0:0:
448,192,38616,1,0,0:0:0:0:
320,192,38616,1,0,0:0:0:0:
402,192,38616,1,0,0:0:0:0:
192,192,38785,1,0,0:0:0:0:
36,192,38785,1,0,0:0:0:0:
448,192,38953,1,0,0:0:0:0:
256,192,38953,1,0,0:0:0:0:
192,192,39122,1,0,0:0:0:0:
64,192,39122,1,0,0:0:0:0:
402,192,39122,1,0,0:0:0:0:
320,192,39290,1,0,0:0:0:0:
448,192,39290,1,0,0:0:0:0:
64,192,39290,1,0,0:0:0:0:
109,192,39290,1,0,0:0:0:0:
192,192,39459,1,0,0:0:0:0:
402,192,39459,1,0,0:0:0:0:
448,192,39628,1,0,0:0:0:0:
64,192,39628,1,0,0:0:0:0:
256,192,39628,1,0,0:0:0:0:
320,192,39796,1,0,0:0:0:0:
109,192,39796,1,0,0:0:0:0:
448,192,39965,1,0,0:0:0:0:
64,192,39965,1,0,0:0:0:0:
192,192,39965,1,0,0:0:0:0:
402,192,39965,1,0,0:0:0:0:
192,192,40133,1,0,0:0:0:0:
320,192,40133,1,0,0:0:0:0:
256,192,40133,1,0,0:0:0:0:
320,192,40302,1,0,0:0:0:0:
448,192,40302,1,0,0:0:0:0:
64,192,40302,1,0,0:0:0:0:
109,192,40302,1,0,0:0:0:0:
192,192,40470,1,0,0:0:0:0:
448,192,40470,1,0,0:0:0:0:
402,192,40470,1,0,0:0:0:0:
320,192,40555,1,0,0:0:0:0:
256,192,40555,1,0,0:0:0:0:
448,192,40639,1,0,0:0:0:0:
192,192,40639,1,0,0:0:0:0:
64,192,40639,1,0,0:0:0:0:
109,192,40639,1,0,0:0:0:0:
64,192,40807,1,0,0:0:0:0:
320,192,40807,1,0,0:0:0:0:
256,192,40807,1,0,0:0:0:0:
192,192,40976,1,0,0:0:0:0:
320,192,40976,1,0,0:0:0:0:
448,192,40976,1,0,0:0:0:0:
109,192,40976,1,0,0:0:0:0:
448,192,41144,1,0,0:0:0:0:
64,192,41144,1,0,0:0:0:0:
256,192,41144,1,0,0:0:0:0:
320,192,41313,1,0,0:0:0:0:
192,192,41313,1,0,0:0:0:0:
64,192,41313,1,0,0:0:0:0:
402,192,41313,1,0,0:0:0:0:
448,192,41481,1,0,0:0:0:0:
256,192,41481,1,0,0:0:0:0:
320,192,41650,1,0,0:0:0:0:
192,192,41650,1,0,0:0:0:0:
109,192,41650,1,0,0:0:0:0:
64,192,41819,1,0,0:0:0:0:
402,192,41819,1,0,0:0:0:0:
320,192,41987,1,0,0:0:0:0:
448,192,41987,1,0,0:0:0:0:
182,192,41987,1,0,0:0:0:0:
64,192,42156,1,0,0:0:0:0:
448,192,42156,1,0,0:0:0:0:
256,192,42156,1,0,0:0:0:0:
320,192,42324,1,0,0:0:0:0:
192,192,42324,1,0,0:0:0:0:
402,192,42324,1,0,0:0:0:0:
192,192,42493,1,0,0:0:0:0:
448,192,42493,1,0,0:0:0:0:
256,192,42493,1,0,0:0:0:0:
320,192,42661,1,0,0:0:0:0:
448,192,42661,1,0,0:0:0:0:
64,192,42661,1,0,0:0:0:0:
109,192,42661,1,0,0:0:0:0:
192,192,42830,1,0,0:0:0:0:
402,192,42830,1,0,0:0:0:0:
320,192,42998,1,0,0:0:0:0:
448,192,42998,1,0,0:0:0:0:
109,192,42998,1,0,0:0:0:0:
192,192,43167,1,0,0:0:0:0:
64,192,43167,1,0,0:0:0:0:
448,192,43167,1,0,0:0:0:0:
256,192,43167,1,0,0:0:0:0:
320,192,43335,1,0,0:0:0:0:
402,192,43335,1,0,0:0:0:0:
448,192,43504,1,0,0:0:0:0:
64,192,43504,1,0,0:0:0:0:
256,192,43504,1,0,0:0:0:0:
320,192,43672,1,0,0:0:0:0:
448,192,43672,1,0,0:0:0:0:
192,192,43672,1,0,0:0:0:0:
109,192,43672,1,0,0:0:0:0:
64,192,43841,1,0,0:0:0:0:
256,192,43841,1,0,0:0:0:0:
448,192,44010,128,0,44178:0:0:0:0:
109,192,44010,1,0,0:0:0:0:
192,192,44010,1,0,0:0:0:0:
402,192,44010,1,0,0:0:0:0:
320,192,44178,128,0,44347:0:0:0:0:
64,192,44178,1,0,0:0:0:0:
256,192,44178,1,0,0:0:0:0:
192,192,44347,128,0,44515:0:0:0:0:
448,192,44347,1,0,0:0:0:0:
109,192,44347,1,0,0:0:0:0:
64,192,44515,128,0,44852:0:0:0:0:
320,192,44515,1,0,0:0:0:0:
448,192,44515,1,0,0:0:0:0:
402,192,44515,1,0,0:0:0:0:
192,192,44852,128,0,45021:0:0:0:0:
448,192,44852,1,0,0:0:0:0:
109,192,44852,1,0,0:0:0:0:
320,192,45021,128,0,45189:0:0:0:0:
64,192,45021,1,0,0:0:0:0:
256,192,45021,1,0,0:0:0:0:
192,192,45189,1,0,0:0:0:0:
64,192,45189,1,0,0:0:0:0:
448,192,45189,1,0,0:0:0:0:
402,192,45189,1,0,0:0:0:0:
320,192,45274,1,0,0:0:0:0:
256,192,45274,1,0,0:0:0:0:
192,192,45358,1,0,0:0:0:0:
109,192,45358,1,0,0:0:0:0:
448,192,45442,1,0,0:0:0:0:
402,192,45442,1,0,0:0:0:0:
64,192,45526,1,0,0:0:0:0:
320,192,45526,1,0,0:0:0:0:
256,192,45526,1,0,0:0:0:0:
192,192,45611,1,0,0:0:0:0:
109,192,45611,1,0,0:0:0:0:
448,192,45695,1,0,0:0:0:0:
64,192,45695,1,0,0:0:0:0:
402,192,45695,1,0,0:0:0:0:
320,192,45779,1,0,0:0:0:0:
256,192,45779,1,0,0:0:0:0:
192,192,45863,1,0,0:0:0:0:
109,192,45863,1,0,0:0:0:0:
448,192,45948,1,0,0:0:0:0:
402,192,45948,1,0,0:0:0:0:
64,192,46032,1,0,0:0:0:0:
320,192,46032,1,0,0:0:0:0:
109,192,46032,1,0,0:0:0:0:
192,192,46116,1,0,0:0:0:0:
256,192,46116,1,0,0:0:0:0:
320,192,46201,1,0,0:0:0:0:
448,192,46201,1,0,0:0:0:0:
402,192,46201,1,0,0:0:0:0:
64,192,46285,1,0,0:0:0:0:
109,192,46285,1,0,0:0:0:0:
192,192,46369,1,0,0:0:0:0:
320,192,46369,1,0,0:0:0:0:
256,192,46369,1,0,0:0:0:0:
448,192,46453,1,0,0:0:0:0:
402,192,46453,1,0,0:0:0:0:
64,192,46538,1,0,0:0:0:0:
192,192,46538,1,0,0:0:0:0:
256,192,46538,1,0,0:0:0:0:
320,192,46622,1,0,0:0:0:0:
402,192,46622,1,0,0:0:0:0:
448,192,46706,1,0,0:0:0:0:
64,192,46706,1,0,0:0:0:0:
109,192,46706,1,0,0:0:0:0:
192,192,46790,1,0,0:0:0:0:
320,192,46790,1,0,0:0:0:0:
256,192,46790,1,0,0:0:0:0:
448,192,46875,1,0,0:0:0:0:
64,192,46875,1,0,0:0:0:0:
402,192,46875,1,0,0:0:0:0:
192,192,46959,1,0,0:0:0:0:
320,192,46959,1,0,0:0:0:0:
256,192,46959,1,0,0:0:0:0:
448,192,47043,1,0,0:0:0:0:
64,192,47043,1,0,0:0:0:0:
109,192,47043,1,0,0:0:0:0:
320,192,47128,1,0,0:0:0:0:
192,192,47128,1,0,0:0:0:0:
256,192,47128,1,0,0:0:0:0:
448,192,47212,1,0,0:0:0:0:
64,192,47212,1,0,0:0:0:0:
402,192,47212,1,0,0:0:0:0:
320,192,47296,1,0,0:0:0:0:
256,192,47296,1,0,0:0:0:0:
192,192,47380,1,0,0:0:0:0:
64,192,47380,1,0,0:0:0:0:
109,192,47380,1,0,0:0:0:0:
320,192,47465,1,0,0:0:0:0:
448,192,47465,1,0,0:0:0:0:
402,192,47465,1,0,0:0:0:0:
192,192,47549,1,0,0:0:0:0:
256,192,47549,1,0,0:0:0:0:
109,192,47549,1,0,0:0:0:0:
320,192,47633,1,0,0:0:0:0:
448,192,47633,1,0,0:0:0:0:
402,192,47633,1,0,0:0:0:0:
192,192,47717,1,0,0:0:0:0:
64,192,47717,1,0,0:0:0:0:
109,192,47717,1,0,0:0:0:0:
320,192,47802,1,0,0:0:0:0:
256,192,47802,1,0,0:0:0:0:
402,192,47802,1,0,0:0:0:0:
192,192,47886,1,0,0:0:0:0:
64,192,47886,1,0,0:0:0:0:
109,192,47886,1,0,0:0:0:0:
320,192,47970,1,0,0:0:0:0:
448,192,47970,1,0,0:0:0:0:
402,192,47970,1,0,0:0:0:0:
192,192,48055,1,0,0:0:0:0:
64,192,48055,1,0,0:0:0:0:
109,192,48055,1,0,0:0:0:0:
256,192,48055,1,0,0:0:0:0:
320,192,48392,1,0,0:0:0:0:
109,192,48392,1,0,0:0:0:0:
402,192,48729,1,0,0:0:0:0:
182,192,48729,1,0,0:0:0:0:
256,192,48897,1,0,0:0:0:0:
192,192,49066,1,0,0:0:0:0:
64,192,49066,1,0,0:0:0:0:
320,192,49066,1,0,0:0:0:0:
448,192,49066,1,0,0:0:0:0:
402,192,49066,1,0,0:0:0:0:
109,192,49066,1,0,0:0:0:0:
64,192,49403,1,0,0:0:0:0:
192,192,49403,1,0,0:0:0:0:
320,192,49403,1,0,0:0:0:0:
448,192,49403,1,0,0:0:0:0:
256,192,49403,1,0,0:0:0:0:
320,192,49656,1,0,0:0:0:0:
448,192,49656,1,0,0:0:0:0:
402,192,49656,1,0,0:0:0:0:
64,192,49740,1,0,0:0:0:0:
192,192,49740,1,0,0:0:0:0:
109,192,49740,1,0,0:0:0:0:
320,192,49908,1,0,0:0:0:0:
448,192,49908,1,0,0:0:0:0:
402,192,49908,1,0,0:0:0:0:
256,192,49993,1,0,0:0:0:0:
192,192,50077,1,0,0:0:0:0:
64,192,50077,1,0,0:0:0:0:
109,192,50077,1,0,0:0:0:0:
320,192,50246,1,0,0:0:0:0:
448,192,50246,1,0,0:0:0:0:
109,192,50246,1,0,0:0:0:0:
192,192,50414,1,0,0:0:0:0:
64,192,50414,1,0,0:0:0:0:
448,192,50414,1,0,0:0:0:0:
256,192,50414,1,0,0:0:0:0:
320,192,50583,1,0,0:0:0:0:
192,192,50583,1,0,0:0:0:0:
402,192,50583,1,0,0:0:0:0:
320,192,50751,1,0,0:0:0:0:
448,192,50751,1,0,0:0:0:0:
64,192,50751,1,0,0:0:0:0:
109,192,50751,1,0,0:0:0:0:
192,192,50920,1,0,0:0:0:0:
448,192,50920,1,0,0:0:0:0:
256,192,50920,1,0,0:0:0:0:
320,192,51088,1,0,0:0:0:0:
64,192,51088,1,0,0:0:0:0:
192,192,51088,1,0,0:0:0:0:
402,192,51088,1,0,0:0:0:0:
109,192,51257,1,0,0:0:0:0:
448,192,51257,1,0,0:0:0:0:
402,192,51257,1,0,0:0:0:0:
320,192,51341,1,0,0:0:0:0:
256,192,51341,1,0,0:0:0:0:
448,192,51425,1,0,0:0:0:0:
192,192,51425,1,0,0:0:0:0:
64,192,51425,1,0,0:0:0:0:
109,192,51425,1,0,0:0:0:0:
320,192,51594,1,0,0:0:0:0:
192,192,51594,1,0,0:0:0:0:
402,192,51594,1,0,0:0:0:0:
320,192,51762,1,0,0:0:0:0:
448,192,51762,1,0,0:0:0:0:
64,192,51762,1,0,0:0:0:0:
256,192,51762,1,0,0:0:0:0:
192,192,51931,1,0,0:0:0:0:
402,192,51931,1,0,0:0:0:0:
320,192,52099,1,0,0:0:0:0:
448,192,52099,1,0,0:0:0:0:
64,192,52099,128,0,52268:0:0:0:0:
109,192,52099,1,0,0:0:0:0:
448,192,52268,1,0,0:0:0:0:
256,192,52268,1,0,0:0:0:0:
320,192,52437,1,0,0:0:0:0:
64,192,52437,1,0,0:0:0:0:
192,192,52437,128,0,52605:0:0:0:0:
402,192,52437,1,0,0:0:0:0:
64,192,52605,1,0,0:0:0:0:
256,192,52605,1,0,0:0:0:0:
402,192,52774,1,0,0:0:0:0:
192,192,52774,1,0,0:0:0:0:
448,192,52774,128,0,52942:0:0:0:0:
109,192,52774,1,0,0:0:0:0:
402,192,52942,1,0,0:0:0:0:
329,192,52942,1,0,0:0:0:0:
192,192,53026,1,0,0:0:0:0:
256,192,53026,1,0,0:0:0:0:
448,192,53111,1,0,0:0:0:0:
64,192,53111,1,0,0:0:0:0:
320,192,53111,128,0,53279:0:0:0:0:
109,192,53111,1,0,0:0:0:0:
192,192,53279,1,0,0:0:0:0:
402,192,53279,1,0,0:0:0:0:
320,192,53448,1,0,0:0:0:0:
64,192,53448,1,0,0:0:0:0:
448,192,53448,128,0,53785:0:0:0:0:
109,192,53448,1,0,0:0:0:0:
192,192,53616,1,0,0:0:0:0:
256,192,53616,1,0,0:0:0:0:
320,192,53785,1,0,0:0:0:0:
192,192,53785,1,0,0:0:0:0:
64,192,53785,1,0,0:0:0:0:
402,192,53785,1,0,0:0:0:0:
448,192,53953,1,0,0:0:0:0:
64,192,53953,1,0,0:0:0:0:
109,192,53953,1,0,0:0:0:0:
320,192,54122,1,0,0:0:0:0:
448,192,54122,1,0,0:0:0:0:
192,192,54122,128,0,54459:0:0:0:0:
256,192,54122,1,0,0:0:0:0:
320,192,54290,1,0,0:0:0:0:
64,192,54290,1,0,0:0:0:0:
402,192,54290,1,0,0:0:0:0:
64,192,54459,1,0,0:0:0:0:
320,192,54459,1,0,0:0:0:0:
448,192,54459,1,0,0:0:0:0:
256,192,54459,1,0,0:0:0:0:
109,192,54628,1,0,0:0:0:0:
192,192,54628,1,0,0:0:0:0:
402,192,54628,1,0,0:0:0:0:
448,192,54796,1,0,0:0:0:0:
320,192,54796,1,0,0:0:0:0:
64,192,54796,1,0,0:0:0:0:
256,192,54796,1,0,0:0:0:0:
182,192,54796,1,0,0:0:0:0:
448,192,54965,1,0,0:0:0:0:
64,192,54965,1,0,0:0:0:0:
256,192,54965,1,0,0:0:0:0:
448,192,55133,1,0,0:0:0:0:
64,192,55133,1,0,0:0:0:0:
320,192,55133,1,0,0:0:0:0:
109,192,55133,1,0,0:0:0:0:
192,192,55302,1,0,0:0:0:0:
320,192,55302,1,0,0:0:0:0:
402,192,55302,1,0,0:0:0:0:
64,192,55386,1,0,0:0:0:0:
109,192,55386,1,0,0:0:0:0:
402,192,55470,1,0,0:0:0:0:
448,192,55470,1,0,0:0:0:0:
192,192,55470,1,0,0:0:0:0:
256,192,55470,1,0,0:0:0:0:
448,192,55639,1,0,0:0:0:0:
64,192,55639,1,0,0:0:0:0:
329,192,55639,1,0,0:0:0:0:
64,192,55807,1,0,0:0:0:0:
192,192,55807,1,0,0:0:0:0:
402,192,55807,1,0,0:0:0:0:
448,192,55976,1,0,0:0:0:0:
109,192,55976,1,0,0:0:0:0:
256,192,55976,1,0,0:0:0:0:
320,192,56144,1,0,0:0:0:0:
448,192,56144,1,0,0:0:0:0:
64,192,56144,1,0,0:0:0:0:
402,192,56144,1,0,0:0:0:0:
320,192,56313,1,0,0:0:0:0:
192,192,56313,1,0,0:0:0:0:
256,192,56313,1,0,0:0:0:0:
192,192,56481,1,0,0:0:0:0:
64,192,56481,1,0,0:0:0:0:
448,192,56481,1,0,0:0:0:0:
109,192,56481,1,0,0:0:0:0:
320,192,56650,1,0,0:0:0:0:
64,192,56650,1,0,0:0:0:0:
256,192,56650,1,0,0:0:0:0:
448,192,56734,1,0,0:0:0:0:
402,192,56734,1,0,0:0:0:0:
192,192,56819,1,0,0:0:0:0:
320,192,56819,1,0,0:0:0:0:
64,192,56819,1,0,0:0:0:0:
109,192,56819,1,0,0:0:0:0:
448,192,56987,1,0,0:0:0:0:
192,192,56987,1,0,0:0:0:0:
256,192,56987,1,0,0:0:0:0:
320,192,57156,1,0,0:0:0:0:
448,192,57156,1,0,0:0:0:0:
64,192,57156,1,0,0:0:0:0:
402,192,57156,1,0,0:0:0:0:
320,192,57324,1,0,0:0:0:0:
192,192,57324,1,0,0:0:0:0:
256,192,57324,1,0,0:0:0:0:
192,192,57493,1,0,0:0:0:0:
448,192,57493,1,0,0:0:0:0:
64,192,57493,1,0,0:0:0:0:
109,192,57493,1,0,0:0:0:0:
320,192,57661,1,0,0:0:0:0:
192,192,57661,1,0,0:0:0:0:
402,192,57661,1,0,0:0:0:0:
448,192,57830,1,0,0:0:0:0:
320,192,57830,1,0,0:0:0:0:
192,192,57830,1,0,0:0:0:0:
64,192,57830,1,0,0:0:0:0:
109,192,57830,1,0,0:0:0:0:
448,192,57998,1,0,0:0:0:0:
64,192,57998,1,0,0:0:0:0:
256,192,57998,1,0,0:0:0:0:
64,192,58167,1,0,0:0:0:0:
192,192,58167,1,0,0:0:0:0:
320,192,58167,1,0,0:0:0:0:
448,192,58167,1,0,0:0:0:0:
402,192,58167,1,0,0:0:0:0:
320,192,58335,1,0,0:0:0:0:
192,192,58335,1,0,0:0:0:0:
109,192,58335,1,0,0:0:0:0:
448,192,58504,1,0,0:0:0:0:
320,192,58504,1,0,0:0:0:0:
192,192,58504,1,0,0:0:0:0:
64,192,58504,1,0,0:0:0:0:
256,192,58504,1,0,0:0:0:0:
448,192,58672,1,0,0:0:0:0:
64,192,58672,1,0,0:0:0:0:
402,192,58672,1,0,0:0:0:0:
192,192,58841,1,0,0:0:0:0:
320,192,58841,1,0,0:0:0:0:
448,192,58841,1,0,0:0:0:0:
256,192,58841,1,0,0:0:0:0:
64,192,59010,1,0,0:0:0:0:
192,192,59010,1,0,0:0:0:0:
109,192,59010,1,0,0:0:0:0:
320,192,59094,1,0,0:0:0:0:
256,192,59094,1,0,0:0:0:0:
448,192,59178,1,0,0:0:0:0:
192,192,59178,1,0,0:0:0:0:
64,192,59178,1,0,0:0:0:0:
402,192,59178,1,0,0:0:0:0:
320,192,59347,1,0,0:0:0:0:
448,192,59347,1,0,0:0:0:0:
256,192,59347,1,0,0:0:0:0:
192,192,59431,1,0,0:0:0:0:
109,192,59431,1,0,0:0:0:0:
64,192,59515,1,0,0:0:0:0:
320,192,59515,1,0,0:0:0:0:
448,192,59515,1,0,0:0:0:0:
402,192,59515,1,0,0:0:0:0:
192,192,59684,1,0,0:0:0:0:
64,192,59684,1,0,0:0:0:0:
448,192,59684,1,0,0:0:0:0:
256,192,59684,1,0,0:0:0:0:
320,192,59852,1,0,0:0:0:0:
448,192,59852,1,0,0:0:0:0:
64,192,59852,1,0,0:0:0:0:
109,192,59852,1,0,0:0:0:0:
192,192,60021,1,0,0:0:0:0:
64,192,60021,1,0,0:0:0:0:
448,192,60021,1,0,0:0:0:0:
256,192,60021,1,0,0:0:0:0:
320,192,60189,1,0,0:0:0:0:
448,192,60189,1,0,0:0:0:0:
192,192,60189,1,0,0:0:0:0:
64,192,60189,1,0,0:0:0:0:
402,192,60189,1,0,0:0:0:0:
320,192,60358,1,0,0:0:0:0:
448,192,60358,1,0,0:0:0:0:
256,192,60358,1,0,0:0:0:0:
192,192,60442,1,0,0:0:0:0:
109,192,60442,1,0,0:0:0:0:
64,192,60526,1,0,0:0:0:0:
320,192,60526,1,0,0:0:0:0:
448,192,60526,1,0,0:0:0:0:
402,192,60526,1,0,0:0:0:0:
192,192,60695,1,0,0:0:0:0:
64,192,60695,1,0,0:0:0:0:
256,192,60695,1,0,0:0:0:0:
320,192,60779,1,0,0:0:0:0:
402,192,60779,1,0,0:0:0:0:
448,192,60863,1,0,0:0:0:0:
192,192,60863,1,0,0:0:0:0:
64,192,60863,1,0,0:0:0:0:
109,192,60863,1,0,0:0:0:0:
320,192,61032,1,0,0:0:0:0:
192,192,61032,1,0,0:0:0:0:
256,192,61032,1,0,0:0:0:0:
320,192,61201,1,0,0:0:0:0:
448,192,61201,1,0,0:0:0:0:
64,192,61201,1,0,0:0:0:0:
402,192,61201,1,0,0:0:0:0:
192,192,61369,1,0,0:0:0:0:
448,192,61369,1,0,0:0:0:0:
256,192,61369,1,0,0:0:0:0:
320,192,61538,1,0,0:0:0:0:
192,192,61538,1,0,0:0:0:0:
64,192,61538,1,0,0:0:0:0:
402,192,61538,1,0,0:0:0:0:
448,192,61706,1,0,0:0:0:0:
64,192,61706,1,0,0:0:0:0:
256,192,61706,1,0,0:0:0:0:
320,192,61875,1,0,0:0:0:0:
448,192,61875,1,0,0:0:0:0:
192,192,61875,1,0,0:0:0:0:
109,192,61875,1,0,0:0:0:0:
64,192,62043,1,0,0:0:0:0:
320,192,62043,1,0,0:0:0:0:
256,192,62043,1,0,0:0:0:0:
192,192,62212,1,0,0:0:0:0:
64,192,62212,1,0,0:0:0:0:
448,192,62212,1,0,0:0:0:0:
402,192,62212,1,0,0:0:0:0:
192,192,62380,1,0,0:0:0:0:
320,192,62380,1,0,0:0:0:0:
109,192,62380,1,0,0:0:0:0:
448,192,62549,1,0,0:0:0:0:
320,192,62549,1,0,0:0:0:0:
64,192,62549,1,0,0:0:0:0:
256,192,62549,1,0,0:0:0:0:
192,192,62717,1,0,0:0:0:0:
448,192,62717,1,0,0:0:0:0:
402,192,62717,1,0,0:0:0:0:
192,192,62886,1,0,0:0:0:0:
320,192,62886,1,0,0:0:0:0:
64,192,62886,128,0,63055:0:0:0:0:
256,192,62886,1,0,0:0:0:0:
320,192,63055,1,0,0:0:0:0:
109,192,63055,1,0,0:0:0:0:
192,192,63223,1,0,0:0:0:0:
64,192,63223,1,0,0:0:0:0:
448,192,63223,128,0,63392:0:0:0:0:
402,192,63223,1,0,0:0:0:0:
192,192,63392,1,0,0:0:0:0:
256,192,63392,1,0,0:0:0:0:
448,192,63560,1,0,0:0:0:0:
64,192,63560,1,0,0:0:0:0:
320,192,63560,128,0,63729:0:0:0:0:
109,192,63560,1,0,0:0:0:0:
192,192,63729,1,0,0:0:0:0:
402,192,63729,1,0,0:0:0:0:
64,192,63813,1,0,0:0:0:0:
109,192,63813,1,0,0:0:0:0:
192,192,63897,128,0,64066:0:0:0:0:
448,192,63897,1,0,0:0:0:0:
320,192,63897,1,0,0:0:0:0:
256,192,63897,1,0,0:0:0:0:
448,192,64066,1,0,0:0:0:0:
109,192,64066,1,0,0:0:0:0:
320,192,64234,1,0,0:0:0:0:
192,192,64234,1,0,0:0:0:0:
64,192,64234,128,0,64571:0:0:0:0:
402,192,64234,1,0,0:0:0:0:
448,192,64403,1,0,0:0:0:0:
320,192,64403,1,0,0:0:0:0:
256,192,64403,1,0,0:0:0:0:
192,192,64571,1,0,0:0:0:0:
320,192,64571,1,0,0:0:0:0:
448,192,64571,1,0,0:0:0:0:
109,192,64571,1,0,0:0:0:0:
192,192,64740,1,0,0:0:0:0:
64,192,64740,1,0,0:0:0:0:
402,192,64740,1,0,0:0:0:0:
448,192,64908,128,0,65246:0:0:0:0:
64,192,64908,1,0,0:0:0:0:
320,192,64908,1,0,0:0:0:0:
256,192,64908,1,0,0:0:0:0:
320,192,65077,1,0,0:0:0:0:
192,192,65077,1,0,0:0:0:0:
109,192,65077,1,0,0:0:0:0:
320,192,65246,1,0,0:0:0:0:
192,192,65246,1,0,0:0:0:0:
64,192,65246,1,0,0:0:0:0:
256,192,65246,1,0,0:0:0:0:
64,192,65414,1,0,0:0:0:0:
448,192,65414,1,0,0:0:0:0:
402,192,65414,1,0,0:0:0:0:
448,192,65583,1,0,0:0:0:0:
320,192,65583,1,0,0:0:0:0:
192,192,65583,1,0,0:0:0:0:
64,192,65583,1,0,0:0:0:0:
256,192,65583,1,0,0:0:0:0:
320,192,65751,1,0,0:0:0:0:
192,192,65751,1,0,0:0:0:0:
109,192,65751,1,0,0:0:0:0:
64,192,65920,1,0,0:0:0:0:
320,192,65920,1,0,0:0:0:0:
448,192,65920,1,0,0:0:0:0:
256,192,65920,1,0,0:0:0:0:
192,192,66088,1,0,0:0:0:0:
448,192,66088,1,0,0:0:0:0:
402,192,66088,1,0,0:0:0:0:
320,192,66257,1,0,0:0:0:0:
64,192,66257,1,0,0:0:0:0:
109,192,66257,1,0,0:0:0:0:
192,192,66341,1,0,0:0:0:0:
256,192,66341,1,0,0:0:0:0:
320,192,66425,1,0,0:0:0:0:
448,192,66425,1,0,0:0:0:0:
402,192,66425,1,0,0:0:0:0:
64,192,66510,1,0,0:0:0:0:
109,192,66510,1,0,0:0:0:0:
192,192,66594,1,0,0:0:0:0:
448,192,66594,1,0,0:0:0:0:
256,192,66594,1,0,0:0:0:0:
320,192,66678,1,0,0:0:0:0:
402,192,66678,1,0,0:0:0:0:
192,192,66762,1,0,0:0:0:0:
64,192,66762,1,0,0:0:0:0:
109,192,66762,1,0,0:0:0:0:
448,192,66847,1,0,0:0:0:0:
402,192,66847,1,0,0:0:0:0:
320,192,66931,1,0,0:0:0:0:
64,192,66931,1,0,0:0:0:0:
256,192,66931,1,0,0:0:0:0:
192,192,67015,1,0,0:0:0:0:
109,192,67015,1,0,0:0:0:0:
320,192,67099,1,0,0:0:0:0:
448,192,67099,1,0,0:0:0:0:
402,192,67099,1,0,0:0:0:0:
64,192,67184,1,0,0:0:0:0:
109,192,67184,1,0,0:0:0:0:
192,192,67268,1,0,0:0:0:0:
448,192,67268,1,0,0:0:0:0:
256,192,67268,1,0,0:0:0:0:
320,192,67352,1,0,0:0:0:0:
402,192,67352,1,0,0:0:0:0:
192,192,67437,1,0,0:0:0:0:
64,192,67437,1,0,0:0:0:0:
109,192,67437,1,0,0:0:0:0:
448,192,67521,1,0,0:0:0:0:
402,192,67521,1,0,0:0:0:0:
320,192,67605,1,0,0:0:0:0:
64,192,67605,1,0,0:0:0:0:
256,192,67605,1,0,0:0:0:0:
192,192,67689,1,0,0:0:0:0:
109,192,67689,1,0,0:0:0:0:
320,192,67774,1,0,0:0:0:0:
448,192,67774,1,0,0:0:0:0:
402,192,67774,1,0,0:0:0:0:
64,192,67858,1,0,0:0:0:0:
109,192,67858,1,0,0:0:0:0:
192,192,67942,1,0,0:0:0:0:
448,192,67942,1,0,0:0:0:0:
256,192,67942,1,0,0:0:0:0:
320,192,68026,1,0,0:0:0:0:
402,192,68026,1,0,0:0:0:0:
192,192,68111,1,0,0:0:0:0:
64,192,68111,1,0,0:0:0:0:
109,192,68111,1,0,0:0:0:0:
448,192,68195,1,0,0:0:0:0:
402,192,68195,1,0,0:0:0:0:
192,192,68279,1,0,0:0:0:0:
320,192,68279,1,0,0:0:0:0:
64,192,68279,1,0,0:0:0:0:
256,192,68279,1,0,0:0:0:0:
192,192,68616,1,0,0:0:0:0:
320,192,68616,1,0,0:0:0:0:
320,192,68785,1,0,0:0:0:0:
448,192,68785,1,0,0:0:0:0:
64,192,68785,1,0,0:0:0:0:
109,192,68785,1,0,0:0:0:0:
64,192,68953,1,0,0:0:0:0:
192,192,68953,1,0,0:0:0:0:
448,192,68953,1,0,0:0:0:0:
402,192,68953,1,0,0:0:0:0:
320,192,69290,1,0,0:0:0:0:
448,192,69290,1,0,0:0:0:0:
64,192,69290,1,0,0:0:0:0:
182,192,69290,1,0,0:0:0:0:
320,192,69628,1,0,0:0:0:0:
192,192,69628,1,0,0:0:0:0:
64,192,69628,1,0,0:0:0:0:
402,192,69628,1,0,0:0:0:0:
192,192,69965,1,0,0:0:0:0:
320,192,69965,1,0,0:0:0:0:
448,192,69965,1,0,0:0:0:0:
109,192,69965,1,0,0:0:0:0:
320,192,70302,1,0,0:0:0:0:
192,192,70302,1,0,0:0:0:0:
64,192,70302,1,0,0:0:0:0:
402,192,70302,1,0,0:0:0:0:
64,192,70639,1,0,0:0:0:0:
192,192,70639,1,0,0:0:0:0:
320,192,70639,1,0,0:0:0:0:
448,192,70639,1,0,0:0:0:0:
402,192,70639,1,0,0:0:0:0:
109,192,70639,1,0,0:0:0:0:
448,192,70976,1,0,0:0:0:0:
320,192,70976,1,0,0:0:0:0:
192,192,70976,1,0,0:0:0:0:
109,192,70976,1,0,0:0:0:0:
320,192,71313,1,0,0:0:0:0:
192,192,71313,1,0,0:0:0:0:
192,192,71481,1,0,0:0:0:0:
64,192,71481,1,0,0:0:0:0:
448,192,71481,1,0,0:0:0:0:
402,192,71481,1,0,0:0:0:0:
448,192,71650,1,0,0:0:0:0:
320,192,71650,1,0,0:0:0:0:
64,192,71650,1,0,0:0:0:0:
109,192,71650,1,0,0:0:0:0:
192,192,71987,1,0,0:0:0:0:
64,192,71987,1,0,0:0:0:0:
448,192,71987,1,0,0:0:0:0:
329,192,71987,1,0,0:0:0:0:
192,192,72324,5,0,0:0:0:0:
320,192,72324,1,0,0:0:0:0:
448,192,72324,1,0,0:0:0:0:
402,192,72324,1,0,0:0:0:0:
320,192,72661,1,0,0:0:0:0:
192,192,72661,1,0,0:0:0:0:
64,192,72661,1,0,0:0:0:0:
109,192,72661,1,0,0:0:0:0:
192,192,72998,1,0,0:0:0:0:
320,192,72998,1,0,0:0:0:0:
448,192,72998,1,0,0:0:0:0:
36,192,72998,1,0,0:0:0:0:
448,192,73335,128,0,73672:0:0:0:0:
320,192,73335,128,0,73672:0:0:0:0:
192,192,73335,128,0,73672:0:0:0:0:
64,192,73335,128,0,73672:0:0:0:0:
402,192,73335,128,0,73672:0:0:0:0:
109,192,73335,128,0,73672:0:0:0:0:
