osu file format v14

[General]
AudioFilename: audio.mp3
AudioLeadIn: 0
PreviewTime: 18619
Countdown: 0
SampleSet: Soft
StackLeniency: 0.6
Mode: 0
LetterboxInBreaks: 0
WidescreenStoryboard: 0

[Editor]
Bookmarks: 6374,12089,19436,20252,32497,45558,48415,56987,58619,83109,84742
DistanceSpacing: 1.1
BeatDivisor: 3
GridSize: 4
TimelineZoom: 1.9

[Metadata]
Title:P.O.D.
TitleUnicode:P.O.D.
Artist:ItaloBrothers
ArtistUnicode:ItaloBrothers
Creator:Nuvolina
Version:Normal
Source:
Tags:anto riffy bakari pod zooland records hands up cut version people of dreamhack techno electronic english trance
BeatmapID:1749332
BeatmapSetID:835219

[Difficulty]
HPDrainRate:3
CircleSize:3.5
OverallDifficulty:3
ApproachRate:5
SliderMultiplier:1.2
SliderTickRate:1

[Events]
//Background and Video events
0,0,"BG.jpg",0,0
//Break Periods
//Storyboard Layer 0 (Background)
//Storyboard Layer 1 (Fail)
//Storyboard Layer 2 (Pass)
//Storyboard Layer 3 (Foreground)
//Storyboard Sound Samples

[TimingPoints]
6375,408.163265306122,4,2,1,30,1,0
12905,-100,4,2,1,50,0,0
19436,-100,4,2,1,60,0,0
30864,-100,4,2,1,50,0,0
32497,-100,4,2,1,60,0,0
45558,-100,4,2,2,90,0,0
56987,-100,4,2,2,60,0,0
58619,-100,4,2,2,95,0,1
70456,-100,4,2,2,75,0,1
70864,-100,4,2,2,55,0,1
71272,-100,4,2,2,45,0,1
71681,-100,4,2,2,95,0,1
83109,-100,4,2,1,50,0,0
86374,-100,4,2,1,5,0,0

[Colours]
Combo1 : 255,128,64
Combo2 : 74,197,255
Combo3 : 223,223,223

[HitObjects]
74,253,6511,6,0,P|111:261|164:252,1,80,2|2,0:0|0:0,0:0:0:0:
282,236,7191,1,2,0:0:0:0:
213,124,7599,1,2,0:0:0:0:
323,52,8007,2,0,P|382:38|450:52,1,120,2|2,0:0|0:0,0:0:0:0:
443,179,8823,2,0,P|467:240|442:311,1,120,2|0,0:0|0:0,0:0:0:0:
421,320,9368,6,0,L|424:385,2,40,2|2|2,0:0|0:0|0:0,0:0:0:0:
317,237,10048,1,2,0:0:0:0:
214,154,10456,2,0,P|155:143|85:163,1,120,2|2,0:0|0:0,0:0:0:0:
157,273,11272,1,2,0:0:0:0:
41,337,11681,1,2,0:0:0:0:
10,208,12089,6,0,B|10:79,1,120,2|2,0:0|0:0,0:0:0:0:
133,40,12905,2,0,P|161:105|318:66,1,240,10|10,0:0|0:0,0:0:0:0:
414,14,14130,1,10,0:0:0:0:
480,127,14538,2,0,L|479:377,1,240,10|10,0:0|0:0,0:0:0:0:
360,308,15762,5,8,0:0:0:0:
238,361,16171,2,0,P|178:368|120:357,1,120,10|10,0:0|0:0,0:0:0:0:
34,256,16987,2,0,P|27:194|57:142,1,120,10|10,0:0|0:0,0:0:0:0:
143,48,17803,6,0,L|143:-1,2,40,2|2|2,0:0|0:0|0:0,0:0:0:0:
318,56,18619,1,2,0:0:0:0:
425,133,19028,1,2,0:0:0:0:
306,187,19436,6,0,P|251:176|186:199,1,120,12|8,0:0|0:0,0:0:0:0:
264,306,20252,2,0,P|322:318|379:303,1,120,10|10,0:0|0:0,0:0:0:0:
442,186,21068,1,8,0:0:0:0:
310,187,21477,2,0,P|318:127|295:65,1,120,8|8,0:0|0:0,0:0:0:0:
171,103,22293,1,10,0:0:0:0:
98,215,22701,2,0,P|-10:232|115:315,1,360,10|8,0:0|0:0,0:0:0:0:
233,260,24334,5,10,0:0:0:0:
316,361,24742,1,10,0:0:0:0:
401,260,25150,2,0,B|401:194|449:221|447:142,1,120,8|8,0:0|0:0,0:0:0:0:
381,39,25966,5,8,0:0:0:0:
251,65,26374,2,0,B|192:49|192:49|125:67,1,120,8|10,0:0|0:0,0:0:0:0:
58,172,27191,1,10,0:0:0:0:
189,186,27599,2,0,B|248:202|248:202|315:184,1,120,10|8,0:0|0:0,0:0:0:0:
251,65,28415,5,10,0:0:0:0:
304,186,28823,1,10,0:0:0:0:
436,190,29232,2,0,B|470:134|470:134|470:70,2,120,10|8|8,0:0|0:0|0:0,0:0:0:0:
304,191,30456,1,8,0:0:0:0:
172,194,30864,6,0,B|195:249|151:249|179:326,1,120,2|2,0:0|0:0,0:0:0:0:
255,277,31545,2,0,B|317:253|317:297|372:274,1,120,2|2,0:0|0:0,0:0:0:0:
297,118,32497,6,0,P|256:110|211:116,1,80,12|2,1:2|0:0,0:0:0:0:
189,147,32905,2,0,P|148:155|103:149,1,80,8|2,1:2|0:0,0:0:0:0:
66,146,33313,2,0,P|53:87|76:12,1,120,8|8,1:2|1:2,0:0:0:0:
197,17,34130,1,10,1:2:0:0:
306,89,34538,2,0,P|363:102|429:86,2,120,8|8|8,1:2|1:2|1:2,0:0:0:0:
176,112,35762,5,8,1:2:0:0:
233,230,36170,1,8,1:2:0:0:
289,349,36579,2,0,P|227:371|165:349,1,120,8|8,1:2|1:2,0:0:0:0:
101,248,37395,1,8,1:2:0:0:
233,230,37803,1,8,1:2:0:0:
176,112,38211,2,0,P|235:99|297:120,1,120,8|8,1:2|1:2,0:0:0:0:
418,81,39028,6,0,P|424:123|418:162,1,80,8|2,1:2|0:0,0:0:0:0:
376,172,39436,2,0,P|365:212|376:259,1,80,8|2,1:2|0:0,0:0:0:0:
386,290,39844,2,0,P|330:311|253:297,1,120,8|8,1:2|1:2,0:0:0:0:
145,265,40660,1,10,1:2:0:0:
114,136,41068,2,0,P|58:115|-19:129,2,120,8|8|8,1:2|1:2|1:2,0:0:0:0:
239,178,42293,6,0,P|236:133|251:79,1,80,8|2,1:2|0:0,0:0:0:0:
265,61,42701,2,0,P|302:54|358:62,1,80,8|2,1:2|0:0,0:0:0:0:
386,68,43109,2,0,P|403:135|386:201,1,120,8|8,1:2|1:2,0:0:0:0:
430,311,43926,5,2,0:0:0:0:
298,307,44334,2,0,P|256:317|214:305,1,80,2|0,0:0|0:0,0:0:0:0:
177,304,44742,2,0,P|164:242|178:182,1,120,2|6,0:0|0:0,0:0:0:0:
303,156,45558,5,4,1:2:0:0:
431,183,45966,2,0,B|442:145|442:145|430:98,1,80,0|0,1:2|0:0,0:0:0:0:
437,62,46374,2,0,B|396:53|396:53|337:65,1,80,2|2,1:2|0:2,0:0:0:0:
315,68,46783,1,2,1:2:0:0:
197,128,47191,1,2,1:2:0:0:
77,73,47599,1,0,1:2:0:0:
197,128,48007,6,0,P|202:168|196:209,1,80,2|2,1:2|0:2,0:0:0:0:
152,205,48415,2,0,P|146:245|152:286,1,80,2|2,1:2|0:2,0:0:0:0:
148,326,48823,2,0,P|204:340|270:326,1,120,2|0,1:2|1:2,0:0:0:0:
387,279,49640,1,0,1:2:0:0:
348,152,50048,1,0,1:2:0:0:
478,176,50456,6,0,B|489:136|489:136|473:68,1,80,2|0,1:2|0:0,0:0:0:0:
476,54,50864,2,0,B|437:46|437:46|387:61,1,80,2|2,1:2|0:0,0:0:0:0:
354,57,51272,2,0,B|296:72|296:72|231:55,1,120,0|0,1:2|1:2,0:0:0:0:
109,26,52089,5,0,1:2:0:0:
146,152,52497,1,0,1:2:0:0:
253,75,52905,2,0,P|299:81|345:65,1,80,2|2,1:2|0:2,0:0:0:0:
357,107,53313,2,0,P|367:146|360:195,1,80,2|2,1:2|0:2,0:0:0:0:
355,228,53721,2,0,P|412:248|483:221,1,120,2|0,1:2|1:2,0:0:0:0:
488,102,54538,1,2,1:2:0:0:
357,107,54946,1,2,1:2:0:0:
249,184,55354,6,0,B|189:202|189:202|122:181,1,120,0|0,1:2|1:2,0:0:0:0:
79,64,56170,2,0,B|139:46|139:46|206:67,1,120,0|0,1:2|1:2,0:0:0:0:
249,184,56987,5,2,1:2:0:0:
361,252,57395,1,2,1:2:0:0:
273,350,57803,2,0,P|208:364|139:342,1,120,2|0,1:2|1:2,0:0:0:0:
63,258,58619,5,4,1:2:0:0:
113,135,59028,1,8,0:0:0:0:
244,137,59436,2,0,P|236:97|244:46,1,80,2|2,1:2|0:0,0:0:0:0:
263,21,59844,2,0,P|303:13|354:21,1,80,10|2,0:0|0:0,0:0:0:0:
383,29,60252,2,0,P|398:88|368:157,1,120,2|8,1:2|0:0,0:0:0:0:
350,271,61068,6,0,B|308:273|308:273|263:251,1,80,2|2,1:2|0:0,0:0:0:0:
251,218,61477,2,0,B|209:216|209:216|164:238,1,80,10|0,0:0|0:0,0:0:0:0:
140,260,61885,1,2,1:2:0:0:
8,263,62293,2,0,B|8:324|8:324|54:387,2,120,8|0|8,0:0|1:2|0:0,0:0:0:0:
140,260,63517,5,2,1:2:0:0:
216,152,63926,1,10,0:0:0:0:
181,26,64334,2,0,L|87:24,1,80,2|2,1:2|0:0,0:0:0:0:
63,47,64742,2,0,P|44:87|46:139,1,80,8|0,0:0|1:0,0:0:0:0:
40,166,65150,5,0,1:2:0:0:
162,214,65558,1,8,0:0:0:0:
281,159,65966,2,0,B|281:69,1,80,2|2,1:2|0:0,0:0:0:0:
283,35,66374,2,0,B|326:27|326:27|370:35,1,80,8|2,0:0|0:0,0:0:0:0:
405,41,66783,1,2,1:2:0:0:
493,138,67191,1,8,0:0:0:0:
495,269,67599,6,0,P|455:262|408:271,1,80,2|2,1:2|0:0,0:0:0:0:
404,310,68007,2,0,P|364:317|317:308,1,80,8|2,0:0|0:0,0:0:0:0:
283,297,68415,1,0,1:2:0:0:
222,179,68823,1,8,0:0:0:0:
117,260,69232,2,0,L|-6:238,1,120,0|8,1:2|0:0,0:0:0:0:
69,127,70048,2,0,B|82:67|82:67|68:-3,2,120,0|8|0,1:2|0:0|1:2,0:0:0:0:
0,238,71272,1,8,0:0:0:0:
126,198,71681,6,0,P|187:187|250:201,1,120,4|8,1:2|0:0,0:0:0:0:
340,288,72497,2,0,P|378:295|429:288,1,80,2|2,1:2|0:0,0:0:0:0:
463,288,72905,2,0,B|487:243|487:243|488:192,1,80,8|2,0:0|0:0,0:0:0:0:
486,170,73313,2,0,P|427:155|369:169,1,120,2|8,1:2|0:0,0:0:0:0:
238,183,74130,1,0,1:2:0:0:
312,74,74538,1,8,0:0:0:0:
183,46,74946,2,0,B|124:33|124:33|59:46,1,120,0|8,1:2|0:0,0:0:0:0:
58,176,75762,5,0,1:2:0:0:
3,296,76170,1,8,0:0:0:0:
135,294,76579,2,0,P|174:314|224:314,1,80,2|2,1:2|0:0,0:0:0:0:
241,286,76987,2,0,P|280:289|315:308,1,80,10|2,0:0|0:0,0:0:0:0:
332,349,77395,2,0,P|394:352|461:330,1,120,0|8,1:2|0:0,0:0:0:0:
430,206,78211,5,0,1:2:0:0:
437,74,78619,1,8,0:0:0:0:
322,140,79028,2,0,B|259:126|259:126|198:144,1,120,2|10,1:2|0:0,0:0:0:0:
89,204,79844,1,2,1:2:0:0:
35,83,80252,1,8,0:0:0:0:
154,26,80660,6,0,L|234:27,1,80,2|2,1:2|0:0,0:0:0:0:
277,28,81068,1,8,0:0:0:0:
398,80,81477,2,0,P|424:136|406:203,2,120,2|8|0,1:2|0:0|1:2,0:0:0:0:
277,28,82701,1,8,0:0:0:0:
230,151,83109,5,2,1:2:0:0:
178,222,83381,2,0,P|109:238|60:218,1,120,2|2,0:0|0:0,0:0:0:0:
256,192,84198,12,0,86374,0:0:0:0:
