osu file format v14

[General]
AudioFilename: audio.mp3
AudioLeadIn: 0
PreviewTime: 47368
Countdown: 0
SampleSet: Soft
StackLeniency: 0.7
Mode: 0
LetterboxInBreaks: 0
WidescreenStoryboard: 1

[Editor]
DistanceSpacing: 1.1
BeatDivisor: 4
GridSize: 32
TimelineZoom: 1.550001

[Metadata]
Title:Summer Air
TitleUnicode:Summer Air
Artist:ItaloBrothers
ArtistUnicode:ItaloBrothers
Creator:L3NNy
Version:Normal
Source:
Tags:italo brothers english pop edm tropical future bass
BeatmapID:2084467
BeatmapSetID:996529

[Difficulty]
HPDrainRate:4
CircleSize:3
OverallDifficulty:4
ApproachRate:5
SliderMultiplier:1.7
SliderTickRate:1

[Events]
//Background and Video events
0,0,"356377.jpg",0,0
//Break Periods
2,123597,131609
//Storyboard Layer 0 (Background)
//Storyboard Layer 1 (Fail)
//Storyboard Layer 2 (Pass)
//Storyboard Layer 3 (Foreground)
//Storyboard Sound Samples

[TimingPoints]
1045,588.235294117647,4,2,1,45,1,0
1045,-100,4,2,1,45,0,0
10456,-100,4,2,1,50,0,0
29280,-100,4,2,1,40,0,0
38692,-100,4,2,1,50,0,0
47515,-100,4,2,1,70,0,0
48103,-100,4,2,1,70,0,0
57515,-100,4,2,1,76,0,0
66927,-100,4,2,1,50,0,0
76339,-100,4,2,1,58,0,0
85750,-100,4,2,1,40,0,0
95162,-100,4,2,1,50,0,0
103985,-100,4,2,1,70,0,0
104573,-100,4,2,1,70,0,0
113985,-100,4,2,1,76,0,0
123103,-100,4,2,1,76,0,0
123397,-100,4,2,1,50,0,0
132809,-100,4,2,1,55,0,0
141633,-100,4,2,1,75,0,0
142221,-100,4,2,1,75,0,1
158692,-100,4,2,1,55,0,0
159280,-100,4,2,1,5,0,0
159574,-100,4,2,1,55,0,0
160162,-100,4,2,1,5,0,0
160456,-100,4,2,1,70,0,0
161044,-100,4,2,1,70,0,0
170456,-100,4,2,1,76,0,0
179868,-100,4,2,1,55,0,0

[Colours]
Combo1 : 206,157,157
Combo2 : 128,255,255
Combo3 : 255,128,128
Combo4 : 128,128,192

[HitObjects]
23,124,10456,6,0,B|135:115|83:173|208:169,1,170,0|0,1:2|1:2,0:0:0:0:
256,112,11339,2,0,L|353:119,1,85,2|0,0:2|1:2,0:0:0:0:
432,137,11927,1,0,0:2:0:0:
432,137,12221,2,0,L|421:246,1,85,0|2,1:2|0:2,0:0:0:0:
490,287,12809,2,0,P|445:264|319:264,1,170,0|0,1:2|1:2,0:0:0:0:
263,329,13692,1,2,0:2:0:0:
263,329,13986,2,0,P|223:254|226:170,1,170,0|0,1:2|1:2,0:0:0:0:
229,77,14868,1,2,0:2:0:0:
229,77,15162,6,0,B|328:48|301:107|406:86,1,170,0|0,1:2|1:2,0:0:0:0:
485,109,16044,1,2,0:2:0:0:
485,109,16339,2,0,P|499:181|500:220,1,85,0|0,1:2|0:2,0:0:0:0:
501,285,16927,1,0,1:0:0:0:
501,285,17221,1,2,0:2:0:0:
484,376,17515,2,0,P|430:369|315:362,1,170,0|0,1:2|1:2,0:0:0:0:
221,363,18397,1,2,0:2:0:0:
221,363,18692,2,0,P|204:299|202:193,1,170,0|0,1:2|1:2,0:0:0:0:
229,102,19574,1,2,0:2:0:0:
229,102,19868,6,0,L|126:104,1,85,0|0,1:2|0:2,0:0:0:0:
109,16,20456,2,0,L|301:12,1,170,8|0,1:2|1:2,0:0:0:0:
342,81,21339,1,0,0:2:0:0:
342,81,21633,2,0,P|341:126|334:165,1,85,8|2,1:2|0:2,0:0:0:0:
299,252,22221,2,0,P|361:306|444:301,1,170,0|8,1:2|1:2,0:0:0:0:
474,213,23103,1,2,0:2:0:0:
474,213,23397,2,0,P|458:158|462:38,1,170,0|8,1:2|1:2,0:0:0:0:
372,12,24280,1,2,0:2:0:0:
372,12,24574,6,0,B|266:13|318:58|202:49,1,170,0|8,1:2|1:2,0:0:0:0:
122,17,25456,2,0,L|108:106,1,85,2|0,0:2|1:2,0:0:0:0:
46,172,26044,1,0,0:2:0:0:
46,172,26339,2,0,L|60:261,1,85,8|2,1:2|0:2,0:0:0:0:
18,340,26927,2,0,P|66:290|184:288,1,170,0|8,1:2|1:2,0:0:0:0:
223,350,27809,1,2,0:2:0:0:
223,350,28103,2,0,P|214:256|219:155,1,170,0|8,1:2|1:2,0:0:0:0:
251,93,28986,1,2,0:2:0:0:
251,93,29280,6,0,B|359:87|309:141|415:137,1,170,4|8,0:2|0:2,0:0:0:0:
485,307,30456,2,0,P|436:307|394:289,1,85,0|0,0:2|0:2,0:0:0:0:
336,228,31044,2,0,P|296:214|253:215,1,85,8|0,0:2|0:2,0:0:0:0:
177,269,31633,2,0,P|211:207|212:103,1,170,2|8,0:2|0:2,0:0:0:0:
328,345,33397,2,0,P|364:365|406:367,1,85,8|0,0:2|0:0,0:0:0:0:
390,275,33986,6,0,P|390:222|407:92,1,170,2|8,0:2|0:2,0:0:0:0:
456,28,34868,2,0,P|489:69|484:156,2,127.5,2|2|10,0:2|0:2|0:2,0:0:0:0:
362,20,36044,1,2,0:2:0:0:
362,20,36339,2,0,B|251:17|309:78|170:74,1,170,2|8,0:2|0:2,0:0:0:0:
45,169,37515,2,0,P|72:219|183:222,1,170,0|8,0:2|0:0,0:0:0:0:
247,167,38397,1,0,0:0:0:0:
247,167,38692,6,0,P|328:161|377:226,1,170,2|8,0:2|0:2,0:0:0:0:
394,318,39574,1,2,0:2:0:0:
394,318,39868,2,0,B|289:294|328:361|208:331,1,170,2|8,0:2|0:2,0:0:0:0:
139,311,40750,1,2,0:2:0:0:
139,311,41044,2,0,B|112:260|112:260|131:147,1,170,2|8,0:2|0:2,0:0:0:0:
153,58,41927,1,0,0:0:0:0:
153,58,42221,1,0,0:0:0:0:
338,36,42809,2,0,P|348:77|349:124,1,85,8|2,0:2|0:2,0:0:0:0:
432,162,43397,6,0,B|332:138|365:207|245:178,1,170,2|8,0:2|0:2,0:0:0:0:
177,162,44280,2,0,P|176:101|219:44,2,127.5,2|0|8,0:2|0:2|0:2,0:0:0:0:
202,258,45456,2,0,L|192:348,1,85,8|8,0:2|0:2,0:0:0:0:
192,342,47515,1,8,1:3:0:0:
276,302,47809,2,0,L|319:302,1,42.5,8|8,1:3|1:3,0:0:0:0:
359,324,48103,6,0,P|411:340|480:283,1,127.5,6|2,1:2|0:2,0:0:0:0:
424,221,48839,2,0,L|428:122,1,85,2|2,0:2|0:2,0:0:0:0:
401,96,49280,1,2,1:2:0:0:
313,64,49574,1,2,0:0:0:0:
235,121,49868,2,0,P|193:136|145:136,1,85,10|2,0:2|0:2,0:0:0:0:
64,107,50456,2,0,L|69:215,1,85,2|0,1:2|0:2,0:0:0:0:
72,285,51044,1,8,0:2:0:0:
246,351,51633,2,0,L|251:243,1,85,0|0,1:2|1:2,0:0:0:0:
295,184,52221,2,0,L|290:76,1,85,8|8,0:2|0:3,0:0:0:0:
355,31,52809,6,0,P|409:30|475:77,1,127.5,2|2,1:2|0:2,0:0:0:0:
430,152,53544,2,0,P|432:204|442:254,1,85,2|2,0:2|0:2,0:0:0:0:
446,282,53986,1,2,1:2:0:0:
353,266,54280,1,2,0:0:0:0:
295,339,54574,2,0,P|247:347|193:347,1,85,10|2,0:2|0:2,0:0:0:0:
127,305,55162,2,0,P|131:261|131:183,1,85,2|0,1:2|0:2,0:0:0:0:
117,127,55750,1,8,0:2:0:0:
254,253,56339,2,0,P|250:209|250:131,1,85,0|0,1:2|0:2,0:0:0:0:
270,77,56927,1,8,0:2:0:0:
362,94,57221,2,0,L|417:93,1,42.5,8|8,0:2|0:2,0:0:0:0:
449,80,57515,6,0,P|470:122|470:203,1,127.5,6|2,1:2|0:2,0:0:0:0:
426,283,58250,2,0,P|379:272|333:272,1,85,2|2,0:2|0:2,0:0:0:0:
304,299,58692,1,2,1:2:0:0:
214,325,58986,1,2,0:0:0:0:
146,257,59280,2,0,P|147:214|157:173,1,85,10|2,0:2|0:2,0:0:0:0:
206,93,59868,2,0,P|162:78|117:79,1,85,2|0,1:2|0:2,0:0:0:0:
34,103,60456,1,8,0:2:0:0:
146,257,61044,2,0,P|190:272|235:271,1,85,0|0,1:2|1:2,0:0:0:0:
293,204,61633,2,0,P|337:189|382:190,1,85,8|8,0:2|0:3,0:0:0:0:
467,201,62221,6,0,P|486:268|488:335,1,127.5,2|2,1:2|0:2,0:0:0:0:
408,373,62956,2,0,P|365:361|315:360,1,85,2|2,0:2|0:2,0:0:0:0:
280,375,63397,1,2,1:2:0:0:
272,279,63692,1,2,0:0:0:0:
281,189,63986,2,0,L|287:82,1,85,10|2,0:2|0:2,0:0:0:0:
217,39,64574,2,0,P|159:40|85:131,1,170,2|8,1:2|0:0,0:0:0:0:
153,292,65750,2,0,P|211:291|285:200,1,170,0|8,1:2|0:2,0:0:0:0:
306,122,66633,2,0,L|364:131,1,42.5,8|8,0:2|0:2,0:0:0:0:
392,141,66927,6,0,P|395:95|446:31,2,127.5,2|0|0,0:2|0:2|0:2,0:0:0:0:
449,269,68250,2,0,L|301:259,1,127.5,0|8,0:2|0:2,0:0:0:0:
242,311,68986,1,0,0:2:0:0:
242,311,69280,2,0,P|189:309|155:202,1,170,0|8,1:2|1:2,0:0:0:0:
178,123,70162,1,2,0:2:0:0:
178,123,70456,2,0,P|231:93|340:92,1,170,0|8,1:2|1:2,0:0:0:0:
428,114,71339,1,2,0:2:0:0:
428,114,71633,6,0,L|419:289,1,170,0|8,1:2|1:2,0:0:0:0:
353,349,72515,1,2,0:2:0:0:
353,349,72809,2,0,L|183:340,1,170,0|8,1:2|1:2,0:0:0:0:
93,311,73692,1,0,0:0:0:0:
93,311,73986,2,0,P|114:233|116:116,1,170,0|8,1:2|1:2,0:0:0:0:
105,51,74868,1,2,0:2:0:0:
105,51,75162,2,0,B|184:24|177:82|276:62,1,170,0|8,1:2|1:2,0:0:0:0:
361,41,76044,1,10,0:2:0:0:
361,41,76339,6,0,L|356:137,1,85,0|0,1:2|0:2,0:0:0:0:
422,191,76927,2,0,L|417:287,1,85,8|2,1:2|0:2,0:0:0:0:
363,352,77515,2,0,P|299:351|241:375,2,127.5,0|0|2,1:2|0:2|0:2,0:0:0:0:
451,383,78692,2,0,P|493:346|491:215,1,170,0|8,1:2|1:2,0:0:0:0:
463,153,79574,1,2,0:2:0:0:
463,153,79868,2,0,B|365:128|400:187|293:158,1,170,0|8,1:2|1:2,0:0:0:0:
212,121,80750,1,2,0:2:0:0:
212,121,81044,6,0,L|35:132,1,170,0|8,1:2|1:2,0:0:0:0:
31,224,81927,1,2,0:2:0:0:
31,224,82221,2,0,L|200:213,1,170,0|8,1:2|1:2,0:0:0:0:
294,212,83103,1,2,0:2:0:0:
294,212,83397,2,0,P|325:165|324:43,1,170,0|8,1:2|1:2,0:0:0:0:
241,17,84280,1,2,0:2:0:0:
241,17,84574,2,0,B|138:13|192:60|75:71,1,170,0|8,1:2|1:2,0:0:0:0:
18,136,85456,1,2,0:2:0:0:
84,202,85750,6,0,P|154:202|205:106,1,170,4|8,0:2|0:2,0:0:0:0:
364,25,86927,2,0,P|413:25|455:43,1,85,0|0,0:2|0:2,0:0:0:0:
498,114,87515,2,0,P|498:156|484:196,1,85,8|0,0:2|0:2,0:0:0:0:
431,273,88103,2,0,B|337:244|357:304|250:261,1,170,2|8,0:2|0:2,0:0:0:0:
28,55,89868,2,0,P|64:75|106:77,1,85,8|0,0:2|0:0,0:0:0:0:
174,11,90456,6,0,P|161:95|160:180,1,170,2|8,0:2|0:2,0:0:0:0:
167,273,91339,2,0,B|127:257|127:257|24:266,2,127.5,2|2|10,0:2|0:2|0:2,0:0:0:0:
240,330,92515,1,2,0:2:0:0:
240,330,92809,2,0,P|314:329|354:249,1,170,2|8,0:2|0:2,0:0:0:0:
274,81,93986,2,0,P|200:82|160:162,1,170,0|0,0:2|0:0,0:0:0:0:
115,242,94868,1,0,0:0:0:0:
115,242,95162,6,0,P|55:241|22:143,1,170,2|8,0:2|0:2,0:0:0:0:
75,75,96044,1,2,0:2:0:0:
75,75,96339,2,0,B|128:51|128:51|267:82,1,170,2|8,0:2|0:2,0:0:0:0:
332,101,97221,1,2,0:2:0:0:
332,101,97515,2,0,P|316:173|313:296,1,170,2|8,0:2|0:2,0:0:0:0:
319,361,98397,1,0,0:0:0:0:
319,361,98692,1,0,0:0:0:0:
134,334,99280,2,0,P|132:292|109:254,1,85,8|2,0:2|0:2,0:0:0:0:
34,201,99868,6,0,P|98:199|204:157,1,170,2|8,0:2|0:2,0:0:0:0:
236,77,100750,2,0,P|178:57|116:80,2,127.5,2|0|8,0:2|0:2|0:2,0:0:0:0:
303,142,101927,2,0,P|297:184|293:232,1,85,8|8,0:2|0:2,0:0:0:0:
293,226,103986,1,8,1:3:0:0:
231,296,104280,2,0,L|188:296,1,42.5,8|8,1:3|1:3,0:0:0:0:
148,320,104574,6,0,P|148:259|135:158,1,127.5,6|2,1:2|0:2,0:0:0:0:
109,105,105309,2,0,L|208:109,1,85,2|2,0:2|0:2,0:0:0:0:
234,131,105750,1,2,1:2:0:0:
308,75,106044,1,2,0:0:0:0:
397,103,106339,2,0,P|395:145|383:185,1,85,10|2,0:2|0:2,0:0:0:0:
292,208,106927,2,0,P|279:248|277:290,1,85,2|0,1:2|0:2,0:0:0:0:
303,380,107515,1,8,0:2:0:0:
115,380,108103,2,0,P|127:339|129:297,1,85,0|0,1:2|1:2,0:0:0:0:
114,204,108692,2,0,P|116:161|127:120,1,85,8|8,0:2|0:3,0:0:0:0:
183,46,109280,6,0,P|245:47|306:81,1,127.5,2|2,1:2|0:2,0:0:0:0:
391,105,110015,2,0,P|393:157|390:211,1,85,2|2,0:2|0:2,0:0:0:0:
386,236,110456,1,2,1:2:0:0:
294,215,110750,1,2,0:0:0:0:
247,293,111044,2,0,P|199:301|145:301,1,85,10|2,0:2|0:2,0:0:0:0:
71,280,111633,2,0,P|70:223|77:166,1,85,2|0,1:2|0:2,0:0:0:0:
87,103,112221,1,8,0:2:0:0:
240,210,112809,2,0,P|241:153|234:96,1,85,0|0,1:2|0:2,0:0:0:0:
224,33,113397,1,8,0:2:0:0:
312,65,113692,2,0,L|367:64,1,42.5,8|8,0:2|0:2,0:0:0:0:
401,61,113986,6,0,P|400:137|403:206,1,127.5,6|2,1:2|0:2,0:0:0:0:
425,278,114721,2,0,L|323:277,1,85,2|2,0:2|0:2,0:0:0:0:
310,313,115162,1,2,1:2:0:0:
216,315,115456,1,2,0:0:0:0:
154,243,115750,2,0,L|52:242,1,85,10|2,0:2|0:2,0:0:0:0:
17,163,116339,2,0,P|17:124|41:80,1,85,2|0,1:2|0:2,0:0:0:0:
103,17,116927,1,8,0:2:0:0:
235,149,117515,2,0,P|274:149|318:125,1,85,0|0,1:2|1:2,0:0:0:0:
401,94,118103,2,0,P|443:94|480:114,1,85,8|8,0:2|0:3,0:0:0:0:
487,207,118692,6,0,P|477:280|475:348,1,127.5,2|2,1:2|0:2,0:0:0:0:
390,374,119427,2,0,P|387:326|380:278,1,85,2|2,0:2|0:2,0:0:0:0:
359,248,119868,1,2,1:2:0:0:
396,162,120162,1,2,0:0:0:0:
373,71,120456,2,0,P|330:65|288:63,1,85,10|2,0:2|0:2,0:0:0:0:
208,115,121044,2,0,B|102:90|139:154|23:126,1,170,2|8,1:2|0:0,0:0:0:0:
42,317,122221,2,0,B|148:292|111:356|227:328,1,170,0|8,1:2|0:2,0:0:0:0:
273,266,123103,2,0,L|377:271,1,85,8|2,0:2|0:2,0:0:0:0:
289,334,132809,6,0,P|298:279|296:158,1,170,2|8,0:2|0:2,0:0:0:0:
230,98,133692,1,2,0:2:0:0:
230,98,133986,2,0,L|123:93,1,85,2|0,0:2|0:2,0:0:0:0:
51,88,134574,2,0,P|55:131|55:187,1,85,8|0,0:2|0:2,0:0:0:0:
7,252,135162,2,0,P|68:206|160:224,1,170,2|8,0:2|0:2,0:0:0:0:
228,279,136044,2,0,P|287:278|331:178,1,170,2|0,0:2|0:2,0:0:0:0:
306,98,136927,1,8,0:2:0:0:
464,197,137515,6,0,L|465:367,1,170,2|8,0:2|0:2,0:0:0:0:
371,374,138397,2,0,L|370:204,1,170,2|0,0:2|0:2,0:0:0:0:
324,122,139280,2,0,P|288:103|237:103,1,85,8|0,0:2|0:2,0:0:0:0:
157,134,139868,1,2,0:1:0:0:
157,134,141633,1,8,1:3:0:0:
229,192,141927,2,0,L|219:241,1,42.5,8|8,1:3|1:3,0:0:0:0:
206,278,142221,6,0,P|264:262|338:272,2,127.5,6|2|2,1:2|0:2|0:2,0:0:0:0:
123,322,143397,2,0,P|103:271|103:209,1,85,2|2,1:2|0:2,0:0:0:0:
138,155,143986,1,8,0:2:0:0:
71,88,144280,1,0,0:0:0:0:
148,36,144574,2,0,B|219:19|195:67|294:46,2,127.5,2|2|2,1:2|0:2|0:2,0:0:0:0:
71,88,145750,1,2,1:2:0:0:
138,155,146044,1,2,0:2:0:0:
77,226,146339,2,0,L|87:322,1,85,10|0,0:2|0:2,0:0:0:0:
163,363,146927,6,0,P|99:360|40:382,2,127.5,2|2|2,1:2|0:2|0:2,0:0:0:0:
255,373,148103,2,0,P|262:332|262:280,1,85,2|2,1:2|0:2,0:0:0:0:
209,211,148692,2,0,P|209:168|216:126,1,85,10|2,0:2|0:2,0:0:0:0:
265,47,149280,2,0,P|215:18|137:22,2,127.5,2|2|2,1:2|0:2|0:2,0:0:0:0:
324,119,150456,2,0,L|429:110,1,85,2|0,1:2|0:2,0:0:0:0:
422,204,151044,2,0,L|337:211,1,85,8|0,0:2|0:0,0:0:0:0:
248,179,151633,6,0,B|177:178|199:218|120:215,2,127.5,6|2|2,1:2|0:2|0:2,0:0:0:0:
244,272,152809,2,0,P|244:322|269:367,1,85,2|2,1:2|0:2,0:0:0:0:
351,353,153397,2,0,P|366:313|365:271,1,85,8|0,0:2|0:0,0:0:0:0:
361,178,153986,2,0,B|432:177|410:217|489:214,2,127.5,2|2|2,1:2|0:2|0:2,0:0:0:0:
268,190,155162,1,2,1:2:0:0:
299,101,155456,1,2,0:2:0:0:
212,66,155750,2,0,P|169:66|129:78,1,85,10|0,0:2|0:2,0:0:0:0:
84,161,156339,6,0,P|81:97|48:45,2,127.5,2|2|2,1:2|0:2|0:2,0:0:0:0:
36,241,157515,2,0,P|73:266|126:272,1,85,2|2,1:2|0:2,0:0:0:0:
178,206,158103,2,0,P|215:181|268:175,1,85,10|2,0:2|0:2,0:0:0:0:
321,239,158692,2,0,P|295:142|438:120,2,255,2|2|8,0:2|0:2|1:3,0:0:0:0:
373,316,160750,2,0,L|425:310,1,42.5,8|8,1:3|1:3,0:0:0:0:
458,327,161044,6,0,P|454:277|472:183,1,127.5,6|2,1:2|0:2,0:0:0:0:
508,117,161780,2,0,P|462:97|408:97,1,85,2|2,0:2|0:2,0:0:0:0:
385,114,162221,1,2,1:2:0:0:
292,101,162515,1,2,0:0:0:0:
233,177,162809,2,0,L|145:174,1,85,10|2,0:2|0:2,0:0:0:0:
55,189,163397,2,0,P|64:230|67:272,1,85,2|0,1:2|0:2,0:0:0:0:
63,366,163986,1,8,0:2:0:0:
227,277,164574,2,0,P|268:267|310:264,1,85,0|0,1:2|1:2,0:0:0:0:
404,269,165162,2,0,P|412:227|435:179,1,85,8|8,0:0|0:3,0:0:0:0:
486,114,165750,6,0,P|436:79|364:77,1,127.5,2|2,1:2|0:2,0:0:0:0:
310,146,166486,2,0,L|203:138,1,85,2|2,0:2|0:2,0:0:0:0:
178,134,166927,1,2,1:2:0:0:
113,65,167221,1,2,0:0:0:0:
23,92,167515,2,0,P|19:134|34:173,1,85,10|2,0:2|0:2,0:0:0:0:
126,196,168103,2,0,L|118:298,1,85,2|0,1:2|0:2,0:0:0:0:
110,374,168692,1,8,0:2:0:0:
287,316,169280,2,0,L|389:308,1,85,0|0,1:2|0:2,0:0:0:0:
465,300,169868,1,8,0:2:0:0:
410,224,170162,2,0,L|414:170,1,42.5,8|8,0:2|0:2,0:0:0:0:
420,135,170456,6,0,P|381:111|295:109,1,127.5,6|2,1:2|0:2,0:0:0:0:
229,167,171192,2,0,P|238:218|238:264,1,85,2|2,0:2|0:2,0:0:0:0:
238,297,171633,1,2,1:2:0:0:
152,335,171927,1,2,0:0:0:0:
60,308,172221,2,0,L|64:218,1,85,10|2,0:2|0:2,0:0:0:0:
129,156,172809,2,0,L|125:66,1,85,2|0,1:2|0:2,0:0:0:0:
59,4,173397,1,8,0:2:0:0:
245,17,173986,2,0,L|335:21,1,85,0|0,1:2|1:2,0:0:0:0:
356,110,174574,2,0,L|271:106,1,85,8|8,0:0|0:3,0:0:0:0:
246,195,175162,6,0,P|289:233|370:235,1,127.5,2|2,1:2|0:2,0:0:0:0:
449,252,175897,2,0,P|437:199|439:146,1,85,2|2,0:2|0:2,0:0:0:0:
461,128,176339,1,2,1:2:0:0:
374,92,176633,1,2,0:0:0:0:
326,171,176927,2,0,P|283:193|234:193,1,85,10|2,0:2|0:2,0:0:0:0:
164,152,177515,2,0,P|101:158|60:257,1,170,2|8,1:2|0:0,0:0:0:0:
84,335,178397,1,0,0:2:0:0:
164,286,178692,2,0,B|265:262|228:330|337:308,1,170,0|8,1:2|0:2,0:0:0:0:
416,286,179574,2,0,P|421:238|421:186,1,85,2|2,0:2|0:2,0:0:0:0:
