osu file format v14

[General]
AudioFilename: audio.mp3
AudioLeadIn: 0
PreviewTime: 32107
Countdown: 0
SampleSet: Normal
StackLeniency: 0.7
Mode: 1
LetterboxInBreaks: 0
WidescreenStoryboard: 0

[Editor]
DistanceSpacing: 1.6
BeatDivisor: 4
GridSize: 32
TimelineZoom: 2.1

[Metadata]
Title:Summer (Nightcore Mix)
TitleUnicode:Summer (Nightcore Mix)
Artist:ItaloBrothers
ArtistUnicode:ItaloBrothers
Creator:hz404
Version:I want you
Source:
Tags:LeomineXD electronic english techno electrodance electro dance remix i wanna see you in the
BeatmapID:4034225
BeatmapSetID:1948960

[Difficulty]
HPDrainRate:5.5
CircleSize:5
OverallDifficulty:6
ApproachRate:10
SliderMultiplier:1.4
SliderTickRate:1

[Events]
//Background and Video events
0,0,"bg.jpg",0,80
//Break Periods
//Storyboard Layer 0 (Background)
//Storyboard Layer 1 (Fail)
//Storyboard Layer 2 (Pass)
//Storyboard Layer 3 (Foreground)
//Storyboard Layer 4 (Overlay)
//Storyboard Sound Samples

[TimingPoints]
989,331.052747737806,4,1,0,30,1,0
989,-111.111111111111,4,1,0,30,0,0
6203,-111.111111111111,4,1,0,60,0,0
10414,-111.111111111111,4,1,0,60,0,0
10579,-109.379427599887,4,1,0,60,0,0
10745,-107.690876964568,4,1,0,60,0,0
10910,-106.063381571716,4,1,0,60,0,0
11241,-102.942483776336,4,1,0,60,0,0
11407,-101.445466491459,4,1,0,60,0,0
11499,-100,4,1,0,70,0,0
27463,-100,4,1,0,80,0,0
27628,-99.4687416152401,4,1,0,80,0,0
27794,-98.9399293286219,4,1,0,80,0,0
27959,-98.4198453827202,4,1,0,80,0,0
28125,-97.9020979020979,4,1,0,80,0,0
28290,-97.3928395035781,4,1,0,80,0,0
28373,-97.1386647101981,4,1,0,80,0,0
28456,-96.8858131487889,4,1,0,80,0,0
28621,-96.3870457807268,4,1,0,80,0,0
28787,-95.8904109589041,4,1,0,80,0,0
28952,-95.4018137461785,4,1,0,80,0,0
29035,-95.1579120292415,4,1,0,80,0,0
29118,-94.9152542372881,4,1,0,80,0,0
29284,-94.4336325565756,4,1,0,80,0,0
29449,-93.9597315436242,4,1,0,80,0,0
29615,-93.4877340219497,4,1,0,80,0,0
29697,-93.2563240828319,4,1,0,80,0,0
29780,-93.0232558139535,4,1,0,80,0,0
29946,-92.5605968300892,4,1,0,80,0,0
30111,-92.1052631578947,4,1,0,80,0,0
30194,-91.8779058816532,4,1,0,80,0,0
30277,-91.6516682818773,4,1,0,80,0,0
30359,-91.4292478888801,4,1,0,80,0,0
30442,-91.2052117263844,4,1,0,80,0,0
30525,-90.9822708263797,4,1,0,80,0,0
30608,-90.7604171767125,4,1,0,80,0,0
30690,-90.5422963824113,4,1,0,80,0,0
30773,-90.3225806451613,4,1,0,80,0,0
30856,-90.1039286790655,4,1,0,80,0,0
30939,-89.8863327772821,4,1,0,80,0,0
31022,-89.6697853072361,4,1,0,80,0,0
31104,-89.4568690095847,4,1,0,80,0,0
31187,-89.2423833917498,4,1,0,80,0,0
31270,-89.0289238335847,4,1,0,80,0,0
31353,-88.8164829899377,4,1,0,80,0,0
31435,-88.6075949367089,4,1,0,80,0,0
31518,-88.397157708999,4,1,0,80,0,0
31601,-88.1877176622833,4,1,0,80,0,0
31684,-87.9792677254303,4,1,0,80,0,0
31766,-87.7742946708464,4,1,0,80,0,0
31849,-87.5677922863244,4,1,0,80,0,0
31932,-87.3622592777626,4,1,0,80,0,0
32015,-87.1576888353897,4,1,0,80,0,0
32097,-86.9565217391304,4,1,0,80,0,0
32263,-89.8922106975798,4,1,0,80,0,0
32429,-93.0330456745948,4,1,0,80,0,0
32594,-96.3802878325338,4,1,0,80,0,0
32760,-100,4,1,0,80,0,0
42691,-100,4,1,0,80,0,0
42857,-97.5537872089596,4,1,0,80,0,0
43022,-95.2380952380952,4,1,0,80,0,0
43188,-93.0167205283125,4,1,0,80,0,0
43280,-90.9090909090909,4,1,0,90,0,0
43363,-90.9090909090909,4,1,0,90,0,1
53874,-95.2380952380952,4,1,0,70,0,1
53957,-95.2380952380952,4,1,0,70,0,0
56192,-76.9230769230769,4,1,0,70,0,0
56523,-100,4,1,0,70,0,0
72651,-100,4,1,0,70,0,0
72817,-101.453081232493,4,1,0,70,0,0
72982,-102.939870325961,4,1,0,70,0,0
73148,-104.480302893717,4,1,0,70,0,0
73314,-106.067539123273,4,1,0,70,0,0
73479,-107.693737223564,4,1,0,70,0,0
73645,-109.380898452246,4,1,0,70,0,0
73810,-111.111111111111,4,1,0,70,0,0
84331,-105.263157894737,4,1,0,70,0,0
89701,-105.263157894737,4,1,0,80,0,0
89866,-104.4799675332,4,1,0,70,0,0
89949,-104.090388373504,4,1,0,70,0,0
90032,-103.703703703704,4,1,0,70,0,0
90114,-103.324488840331,4,1,0,70,0,0
90197,-102.943463290014,4,1,0,70,0,0
90363,-102.189781021898,4,1,0,70,0,0
90446,-101.817063256652,4,1,0,70,0,0
90528,-101.451496376732,4,1,0,70,0,0
90611,-101.08413498244,4,1,0,70,0,0
90694,-100.719424460432,4,1,0,70,0,0
90777,-100.357336220899,4,1,0,70,0,0
90859,-100.002158009452,4,1,0,70,0,0
91025,-99.290780141844,4,1,0,70,0,0
91108,-98.938873113137,4,1,0,70,0,0
91190,-98.593646943682,4,1,0,70,0,0
91273,-98.2466555006679,4,1,0,70,0,0
91356,-97.9020979020979,4,1,0,70,0,0
91439,-97.5599486304975,4,1,0,70,0,0
91521,-97.2242620061683,4,1,0,70,0,0
91604,-96.8868259842355,4,1,0,70,0,0
91687,-96.551724137931,4,1,0,70,0,0
91770,-96.2189323311393,4,1,0,70,0,0
91852,-95.8923952405587,4,1,0,70,0,0
91935,-95.5641253016024,4,1,0,70,0,0
92018,-95.2380952380953,4,1,0,70,0,0
92101,-94.91428220306,4,1,0,70,0,0
92184,-94.5926636591888,4,1,0,70,0,0
92349,-93.9597315436242,4,1,0,70,0,0
92432,-93.6445387491159,4,1,0,70,0,0
92515,-93.3314535457493,4,1,0,70,0,0
92597,-93.0241895011543,4,1,0,70,0,0
92680,-92.7152317880795,4,1,0,70,0,0
92763,-92.4083195405508,4,1,0,70,0,0
92846,-92.1034325124719,4,1,0,70,0,0
92928,-91.8041880460408,4,1,0,70,0,0
93011,-91.5032679738562,4,1,0,70,0,0
93094,-91.2043141963038,4,1,0,70,0,0
93177,-90.9073075036783,4,1,0,70,0,0
93259,-90.6157726979409,4,1,0,70,0,0
93342,-90.3225806451613,4,1,0,70,0,0
93425,-90.031279749762,4,1,0,70,0,0
93508,-89.7418517729535,4,1,0,70,0,0
93591,-89.4542787097272,4,1,0,70,0,0
93673,-89.171974522293,4,1,0,70,0,0
93756,-88.888036368519,4,1,0,70,0,0
93839,-88.6059006864376,4,1,0,70,0,0
93922,-88.3255503669113,4,1,0,70,0,0
94004,-88.0503144654088,4,1,0,70,0,0
94087,-87.7734633961549,4,1,0,70,0,0
94170,-87.498347840864,4,1,0,70,0,0
94253,-87.2249515312365,4,1,0,70,0,0
94335,-86.9565217391304,4,1,0,70,0,0
94556,-90.9153333791114,4,1,0,70,0,0
94666,-93.0232558139535,4,1,0,70,0,0
94887,-97.5681650700074,4,1,0,70,0,0
94997,-100,4,1,0,70,0,0
104929,-100,4,1,0,70,0,0
105095,-97.5537872089596,4,1,0,70,0,0
105260,-95.2380952380952,4,1,0,70,0,0
105426,-93.0167205283125,4,1,0,70,0,0
105591,-90.9090909090909,4,1,0,90,0,0
105601,-90.9090909090909,4,1,0,90,0,1
116112,-95.2380952380952,4,1,0,70,0,1
116195,-95.2380952380952,4,1,0,70,0,0

[HitObjects]
256,192,6285,5,8,0:0:0:0:
256,192,6616,1,8,0:0:0:0:
256,192,6947,1,0,0:0:0:0:
256,192,7279,1,8,0:0:0:0:
256,192,7444,1,0,0:0:0:0:
256,192,7775,1,0,0:0:0:0:
256,192,7941,1,8,0:0:0:0:
256,192,8106,1,8,0:0:0:0:
256,192,8272,1,0,0:0:0:0:
256,192,8603,1,0,0:0:0:0:
256,192,8934,1,8,0:0:0:0:
256,192,9265,1,0,0:0:0:0:
256,192,9596,1,8,0:0:0:0:
256,192,9927,1,0,0:0:0:0:
256,192,10092,1,8,0:0:0:0:
256,192,10424,1,0,0:0:0:0:
256,192,10589,1,0,0:0:0:0:
256,192,10755,1,0,0:0:0:0:
256,192,10920,1,8,0:0:0:0:
256,192,11251,1,8,0:0:0:0:
256,192,11417,1,8,0:0:0:0:
256,192,11582,1,4,0:0:0:0:
256,192,11913,1,0,0:0:0:0:
256,192,12079,1,0,0:0:0:0:
256,192,12244,1,8,0:0:0:0:
256,192,12575,1,8,0:0:0:0:
256,192,12741,1,0,0:0:0:0:
256,192,13072,1,0,0:0:0:0:
256,192,13237,1,8,0:0:0:0:
256,192,13569,1,0,0:0:0:0:
256,192,13734,1,0,0:0:0:0:
256,192,13900,1,8,0:0:0:0:
256,192,14065,1,0,0:0:0:0:
256,192,14231,1,8,0:0:0:0:
256,192,14562,1,0,0:0:0:0:
256,192,14727,1,0,0:0:0:0:
256,192,14893,1,8,0:0:0:0:
256,192,15224,1,0,0:0:0:0:
256,192,15389,1,8,0:0:0:0:
256,192,15720,1,8,0:0:0:0:
256,192,15886,1,0,0:0:0:0:
256,192,16051,1,0,0:0:0:0:
256,192,16217,1,8,0:0:0:0:
256,192,16548,1,8,0:0:0:0:
256,192,16714,1,0,0:0:0:0:
256,192,16879,1,8,0:0:0:0:
256,192,17210,1,0,0:0:0:0:
256,192,17376,1,0,0:0:0:0:
256,192,17541,1,8,0:0:0:0:
256,192,17872,1,0,0:0:0:0:
256,192,18038,1,8,0:0:0:0:
256,192,18369,1,8,0:0:0:0:
256,192,18534,1,8,0:0:0:0:
256,192,18700,1,0,0:0:0:0:
256,192,18865,1,8,0:0:0:0:
256,192,19196,1,0,0:0:0:0:
256,192,19362,1,0,0:0:0:0:
256,192,19527,1,8,0:0:0:0:
256,192,19859,1,0,0:0:0:0:
256,192,20024,1,8,0:0:0:0:
256,192,20190,1,8,0:0:0:0:
256,192,20521,1,0,0:0:0:0:
256,192,20686,1,8,0:0:0:0:
256,192,21017,1,8,0:0:0:0:
256,192,21183,1,0,0:0:0:0:
256,192,21348,1,0,0:0:0:0:
256,192,21514,1,8,0:0:0:0:
256,192,21845,1,0,0:0:0:0:
256,192,22010,1,8,0:0:0:0:
256,192,22176,1,4,0:0:0:0:
256,192,22507,1,0,0:0:0:0:
256,192,22672,1,0,0:0:0:0:
256,192,22838,1,8,0:0:0:0:
256,192,23004,1,0,0:0:0:0:
256,192,23169,1,8,0:0:0:0:
256,192,23335,1,0,0:0:0:0:
256,192,23666,1,8,0:0:0:0:
256,192,23831,1,0,0:0:0:0:
256,192,24162,1,0,0:0:0:0:
256,192,24493,1,0,0:0:0:0:
256,192,24659,1,0,0:0:0:0:
256,192,24824,1,8,0:0:0:0:
256,192,25155,1,8,0:0:0:0:
256,192,25486,1,8,0:0:0:0:
256,192,25652,1,0,0:0:0:0:
256,192,25817,1,8,0:0:0:0:
256,192,25983,1,0,0:0:0:0:
256,192,26314,1,8,0:0:0:0:
256,192,26480,1,0,0:0:0:0:
256,192,26645,1,0,0:0:0:0:
256,192,26811,1,8,0:0:0:0:
256,192,27059,1,8,0:0:0:0:
256,192,27142,1,0,0:0:0:0:
256,192,27307,1,0,0:0:0:0:
256,192,27390,1,0,0:0:0:0:
256,192,27473,1,8,0:0:0:0:
256,192,27638,1,0,0:0:0:0:
256,192,27804,1,8,0:0:0:0:
256,192,27969,1,0,0:0:0:0:
256,192,28135,1,8,0:0:0:0:
256,192,28300,1,8,0:0:0:0:
256,192,28383,1,8,0:0:0:0:
256,192,28466,1,0,0:0:0:0:
256,192,28631,1,8,0:0:0:0:
256,192,28797,1,0,0:0:0:0:
256,192,28962,1,0,0:0:0:0:
256,192,29045,1,0,0:0:0:0:
256,192,29128,1,8,0:0:0:0:
256,192,29294,1,0,0:0:0:0:
256,192,29459,1,8,0:0:0:0:
256,192,29625,1,8,0:0:0:0:
256,192,29707,1,0,0:0:0:0:
256,192,29790,1,8,0:0:0:0:
256,192,29956,1,0,0:0:0:0:
256,192,30121,1,8,0:0:0:0:
256,192,30204,1,8,0:0:0:0:
256,192,30287,1,0,0:0:0:0:
256,192,30369,1,0,0:0:0:0:
256,192,30452,1,8,0:0:0:0:
256,192,30535,1,0,0:0:0:0:
256,192,30618,1,8,0:0:0:0:
256,192,30700,1,0,0:0:0:0:
256,192,30783,1,8,0:0:0:0:
256,192,30866,1,8,0:0:0:0:
256,192,30949,1,0,0:0:0:0:
256,192,31032,1,0,0:0:0:0:
256,192,31114,1,8,0:0:0:0:
256,192,31197,1,0,0:0:0:0:
256,192,31280,1,8,0:0:0:0:
256,192,31363,1,8,0:0:0:0:
256,192,31445,1,0,0:0:0:0:
256,192,31528,1,0,0:0:0:0:
256,192,31611,1,8,0:0:0:0:
256,192,31694,1,0,0:0:0:0:
256,192,31776,1,8,0:0:0:0:
256,192,31859,1,8,0:0:0:0:
256,192,31942,1,0,0:0:0:0:
256,192,32025,1,0,0:0:0:0:
256,192,32107,1,8,0:0:0:0:
256,192,32273,1,8,0:0:0:0:
256,192,32439,1,0,0:0:0:0:
256,192,32604,1,0,0:0:0:0:
256,192,32770,1,12,0:0:0:0:
256,192,32935,1,0,0:0:0:0:
256,192,33101,1,8,0:0:0:0:
256,192,33266,1,0,0:0:0:0:
256,192,33349,1,8,0:0:0:0:
256,192,33432,1,0,0:0:0:0:
256,192,33597,1,0,0:0:0:0:
256,192,33680,1,0,0:0:0:0:
256,192,33763,1,8,0:0:0:0:
256,192,33928,1,8,0:0:0:0:
256,192,34094,1,0,0:0:0:0:
256,192,34259,1,8,0:0:0:0:
256,192,34425,1,0,0:0:0:0:
256,192,34590,1,8,0:0:0:0:
256,192,34673,1,8,0:0:0:0:
256,192,34756,1,0,0:0:0:0:
256,192,34839,1,0,0:0:0:0:
256,192,34921,1,8,0:0:0:0:
256,192,35087,1,0,0:0:0:0:
256,192,35252,1,0,0:0:0:0:
256,192,35418,1,8,0:0:0:0:
256,192,35584,1,0,0:0:0:0:
256,192,35666,1,0,0:0:0:0:
256,192,35749,1,8,0:0:0:0:
256,192,35915,1,8,0:0:0:0:
256,192,35997,1,8,0:0:0:0:
256,192,36080,1,0,0:0:0:0:
256,192,36163,1,8,0:0:0:0:
256,192,36246,1,0,0:0:0:0:
256,192,36411,1,8,0:0:0:0:
256,192,36577,1,8,0:0:0:0:
256,192,36659,1,8,0:0:0:0:
256,192,36742,1,0,0:0:0:0:
256,192,36908,1,8,0:0:0:0:
256,192,36990,1,0,0:0:0:0:
256,192,37073,1,0,0:0:0:0:
256,192,37156,1,8,0:0:0:0:
256,192,37239,1,0,0:0:0:0:
256,192,37404,1,8,0:0:0:0:
256,192,37570,1,8,0:0:0:0:
256,192,37735,1,0,0:0:0:0:
256,192,37901,1,8,0:0:0:0:
256,192,38066,1,0,0:0:0:0:
256,192,38232,1,0,0:0:0:0:
256,192,38397,1,8,0:0:0:0:
256,192,38563,1,0,0:0:0:0:
256,192,38646,1,8,0:0:0:0:
256,192,38729,1,0,0:0:0:0:
256,192,38894,1,8,0:0:0:0:
256,192,38977,1,8,0:0:0:0:
256,192,39060,1,0,0:0:0:0:
256,192,39225,1,8,0:0:0:0:
256,192,39391,1,0,0:0:0:0:
256,192,39556,1,0,0:0:0:0:
256,192,39722,1,8,0:0:0:0:
256,192,39887,1,0,0:0:0:0:
256,192,39970,1,0,0:0:0:0:
256,192,40053,1,8,0:0:0:0:
256,192,40135,1,8,0:0:0:0:
256,192,40218,1,0,0:0:0:0:
256,192,40384,1,8,0:0:0:0:
256,192,40549,1,8,0:0:0:0:
256,192,40715,1,0,0:0:0:0:
256,192,40880,1,0,0:0:0:0:
256,192,41046,1,8,0:0:0:0:
256,192,41211,1,0,0:0:0:0:
256,192,41294,1,0,0:0:0:0:
256,192,41377,1,8,0:0:0:0:
256,192,41542,1,0,0:0:0:0:
256,192,41625,1,0,0:0:0:0:
256,192,41708,1,8,0:0:0:0:
256,192,41791,1,0,0:0:0:0:
256,192,41874,1,8,0:0:0:0:
256,192,42039,1,0,0:0:0:0:
256,192,42205,1,8,0:0:0:0:
256,192,42287,1,0,0:0:0:0:
256,192,42370,1,8,0:0:0:0:
256,192,42453,1,8,0:0:0:0:
256,192,42536,1,0,0:0:0:0:
256,192,42701,1,8,0:0:0:0:
256,192,42867,1,8,0:0:0:0:
256,192,43032,1,0,0:0:0:0:
256,192,43198,1,8,0:0:0:0:
256,192,43363,1,4,0:0:0:0:
256,192,43529,1,0,0:0:0:0:
256,192,43694,1,8,0:0:0:0:
256,192,43860,1,0,0:0:0:0:
256,192,43943,1,0,0:0:0:0:
256,192,44025,1,8,0:0:0:0:
256,192,44108,1,0,0:0:0:0:
256,192,44191,1,8,0:0:0:0:
256,192,44274,1,8,0:0:0:0:
256,192,44356,1,0,0:0:0:0:
256,192,44522,1,8,0:0:0:0:
256,192,44605,1,8,0:0:0:0:
256,192,44687,1,0,0:0:0:0:
256,192,44853,1,8,0:0:0:0:
256,192,45019,1,0,0:0:0:0:
256,192,45184,1,8,0:0:0:0:
256,192,45267,1,8,0:0:0:0:
256,192,45350,1,0,0:0:0:0:
256,192,45432,1,0,0:0:0:0:
256,192,45515,1,8,0:0:0:0:
256,192,45681,1,0,0:0:0:0:
256,192,45846,1,0,0:0:0:0:
256,192,46012,1,8,0:0:0:0:
256,192,46177,1,0,0:0:0:0:
256,192,46260,1,0,0:0:0:0:
256,192,46343,1,8,0:0:0:0:
256,192,46508,1,8,0:0:0:0:
256,192,46591,1,8,0:0:0:0:
256,192,46674,1,0,0:0:0:0:
256,192,46757,1,8,0:0:0:0:
256,192,46839,1,0,0:0:0:0:
256,192,47005,1,8,0:0:0:0:
256,192,47170,1,8,0:0:0:0:
256,192,47336,1,0,0:0:0:0:
256,192,47501,1,0,0:0:0:0:
256,192,47584,1,0,0:0:0:0:
256,192,47667,1,8,0:0:0:0:
256,192,47750,1,0,0:0:0:0:
256,192,47832,1,8,0:0:0:0:
256,192,47915,1,0,0:0:0:0:
256,192,47998,1,8,0:0:0:0:
256,192,48081,1,8,0:0:0:0:
256,192,48164,1,0,0:0:0:0:
256,192,48329,1,8,0:0:0:0:
256,192,48412,1,0,0:0:0:0:
256,192,48495,1,8,0:0:0:0:
256,192,48660,1,8,0:0:0:0:
256,192,48826,1,0,0:0:0:0:
256,192,48991,1,8,0:0:0:0:
256,192,49157,1,0,0:0:0:0:
256,192,49239,1,0,0:0:0:0:
256,192,49322,1,8,0:0:0:0:
256,192,49405,1,8,0:0:0:0:
256,192,49488,1,0,0:0:0:0:
256,192,49570,1,8,0:0:0:0:
256,192,49653,1,0,0:0:0:0:
256,192,49819,1,8,0:0:0:0:
256,192,49984,1,0,0:0:0:0:
256,192,50150,1,8,0:0:0:0:
256,192,50233,1,8,0:0:0:0:
256,192,50315,1,0,0:0:0:0:
256,192,50481,1,8,0:0:0:0:
256,192,50564,1,8,0:0:0:0:
256,192,50646,1,0,0:0:0:0:
256,192,50729,1,0,0:0:0:0:
256,192,50812,1,8,0:0:0:0:
256,192,50977,1,8,0:0:0:0:
256,192,51143,1,0,0:0:0:0:
256,192,51309,1,8,0:0:0:0:
256,192,51391,1,8,0:0:0:0:
256,192,51474,1,8,0:0:0:0:
256,192,51557,1,8,0:0:0:0:
256,192,51640,1,0,0:0:0:0:
256,192,51805,1,8,0:0:0:0:
256,192,51888,1,0,0:0:0:0:
256,192,51971,1,8,0:0:0:0:
256,192,52053,1,8,0:0:0:0:
256,192,52136,1,0,0:0:0:0:
256,192,52219,1,0,0:0:0:0:
256,192,52302,1,8,0:0:0:0:
256,192,52467,1,0,0:0:0:0:
256,192,52550,1,8,0:0:0:0:
256,192,52633,1,0,0:0:0:0:
256,192,52798,1,0,0:0:0:0:
256,192,52881,1,0,0:0:0:0:
256,192,52964,1,8,0:0:0:0:
256,192,53129,1,8,0:0:0:0:
256,192,53295,1,0,0:0:0:0:
256,192,53460,1,0,0:0:0:0:
256,192,53543,1,0,0:0:0:0:
256,192,53626,1,8,0:0:0:0:
256,192,53709,1,0,0:0:0:0:
256,192,53791,1,8,0:0:0:0:
256,192,53957,1,0,0:0:0:0:
256,192,54122,1,0,0:0:0:0:
256,192,54205,1,0,0:0:0:0:
256,192,54288,1,8,0:0:0:0:
256,192,54454,1,8,0:0:0:0:
256,192,54536,1,8,0:0:0:0:
256,192,54619,1,0,0:0:0:0:
256,192,54785,1,0,0:0:0:0:
256,192,54867,1,0,0:0:0:0:
256,192,54950,1,8,0:0:0:0:
256,192,55116,1,0,0:0:0:0:
256,192,55281,1,0,0:0:0:0:
256,192,55447,1,0,0:0:0:0:
256,192,55529,1,0,0:0:0:0:
256,192,55612,1,8,0:0:0:0:
256,192,55778,1,0,0:0:0:0:
256,192,55860,1,0,0:0:0:0:
256,192,55943,1,0,0:0:0:0:
256,192,56109,1,0,0:0:0:0:
256,192,56274,1,12,0:0:0:0:
256,192,56605,1,8,0:0:0:0:
256,192,56771,1,0,0:0:0:0:
256,192,56936,1,8,0:0:0:0:
256,192,57102,1,0,0:0:0:0:
256,192,57267,1,8,0:0:0:0:
256,192,57433,1,0,0:0:0:0:
256,192,57516,1,0,0:0:0:0:
256,192,57599,1,8,0:0:0:0:
256,192,57764,1,0,0:0:0:0:
256,192,57930,1,8,0:0:0:0:
256,192,58095,1,0,0:0:0:0:
256,192,58261,1,8,0:0:0:0:
256,192,58426,1,8,0:0:0:0:
256,192,58592,1,0,0:0:0:0:
256,192,58923,1,8,0:0:0:0:
256,192,59088,1,8,0:0:0:0:
256,192,59254,1,0,0:0:0:0:
256,192,59419,1,0,0:0:0:0:
256,192,59502,1,0,0:0:0:0:
256,192,59585,1,8,0:0:0:0:
256,192,59750,1,0,0:0:0:0:
256,192,59916,1,8,0:0:0:0:
256,192,59999,1,0,0:0:0:0:
256,192,60081,1,0,0:0:0:0:
256,192,60164,1,0,0:0:0:0:
256,192,60247,1,8,0:0:0:0:
256,192,60412,1,8,0:0:0:0:
256,192,60578,1,0,0:0:0:0:
256,192,60744,1,8,0:0:0:0:
256,192,60826,1,8,0:0:0:0:
256,192,60909,1,0,0:0:0:0:
256,192,61075,1,8,0:0:0:0:
256,192,61240,1,0,0:0:0:0:
256,192,61571,1,8,0:0:0:0:
256,192,61737,1,0,0:0:0:0:
256,192,61902,1,8,0:0:0:0:
256,192,62068,1,0,0:0:0:0:
256,192,62150,1,0,0:0:0:0:
256,192,62233,1,8,0:0:0:0:
256,192,62399,1,0,0:0:0:0:
256,192,62564,1,8,0:0:0:0:
256,192,62647,1,8,0:0:0:0:
256,192,62730,1,0,0:0:0:0:
256,192,62813,1,0,0:0:0:0:
256,192,62895,1,8,0:0:0:0:
256,192,63061,1,0,0:0:0:0:
256,192,63226,1,8,0:0:0:0:
256,192,63309,1,8,0:0:0:0:
256,192,63392,1,0,0:0:0:0:
256,192,63557,1,8,0:0:0:0:
256,192,63723,1,8,0:0:0:0:
256,192,63889,1,0,0:0:0:0:
256,192,64220,1,0,0:0:0:0:
256,192,64385,1,0,0:0:0:0:
256,192,64551,1,8,0:0:0:0:
256,192,64716,1,0,0:0:0:0:
256,192,64799,1,0,0:0:0:0:
256,192,64882,1,8,0:0:0:0:
256,192,65047,1,0,0:0:0:0:
256,192,65213,1,8,0:0:0:0:
256,192,65378,1,0,0:0:0:0:
256,192,65461,1,0,0:0:0:0:
256,192,65544,1,8,0:0:0:0:
256,192,65709,1,8,0:0:0:0:
256,192,65875,1,0,0:0:0:0:
256,192,66040,1,8,0:0:0:0:
256,192,66123,1,8,0:0:0:0:
256,192,66289,1,0,0:0:0:0:
256,192,66371,1,8,0:0:0:0:
256,192,66454,1,8,0:0:0:0:
256,192,66537,1,0,0:0:0:0:
256,192,66620,1,8,0:0:0:0:
256,192,66702,1,0,0:0:0:0:
256,192,66868,1,8,0:0:0:0:
256,192,67199,1,12,0:0:0:0:
256,192,67365,1,0,0:0:0:0:
256,192,67447,1,0,0:0:0:0:
256,192,67530,1,8,0:0:0:0:
256,192,67696,1,0,0:0:0:0:
256,192,67778,1,8,0:0:0:0:
256,192,67861,1,0,0:0:0:0:
256,192,68027,1,0,0:0:0:0:
256,192,68109,1,0,0:0:0:0:
256,192,68192,1,8,0:0:0:0:
256,192,68275,1,8,0:0:0:0:
256,192,68358,1,0,0:0:0:0:
256,192,68523,1,0,0:0:0:0:
256,192,68689,1,0,0:0:0:0:
256,192,68772,1,0,0:0:0:0:
256,192,68854,1,8,0:0:0:0:
256,192,69020,1,0,0:0:0:0:
256,192,69103,1,0,0:0:0:0:
256,192,69185,1,0,0:0:0:0:
256,192,69351,1,0,0:0:0:0:
256,192,69516,1,8,0:0:0:0:
256,192,69682,1,8,0:0:0:0:
256,192,69847,1,0,0:0:0:0:
256,192,70013,1,0,0:0:0:0:
256,192,70096,1,0,0:0:0:0:
256,192,70179,1,8,0:0:0:0:
256,192,70344,1,8,0:0:0:0:
256,192,70427,1,8,0:0:0:0:
256,192,70510,1,0,0:0:0:0:
256,192,70675,1,0,0:0:0:0:
256,192,70758,1,0,0:0:0:0:
256,192,70841,1,8,0:0:0:0:
256,192,70923,1,0,0:0:0:0:
256,192,71006,1,8,0:0:0:0:
256,192,71172,1,0,0:0:0:0:
256,192,71337,1,0,0:0:0:0:
256,192,71420,1,0,0:0:0:0:
256,192,71503,1,8,0:0:0:0:
256,192,71668,1,0,0:0:0:0:
256,192,71751,1,8,0:0:0:0:
256,192,71834,1,0,0:0:0:0:
256,192,71999,1,8,0:0:0:0:
256,192,72082,1,8,0:0:0:0:
256,192,72165,1,0,0:0:0:0:
256,192,72248,1,0,0:0:0:0:
256,192,72330,1,8,0:0:0:0:
256,192,72413,1,8,0:0:0:0:
256,192,72661,1,0,0:0:0:0:
256,192,72827,1,0,0:0:0:0:
256,192,72992,1,0,0:0:0:0:
256,192,73158,1,8,0:0:0:0:
256,192,73324,1,8,0:0:0:0:
256,192,73489,1,0,0:0:0:0:
256,192,73655,1,8,0:0:0:0:
256,192,73820,1,4,0:0:0:0:
256,192,74482,1,0,0:0:0:0:
256,192,74979,1,8,0:0:0:0:
256,192,75310,1,8,0:0:0:0:
256,192,75475,1,0,0:0:0:0:
256,192,75641,1,0,0:0:0:0:
256,192,75806,1,8,0:0:0:0:
256,192,76137,1,0,0:0:0:0:
256,192,76303,1,0,0:0:0:0:
256,192,76469,1,8,0:0:0:0:
256,192,76800,1,0,0:0:0:0:
256,192,77131,1,8,0:0:0:0:
256,192,77462,1,0,0:0:0:0:
256,192,77627,1,8,0:0:0:0:
256,192,77958,1,8,0:0:0:0:
256,192,78124,1,8,0:0:0:0:
256,192,78289,1,0,0:0:0:0:
256,192,78455,1,8,0:0:0:0:
256,192,78786,1,0,0:0:0:0:
256,192,78951,1,0,0:0:0:0:
256,192,79117,1,8,0:0:0:0:
256,192,79448,1,0,0:0:0:0:
256,192,79779,1,8,0:0:0:0:
256,192,80110,1,8,0:0:0:0:
256,192,80276,1,0,0:0:0:0:
256,192,80607,1,0,0:0:0:0:
256,192,80772,1,8,0:0:0:0:
256,192,80938,1,8,0:0:0:0:
256,192,81103,1,0,0:0:0:0:
256,192,81434,1,8,0:0:0:0:
256,192,81600,1,0,0:0:0:0:
256,192,81765,1,8,0:0:0:0:
256,192,82096,1,0,0:0:0:0:
256,192,82427,1,8,0:0:0:0:
256,192,82759,1,0,0:0:0:0:
256,192,82924,1,8,0:0:0:0:
256,192,83255,1,8,0:0:0:0:
256,192,83421,1,8,0:0:0:0:
256,192,83586,1,0,0:0:0:0:
256,192,83752,1,8,0:0:0:0:
256,192,84083,1,8,0:0:0:0:
256,192,84248,1,0,0:0:0:0:
256,192,84414,1,12,0:0:0:0:
256,192,84745,1,0,0:0:0:0:
256,192,85076,1,8,0:0:0:0:
256,192,85241,1,0,0:0:0:0:
256,192,85407,1,8,0:0:0:0:
256,192,85572,1,0,0:0:0:0:
256,192,85904,1,0,0:0:0:0:
256,192,86235,1,0,0:0:0:0:
256,192,86566,1,0,0:0:0:0:
256,192,86731,1,0,0:0:0:0:
256,192,86897,1,8,0:0:0:0:
256,192,87062,1,8,0:0:0:0:
256,192,87393,1,8,0:0:0:0:
256,192,87724,1,8,0:0:0:0:
256,192,87890,1,0,0:0:0:0:
256,192,88055,1,8,0:0:0:0:
256,192,88221,1,0,0:0:0:0:
256,192,88552,1,8,0:0:0:0:
256,192,88717,1,0,0:0:0:0:
256,192,88883,1,0,0:0:0:0:
256,192,89049,1,8,0:0:0:0:
256,192,89214,1,0,0:0:0:0:
256,192,89297,1,0,0:0:0:0:
256,192,89380,1,8,0:0:0:0:
256,192,89545,1,0,0:0:0:0:
256,192,89711,1,8,0:0:0:0:
256,192,89876,1,0,0:0:0:0:
256,192,89959,1,0,0:0:0:0:
256,192,90042,1,8,0:0:0:0:
256,192,90124,1,8,0:0:0:0:
256,192,90207,1,0,0:0:0:0:
256,192,90373,1,8,0:0:0:0:
256,192,90456,1,0,0:0:0:0:
256,192,90538,1,0,0:0:0:0:
256,192,90621,1,0,0:0:0:0:
256,192,90704,1,8,0:0:0:0:
256,192,90787,1,8,0:0:0:0:
256,192,90869,1,0,0:0:0:0:
256,192,91035,1,8,0:0:0:0:
256,192,91118,1,8,0:0:0:0:
256,192,91200,1,0,0:0:0:0:
256,192,91283,1,0,0:0:0:0:
256,192,91366,1,8,0:0:0:0:
256,192,91449,1,0,0:0:0:0:
256,192,91531,1,8,0:0:0:0:
256,192,91614,1,0,0:0:0:0:
256,192,91697,1,8,0:0:0:0:
256,192,91780,1,8,0:0:0:0:
256,192,91862,1,0,0:0:0:0:
256,192,91945,1,0,0:0:0:0:
256,192,92028,1,8,0:0:0:0:
256,192,92111,1,0,0:0:0:0:
256,192,92194,1,0,0:0:0:0:
256,192,92359,1,8,0:0:0:0:
256,192,92442,1,8,0:0:0:0:
256,192,92525,1,0,0:0:0:0:
256,192,92607,1,8,0:0:0:0:
256,192,92690,1,0,0:0:0:0:
256,192,92773,1,0,0:0:0:0:
256,192,92856,1,8,0:0:0:0:
256,192,92938,1,0,0:0:0:0:
256,192,93021,1,8,0:0:0:0:
256,192,93104,1,8,0:0:0:0:
256,192,93187,1,0,0:0:0:0:
256,192,93269,1,0,0:0:0:0:
256,192,93352,1,8,0:0:0:0:
256,192,93435,1,8,0:0:0:0:
256,192,93518,1,0,0:0:0:0:
256,192,93601,1,8,0:0:0:0:
256,192,93683,1,0,0:0:0:0:
256,192,93766,1,0,0:0:0:0:
256,192,93849,1,8,0:0:0:0:
256,192,93932,1,0,0:0:0:0:
256,192,94014,1,8,0:0:0:0:
256,192,94097,1,8,0:0:0:0:
256,192,94180,1,0,0:0:0:0:
256,192,94263,1,0,0:0:0:0:
256,192,94345,1,8,0:0:0:0:
256,192,94566,1,0,0:0:0:0:
256,192,94676,1,8,0:0:0:0:
256,192,94897,1,8,0:0:0:0:
256,192,95007,1,4,0:0:0:0:
256,192,95228,1,0,0:0:0:0:
256,192,95339,1,8,0:0:0:0:
256,192,95559,1,8,0:0:0:0:
256,192,95670,1,8,0:0:0:0:
256,192,95780,1,0,0:0:0:0:
256,192,95890,1,8,0:0:0:0:
256,192,96001,1,0,0:0:0:0:
256,192,96111,1,0,0:0:0:0:
256,192,96221,1,8,0:0:0:0:
256,192,96332,1,0,0:0:0:0:
256,192,96552,1,8,0:0:0:0:
256,192,96663,1,0,0:0:0:0:
256,192,96773,1,0,0:0:0:0:
256,192,96883,1,8,0:0:0:0:
256,192,96994,1,0,0:0:0:0:
256,192,97104,1,0,0:0:0:0:
256,192,97214,1,0,0:0:0:0:
256,192,97325,1,8,0:0:0:0:
256,192,97435,1,8,0:0:0:0:
256,192,97546,1,0,0:0:0:0:
256,192,97656,1,8,0:0:0:0:
256,192,97877,1,0,0:0:0:0:
256,192,97987,1,8,0:0:0:0:
256,192,98097,1,8,0:0:0:0:
256,192,98208,1,0,0:0:0:0:
256,192,98318,1,8,0:0:0:0:
256,192,98539,1,0,0:0:0:0:
256,192,98649,1,8,0:0:0:0:
256,192,98759,1,0,0:0:0:0:
256,192,98870,1,8,0:0:0:0:
256,192,98980,1,0,0:0:0:0:
256,192,99090,1,0,0:0:0:0:
256,192,99201,1,8,0:0:0:0:
256,192,99311,1,8,0:0:0:0:
256,192,99422,1,8,0:0:0:0:
256,192,99532,1,0,0:0:0:0:
256,192,99642,1,8,0:0:0:0:
256,192,99863,1,0,0:0:0:0:
256,192,99973,1,8,0:0:0:0:
256,192,100084,1,8,0:0:0:0:
256,192,100194,1,8,0:0:0:0:
256,192,100304,1,4,0:0:0:0:
256,192,100525,1,0,0:0:0:0:
256,192,100635,1,8,0:0:0:0:
256,192,100856,1,8,0:0:0:0:
256,192,100966,1,0,0:0:0:0:
256,192,101077,1,8,0:0:0:0:
256,192,101187,1,8,0:0:0:0:
256,192,101297,1,0,0:0:0:0:
256,192,101408,1,0,0:0:0:0:
256,192,101518,1,8,0:0:0:0:
256,192,101629,1,0,0:0:0:0:
256,192,101849,1,8,0:0:0:0:
256,192,101960,1,0,0:0:0:0:
256,192,102070,1,8,0:0:0:0:
256,192,102180,1,0,0:0:0:0:
256,192,102291,1,0,0:0:0:0:
256,192,102401,1,8,0:0:0:0:
256,192,102511,1,0,0:0:0:0:
256,192,102622,1,8,0:0:0:0:
256,192,102842,1,8,0:0:0:0:
256,192,102953,1,8,0:0:0:0:
256,192,103063,1,0,0:0:0:0:
256,192,103173,1,0,0:0:0:0:
256,192,103284,1,8,0:0:0:0:
256,192,103394,1,0,0:0:0:0:
256,192,103505,1,0,0:0:0:0:
256,192,103615,1,8,0:0:0:0:
256,192,103725,1,8,0:0:0:0:
256,192,103836,1,0,0:0:0:0:
256,192,103946,1,8,0:0:0:0:
256,192,104167,1,8,0:0:0:0:
256,192,104277,1,0,0:0:0:0:
256,192,104498,1,0,0:0:0:0:
256,192,104608,1,8,0:0:0:0:
256,192,104718,1,0,0:0:0:0:
256,192,104829,1,0,0:0:0:0:
256,192,104939,1,8,0:0:0:0:
256,192,105105,1,8,0:0:0:0:
256,192,105270,1,0,0:0:0:0:
256,192,105436,1,8,0:0:0:0:
256,192,105601,1,4,0:0:0:0:
256,192,105767,1,0,0:0:0:0:
256,192,105932,1,8,0:0:0:0:
256,192,106098,1,0,0:0:0:0:
256,192,106181,1,0,0:0:0:0:
256,192,106263,1,8,0:0:0:0:
256,192,106346,1,0,0:0:0:0:
256,192,106429,1,8,0:0:0:0:
256,192,106512,1,8,0:0:0:0:
256,192,106594,1,0,0:0:0:0:
256,192,106760,1,8,0:0:0:0:
256,192,106843,1,8,0:0:0:0:
256,192,106925,1,0,0:0:0:0:
256,192,107091,1,8,0:0:0:0:
256,192,107257,1,0,0:0:0:0:
256,192,107422,1,8,0:0:0:0:
256,192,107505,1,8,0:0:0:0:
256,192,107588,1,0,0:0:0:0:
256,192,107670,1,0,0:0:0:0:
256,192,107753,1,8,0:0:0:0:
256,192,107919,1,8,0:0:0:0:
256,192,108084,1,0,0:0:0:0:
256,192,108250,1,8,0:0:0:0:
256,192,108332,1,8,0:0:0:0:
256,192,108415,1,8,0:0:0:0:
256,192,108498,1,8,0:0:0:0:
256,192,108581,1,0,0:0:0:0:
256,192,108746,1,0,0:0:0:0:
256,192,108829,1,0,0:0:0:0:
256,192,108912,1,8,0:0:0:0:
256,192,108994,1,0,0:0:0:0:
256,192,109077,1,8,0:0:0:0:
256,192,109160,1,8,0:0:0:0:
256,192,109243,1,0,0:0:0:0:
256,192,109326,1,0,0:0:0:0:
256,192,109408,1,8,0:0:0:0:
256,192,109574,1,0,0:0:0:0:
256,192,109739,1,8,0:0:0:0:
256,192,109822,1,0,0:0:0:0:
256,192,109905,1,8,0:0:0:0:
256,192,109988,1,8,0:0:0:0:
256,192,110070,1,0,0:0:0:0:
256,192,110153,1,8,0:0:0:0:
256,192,110236,1,0,0:0:0:0:
256,192,110401,1,0,0:0:0:0:
256,192,110567,1,8,0:0:0:0:
256,192,110650,1,0,0:0:0:0:
256,192,110732,1,8,0:0:0:0:
256,192,110898,1,0,0:0:0:0:
256,192,111064,1,0,0:0:0:0:
256,192,111229,1,8,0:0:0:0:
256,192,111395,1,0,0:0:0:0:
256,192,111477,1,0,0:0:0:0:
256,192,111560,1,8,0:0:0:0:
256,192,111643,1,8,0:0:0:0:
256,192,111726,1,0,0:0:0:0:
256,192,111808,1,0,0:0:0:0:
256,192,111891,1,8,0:0:0:0:
256,192,112057,1,8,0:0:0:0:
256,192,112139,1,8,0:0:0:0:
256,192,112222,1,0,0:0:0:0:
256,192,112388,1,0,0:0:0:0:
256,192,112471,1,0,0:0:0:0:
256,192,112553,1,8,0:0:0:0:
256,192,112719,1,8,0:0:0:0:
256,192,112802,1,0,0:0:0:0:
256,192,112884,1,8,0:0:0:0:
256,192,112967,1,8,0:0:0:0:
256,192,113050,1,0,0:0:0:0:
256,192,113215,1,8,0:0:0:0:
256,192,113381,1,0,0:0:0:0:
256,192,113546,1,8,0:0:0:0:
256,192,113629,1,8,0:0:0:0:
256,192,113712,1,8,0:0:0:0:
256,192,113795,1,8,0:0:0:0:
256,192,113877,1,0,0:0:0:0:
256,192,114043,1,8,0:0:0:0:
256,192,114126,1,0,0:0:0:0:
256,192,114209,1,8,0:0:0:0:
256,192,114291,1,8,0:0:0:0:
256,192,114374,1,0,0:0:0:0:
256,192,114457,1,8,0:0:0:0:
256,192,114540,1,0,0:0:0:0:
256,192,114622,1,0,0:0:0:0:
256,192,114705,1,8,0:0:0:0:
256,192,114871,1,0,0:0:0:0:
256,192,115036,1,0,0:0:0:0:
256,192,115119,1,0,0:0:0:0:
256,192,115202,1,8,0:0:0:0:
256,192,115367,1,8,0:0:0:0:
256,192,115533,1,0,0:0:0:0:
256,192,115698,1,0,0:0:0:0:
256,192,115781,1,0,0:0:0:0:
256,192,115864,1,8,0:0:0:0:
256,192,115947,1,0,0:0:0:0:
256,192,116029,1,8,0:0:0:0:
256,192,116195,1,0,0:0:0:0:
