osu file format v14

[General]
AudioFilename: audio.mp3
AudioLeadIn: 0
PreviewTime: 18619
Countdown: 0
SampleSet: Soft
StackLeniency: 0.4
Mode: 0
LetterboxInBreaks: 0
WidescreenStoryboard: 1

[Editor]
Bookmarks: 6374,12089,19436,20252,32497,45558,56987,58619,70048,83109,84742
DistanceSpacing: 1.3
BeatDivisor: 3
GridSize: 4
TimelineZoom: 1.9

[Metadata]
Title:P.O.D.
TitleUnicode:P.O.D.
Artist:ItaloBrothers
ArtistUnicode:ItaloBrothers
Creator:Nuvolina
Version:Hyper
Source:
Tags:anto riffy bakari pod zooland records hands up cut version people of dreamhack techno electronic english trance
BeatmapID:1749330
BeatmapSetID:835219

[Difficulty]
HPDrainRate:5
CircleSize:4
OverallDifficulty:6
ApproachRate:8
SliderMultiplier:1.5
SliderTickRate:1

[Events]
//Background and Video events
0,0,"BG.jpg",0,0
//Break Periods
//Storyboard Layer 0 (Background)
//Storyboard Layer 1 (Fail)
//Storyboard Layer 2 (Pass)
//Storyboard Layer 3 (Foreground)
//Storyboard Sound Samples

[TimingPoints]
6375,408.163265306122,4,2,1,30,1,0
12905,-90.9090909090909,4,2,1,50,0,0
19436,-83.3333333333333,4,2,1,60,0,0
30864,-83.3333333333333,4,2,1,50,0,0
32497,-83.3333333333333,4,2,1,60,0,0
45558,-76.9230769230769,4,2,2,90,0,0
56987,-76.9230769230769,4,2,2,60,0,0
58619,-71.4285714285714,4,2,2,95,0,1
70456,-71.4285714285714,4,2,2,75,0,1
70864,-71.4285714285714,4,2,2,55,0,1
71272,-71.4285714285714,4,2,2,45,0,1
71681,-71.4285714285714,4,2,2,95,0,1
83109,-90.9090909090909,4,2,1,50,0,0
86374,-90.9090909090909,4,2,1,5,0,0

[Colours]
Combo1 : 255,128,64
Combo2 : 74,197,255
Combo3 : 223,223,223

[HitObjects]
64,307,6511,6,0,P|113:322|170:307,1,100,2|2,0:0|0:0,0:0:0:0:
121,167,7191,2,0,P|110:115|120:66,1,100,2|2,0:0|0:0,0:0:0:0:
154,35,7599,2,0,P|203:26|268:42,1,100,2|2,0:0|0:0,0:0:0:0:
296,58,8007,2,0,P|307:110|297:159,1,100,2|0,0:0|0:0,0:0:0:0:
273,198,8415,1,2,0:0:0:0:
168,305,8823,1,2,0:0:0:0:
155,105,9368,6,0,P|152:83|163:37,2,50,2|2|2,0:0|0:0|0:0,0:0:0:0:
273,198,10048,1,2,0:0:0:0:
306,344,10456,2,0,B|359:356|359:356|411:344,1,100,2|2,0:0|0:0,0:0:0:0:
449,323,10864,2,0,B|455:268|455:268|440:209,1,100,2|2,0:0|0:0,0:0:0:0:
427,177,11272,1,2,0:0:0:0:
330,202,11545,1,0,0:0:0:0:
330,202,11681,2,0,B|318:151|318:151|337:94,1,100,2|2,0:0|0:0,0:0:0:0:
341,56,12089,6,0,P|293:44|229:64,1,100,2|2,0:0|0:0,0:0:0:0:
200,77,12497,1,2,0:0:0:0:
103,49,12769,1,0,0:0:0:0:
103,49,12905,6,0,B|84:102|84:102|103:163,1,110.000003356934,10|0,0:0|0:0,0:0:0:0:
136,201,13313,1,10,0:0:0:0:
257,335,13721,2,0,B|316:349|316:349|371:335,1,110.000003356934,10|0,0:0|0:0,0:0:0:0:
419,312,14130,2,0,B|435:260|435:260|412:198,1,110.000003356934,10|0,0:0|0:0,0:0:0:0:
401,149,14538,2,0,B|322:127|322:127|240:149,1,165.000005035401,10|10,0:0|0:0,0:0:0:0:
146,222,15218,1,0,0:0:0:0:
146,222,15354,2,0,P|98:158|109:71,1,165.000005035401,10|8,0:0|0:0,0:0:0:0:
153,15,15898,5,2,0:0:0:0:
182,87,16034,1,2,0:0:0:0:
105,77,16170,1,10,0:0:0:0:
280,28,16579,1,10,0:0:0:0:
302,208,16987,2,0,P|359:217|406:185,1,110.000003356934,10|0,0:0|0:0,0:0:0:0:
450,155,17395,2,0,P|465:211|447:270,1,110.000003356934,10|0,0:0|0:0,0:0:0:0:
406,323,17803,1,2,0:0:0:0:
483,329,17939,1,2,0:0:0:0:
452,260,18075,1,2,0:0:0:0:
452,260,18619,6,0,P|403:249|345:262,1,110.000003356934,2|0,0:0|0:0,0:0:0:0:
318,316,19028,2,0,P|266:336|208:317,1,110.000003356934,2|0,0:0|0:0,0:0:0:0:
142,263,19436,6,0,B|123:206|123:206|146:132,1,119.999996337891,12|0,0:0|0:0,0:0:0:0:
183,90,19844,1,8,0:0:0:0:
319,43,20116,1,0,0:0:0:0:
319,43,20252,2,0,P|371:23|443:52,1,119.999996337891,10|2,0:0|0:0,0:0:0:0:
479,93,20660,2,0,P|495:152|476:218,1,119.999996337891,10|2,0:0|0:0,0:0:0:0:
415,236,21068,2,0,P|356:254|289:226,1,119.999996337891,8|0,0:0|0:0,0:0:0:0:
238,201,21477,1,8,0:0:0:0:
165,76,21749,5,0,0:0:0:0:
165,76,21885,2,0,P|107:59|38:80,1,119.999996337891,10|2,0:0|0:0,0:0:0:0:
23,139,22293,2,0,P|43:186|20:260,1,119.999996337891,10|2,0:0|0:0,0:0:0:0:
3,318,22701,5,10,0:0:0:0:
139,271,22973,1,0,0:0:0:0:
139,271,23109,1,8,0:0:0:0:
249,362,23381,1,0,0:0:0:0:
249,362,23517,1,8,0:0:0:0:
356,265,23789,1,0,0:0:0:0:
356,265,23925,1,8,0:0:0:0:
232,190,24198,5,0,0:0:0:0:
232,190,24334,2,0,P|221:130|238:64,1,119.999996337891,10|2,0:0|0:0,0:0:0:0:
298,40,24742,2,0,P|356:26|427:44,1,119.999996337891,10|2,0:0|0:0,0:0:0:0:
459,93,25150,2,0,B|509:176|423:176|478:268,1,179.999994506836,8|8,0:0|0:0,0:0:0:0:
348,330,25830,5,10,0:0:0:0:
348,330,25966,2,0,P|284:353|229:326,1,119.999996337891,8|0,0:0|0:0,0:0:0:0:
193,278,26374,1,8,0:0:0:0:
193,278,26783,6,0,B|134:262|134:262|73:279,1,119.999996337891,10|2,0:0|0:0,0:0:0:0:
15,315,27191,2,0,B|-4:258|-4:258|18:188,1,119.999996337891,10|2,0:0|0:0,0:0:0:0:
85,200,27599,2,0,B|119:117|119:117|78:35,1,179.999994506836,10|8,0:0|0:0,0:0:0:0:
222,39,28279,5,0,0:0:0:0:
222,39,28415,2,0,P|281:23|344:45,1,119.999996337891,10|2,0:0|0:0,0:0:0:0:
388,89,28823,2,0,P|403:145|384:201,1,119.999996337891,10|2,0:0|0:0,0:0:0:0:
331,253,29232,2,0,P|274:268|218:249,1,119.999996337891,10|0,0:0|0:0,0:0:0:0:
173,191,29640,5,8,0:0:0:0:
68,290,29912,1,0,0:0:0:0:
68,290,30048,1,8,0:0:0:0:
55,146,30320,1,0,0:0:0:0:
55,146,30456,1,8,0:0:0:0:
164,52,30728,5,0,0:0:0:0:
164,52,30864,2,0,B|222:35|222:35|283:54,1,119.999996337891,2|2,0:0|0:0,0:0:0:0:
329,103,31272,1,2,0:0:0:0:
436,199,31545,2,0,B|355:244|355:244|269:188,1,179.999994506836,2|2,0:0|0:0,0:0:0:0:
72,344,32497,6,0,P|44:353|6:343,2,59.9999981689454,12|2|2,1:2|0:0|0:0,0:0:0:0:
133,307,32905,2,0,P|162:300|191:306,2,59.9999981689454,8|2|2,1:2|0:0|0:0,0:0:0:0:
71,269,33313,2,0,P|49:189|88:99,1,179.999994506836,8|8,1:2|1:2,0:0:0:0:
129,45,33857,1,2,0:0:0:0:
129,45,33994,1,2,0:0:0:0:
129,45,34130,6,0,P|187:24|255:47,1,119.999996337891,10|0,1:2|0:0,0:0:0:0:
247,109,34538,2,0,P|305:130|373:107,1,119.999996337891,8|0,1:2|0:0,0:0:0:0:
425,86,34946,2,0,P|456:146|410:262,1,179.999994506836,8|8,1:2|1:2,0:0:0:0:
210,271,35762,6,0,P|172:280|134:262,2,59.9999981689454,8|2|2,1:2|0:0|0:0,0:0:0:0:
238,204,36170,2,0,P|276:195|314:213,2,59.9999981689454,8|2|2,1:2|0:0|0:0,0:0:0:0:
168,182,36579,2,0,P|161:119|206:61,1,119.999996337891,8|0,1:2|0:0,0:0:0:0:
129,32,36987,2,0,P|72:16|5:38,1,119.999996337891,8|0,1:2|0:0,0:0:0:0:
11,103,37395,5,8,1:2:0:0:
105,211,37667,1,2,0:0:0:0:
105,211,37803,2,0,B|116:266|116:266|51:301,1,119.999996337891,8|0,1:2|0:0,0:0:0:0:
19,356,38211,2,0,B|74:374|74:374|145:350,1,119.999996337891,8|8,1:2|0:0,0:0:0:0:
192,314,38619,2,0,B|252:290|252:290|314:317,1,119.999996337891,8|8,1:2|0:0,0:0:0:0:
373,333,39028,6,0,P|401:342|440:333,2,59.9999981689454,8|2|2,1:2|0:0|0:0,0:0:0:0:
389,262,39436,2,0,P|418:256|455:267,2,59.9999981689454,8|2|2,1:2|0:0|0:0,0:0:0:0:
329,221,39844,2,0,P|296:140|344:64,1,179.999994506836,8|8,1:2|1:2,0:0:0:0:
197,54,40524,5,2,0:0:0:0:
197,54,40660,2,0,P|116:21|32:61,1,179.999994506836,10|8,1:2|1:2,0:0:0:0:
57,199,41340,1,0,0:0:0:0:
56,199,41477,2,0,P|32:252|52:324,1,119.999996337891,8|0,1:2|0:0,0:0:0:0:
109,339,41885,2,0,P|167:359|230:332,1,119.999996337891,8|0,1:2|0:0,0:0:0:0:
259,280,42293,6,0,P|289:285|327:278,2,59.9999981689454,8|2|2,1:2|0:0|0:0,0:0:0:0:
221,218,42701,2,0,P|191:213|153:220,2,59.9999981689454,8|2|2,1:2|0:0|0:0,0:0:0:0:
261,143,43109,2,0,P|291:148|329:141,2,59.9999981689454,8|2|2,1:2|0:0|0:0,0:0:0:0:
215,66,43517,2,0,P|185:61|147:68,2,59.9999981689454,8|2|2,1:2|0:0|0:0,0:0:0:0:
375,23,43926,6,0,P|402:77|376:134,1,119.999996337891,2|2,0:0|0:0,0:0:0:0:
414,200,44334,2,0,P|387:254|415:318,1,119.999996337891,2|0,0:0|0:0,0:0:0:0:
327,329,44742,2,0,P|276:307|206:337,1,119.999996337891,2|0,0:0|0:0,0:0:0:0:
141,358,45150,1,6,0:0:0:0:
141,358,45558,5,4,1:2:0:0:
22,238,45830,1,0,0:0:0:0:
70,169,45966,2,0,P|90:107|58:37,1,129.999994049073,0|0,1:2|0:0,0:0:0:0:
152,38,46374,6,0,P|212:12|279:40,1,129.999994049073,2|2,1:2|0:2,0:0:0:0:
234,109,46783,2,0,P|294:135|361:107,1,129.999994049073,2|2,1:2|0:2,0:0:0:0:
417,61,47191,1,2,1:2:0:0:
493,211,47463,1,0,0:0:0:0:
472,293,47599,1,0,1:2:0:0:
314,355,47871,5,0,0:0:0:0:
360,284,48007,2,0,P|301:270|238:319,1,129.999994049073,2|2,1:2|0:2,0:0:0:0:
186,366,48415,2,0,P|134:316|148:239,1,129.999994049073,2|2,1:2|0:2,0:0:0:0:
130,177,48823,2,0,B|225:228|224:123|329:184,1,194.999991073609,2|0,1:2|1:2,0:0:0:0:
477,226,49504,1,0,0:0:0:0:
503,145,49640,1,0,1:2:0:0:
407,5,49912,1,0,0:0:0:0:
381,86,50048,1,0,1:2:0:0:
237,175,50320,5,2,0:0:0:0:
206,96,50456,2,0,B|142:81|142:81|71:97,1,129.999994049073,2|0,1:2|0:0,0:0:0:0:
38,168,50864,2,0,B|49:200|49:200|38:232,1,64.9999970245363,2|0,1:2|0:0,0:0:0:0:
83,301,51136,2,0,B|69:337|69:337|83:374,1,64.9999970245363,2|0,0:0|1:2,0:0:0:0:
245,331,51545,2,0,B|276:341|276:341|312:329,1,64.9999970245363,2|0,0:0|1:2,0:0:0:0:
368,173,51953,5,0,1:2:0:0:
438,219,52089,2,0,P|450:151|401:96,1,129.999994049073,0|0,1:2|0:0,0:0:0:0:
361,40,52497,1,0,1:2:0:0:
108,28,52905,2,0,B|94:92|94:92|108:161,1,129.999994049073,2|2,1:2|0:2,0:0:0:0:
175,203,53313,2,0,B|189:139|189:139|175:70,1,129.999994049073,2|2,1:2|0:2,0:0:0:0:
258,56,53721,2,0,B|346:14|346:14|442:56,1,194.999991073609,2|0,1:2|1:2,0:0:0:0:
489,301,54538,2,0,P|424:325|358:301,1,129.999994049073,2|2,1:2|0:2,0:0:0:0:
355,224,54946,2,0,P|290:200|224:224,1,129.999994049073,2|2,1:2|0:2,0:0:0:0:
187,286,55354,5,0,1:2:0:0:
115,331,55490,1,2,0:0:0:0:
47,280,55626,1,2,0:0:0:0:
49,195,55762,1,0,1:2:0:0:
94,123,55898,1,2,0:0:0:0:
43,55,56034,1,2,0:0:0:0:
127,51,56170,2,0,L|191:50,2,64.9999970245363,0|2|2,1:2|0:0|0:0,0:0:0:0:
172,157,56579,2,0,P|235:170|312:153,1,129.999994049073,0|0,1:2|0:0,0:0:0:0:
383,152,56987,6,0,B|400:214|400:214|382:293,1,129.999994049073,2|2,1:2|0:0,0:0:0:0:
365,360,57395,1,2,1:2:0:0:
257,241,57667,1,2,0:0:0:0:
176,266,57803,2,0,B|159:204|159:204|177:125,1,129.999994049073,2|2,1:2|0:0,0:0:0:0:
216,70,58211,1,0,1:2:0:0:
216,70,58347,1,0,1:0:0:0:
216,70,58483,1,0,1:0:0:0:
291,32,58619,6,0,B|360:16|360:16|438:32,1,139.999995727539,4|0,1:2|0:0,0:0:0:0:
471,110,59028,2,0,B|455:179|455:179|471:257,1,139.999995727539,8|0,0:0|0:0,0:0:0:0:
410,316,59436,6,0,P|375:323|337:317,2,69.9999978637696,2|0|2,1:2|0:0|0:0,0:0:0:0:
380,230,59844,2,0,P|345:223|307:229,2,69.9999978637696,10|0|2,0:0|0:0|0:0,0:0:0:0:
468,246,60252,1,2,1:2:0:0:
409,73,60524,1,0,0:0:0:0:
326,34,60660,1,8,0:0:0:0:
165,119,60932,5,0,0:0:0:0:
82,80,61068,2,0,P|45:71|7:90,2,69.9999978637696,2|0|2,1:2|0:0|0:0,0:0:0:0:
87,171,61477,2,0,P|50:180|12:161,2,69.9999978637696,10|0|0,0:0|0:0|0:0,0:0:0:0:
165,119,61885,2,0,P|176:202|78:267,1,209.999993591309,2|8,1:2|0:0,0:0:0:0:
208,328,62701,2,0,P|305:365|413:317,1,209.999993591309,0|8,1:2|0:0,0:0:0:0:
475,67,63517,6,0,P|402:45|338:66,1,139.999995727539,2|0,1:2|0:0,0:0:0:0:
322,152,63926,2,0,P|279:152|244:126,1,69.9999978637696,10|0,0:0|0:0,0:0:0:0:
229,52,64198,2,0,P|188:45|152:56,1,69.9999978637696,2|2,0:0|1:2,0:0:0:0:
12,157,64606,2,0,P|3:191|23:236,1,69.9999978637696,2|8,0:0|0:0,0:0:0:0:
157,334,65014,5,0,1:0:0:0:
168,244,65150,2,0,P|172:175|129:115,1,139.999995727539,0|0,1:2|0:0,0:0:0:0:
86,40,65559,1,8,0:0:0:0:
267,38,65831,5,0,0:0:0:0:
293,125,65967,2,0,P|366:110|438:130,1,139.999995727539,2|0,1:2|0:0,0:0:0:0:
420,215,66374,2,0,P|359:236|278:204,1,139.999995727539,8|2,0:0|0:0,0:0:0:0:
207,171,66783,2,0,P|169:165|125:176,2,69.9999978637696,2|0|0,1:2|0:0|0:0,0:0:0:0:
289,213,67191,1,8,0:0:0:0:
394,69,67463,5,0,0:0:0:0:
458,129,67599,2,0,P|481:193|445:277,1,139.999995727539,2|0,1:2|0:0,0:0:0:0:
386,319,68007,2,0,P|363:255|391:174,1,139.999995727539,8|0,0:0|0:0,0:0:0:0:
394,69,68415,6,0,P|387:34|397:-10,2,69.9999978637696,0|2|2,1:2|0:0|0:0,0:0:0:0:
291,122,68823,2,0,P|298:157|288:201,2,69.9999978637696,8|2|2,0:0|0:0|0:0,0:0:0:0:
190,70,69232,2,0,P|183:35|193:-9,2,69.9999978637696,0|0|2,1:2|0:0|0:0,0:0:0:0:
91,122,69640,6,0,P|120:189|97:255,1,139.999995727539,8|0,0:0|1:0,0:0:0:0:
41,318,70048,1,0,1:2:0:0:
106,370,70184,1,0,1:0:0:0:
175,323,70320,1,0,1:0:0:0:
246,366,70456,1,8,0:0:0:0:
308,309,70592,1,0,1:0:0:0:
378,355,70728,1,0,1:0:0:0:
452,302,70864,6,0,P|476:238|441:167,1,139.999995727539,0|0,1:2|1:0,0:0:0:0:
367,135,71272,1,8,0:0:0:0:
205,219,71545,1,0,1:0:0:0:
164,137,71681,6,0,B|94:165|94:165|18:139,1,139.999995727539,4|0,1:2|0:0,0:0:0:0:
28,53,72089,2,0,B|98:25|98:25|174:51,1,139.999995727539,8|0,0:0|0:0,0:0:0:0:
249,54,72497,6,0,P|286:62|329:51,2,69.9999978637696,2|0|2,1:2|0:0|0:0,0:0:0:0:
250,144,72905,2,0,P|287:136|330:147,2,69.9999978637696,8|0|2,0:0|0:0|0:0,0:0:0:0:
195,217,73313,2,0,P|169:281|199:350,1,139.999995727539,2|0,1:2|0:0,0:0:0:0:
282,323,73722,2,0,P|352:299|433:340,1,139.999995727539,8|0,0:0|0:0,0:0:0:0:
499,344,74130,6,0,P|523:280|497:216,1,139.999995727539,0|2,1:2|0:0,0:0:0:0:
430,155,74538,1,8,0:0:0:0:
255,103,74810,1,2,0:0:0:0:
184,45,74946,2,0,P|106:27|47:44,1,139.999995727539,0|0,1:2|0:0,0:0:0:0:
73,130,75354,2,0,B|96:196|96:196|73:276,1,139.999995727539,8|0,0:0|0:0,0:0:0:0:
151,314,75762,2,0,B|217:291|217:291|297:314,1,139.999995727539,0|0,1:2|0:0,0:0:0:0:
366,349,76170,1,8,0:0:0:0:
494,218,76443,5,0,0:0:0:0:
411,178,76579,2,0,P|391:106|427:40,1,139.999995727539,2|2,1:2|0:0,0:0:0:0:
500,12,76987,1,10,0:0:0:0:
319,33,77259,1,2,0:0:0:0:
260,102,77395,2,0,P|222:114|180:93,1,69.9999978637696,0|2,1:2|0:0,0:0:0:0:
129,41,77667,2,0,P|89:38|46:63,1,69.9999978637696,2|8,0:0|0:0,0:0:0:0:
7,222,78075,5,0,1:0:0:0:
74,283,78211,2,0,B|144:262|144:262|219:285,1,139.999995727539,0|0,1:2|0:0,0:0:0:0:
296,302,78619,2,0,B|362:322|362:322|438:296,1,139.999995727539,8|0,0:0|0:0,0:0:0:0:
484,226,79028,2,0,P|492:190|479:147,2,69.9999978637696,2|0|2,1:2|0:0|0:0,0:0:0:0:
410,172,79436,2,0,P|402:136|415:93,2,69.9999978637696,10|0|2,0:0|0:0|0:0,0:0:0:0:
319,183,79843,6,0,P|247:200|176:185,1,139.999995727539,2|0,1:2|0:0,0:0:0:0:
94,165,80252,2,0,P|75:232|110:305,1,139.999995727539,8|0,0:0|0:0,0:0:0:0:
178,341,80660,2,0,P|209:350|249:340,2,69.9999978637696,2|0|2,1:2|0:0|0:0,0:0:0:0:
100,294,81068,1,8,0:0:0:0:
229,166,81340,5,2,0:0:0:0:
282,91,81477,2,0,P|293:27|323:117,1,209.999993591309,2|8,1:2|0:0,0:0:0:0:
191,293,82293,2,0,P|179:356|149:266,1,209.999993591309,0|8,1:2|1:2,0:0:0:0:
265,158,83109,6,0,B|318:145|318:145|393:160,1,110.000003356934,2|2,1:2|0:0,0:0:0:0:
415,190,83517,1,2,0:0:0:0:
454,292,83789,2,0,B|376:340|376:252|281:309,1,165.000005035401,2|2,0:0|0:0,0:0:0:0:
256,192,84334,12,0,86374,0:0:0:0:
