osu file format v14

[General]
AudioFilename: audio.mp3
AudioLeadIn: 0
PreviewTime: 18619
Countdown: 0
SampleSet: Soft
StackLeniency: 0.3
Mode: 0
LetterboxInBreaks: 0
WidescreenStoryboard: 1

[Editor]
Bookmarks: 6374,12089,19436,20252,32497,45558,58619,70048,83109,84742
DistanceSpacing: 1.5
BeatDivisor: 6
GridSize: 4
TimelineZoom: 1.9

[Metadata]
Title:P.O.D.
TitleUnicode:P.O.D.
Artist:ItaloBrothers
ArtistUnicode:ItaloBrothers
Creator:Nuvolina
Version:Extra
Source:
Tags:anto riffy bakari pod zooland records hands up cut version people of dreamhack techno electronic english trance
BeatmapID:1749331
BeatmapSetID:835219

[Difficulty]
HPDrainRate:7
CircleSize:4.8
OverallDifficulty:8
ApproachRate:9
SliderMultiplier:1.69999990463257
SliderTickRate:1

[Events]
//Background and Video events
0,0,"BG.jpg",0,0
//Break Periods
//Storyboard Layer 0 (Background)
//Storyboard Layer 1 (Fail)
//Storyboard Layer 2 (Pass)
//Storyboard Layer 3 (Foreground)
//Storyboard Sound Samples

[TimingPoints]
6375,408.163265306122,4,2,1,30,1,0
12905,-100,4,2,1,50,0,0
19436,-100,4,2,1,60,0,0
30864,-100,4,2,1,50,0,0
32497,-90.9090909090909,4,2,1,60,0,0
45558,-76.9230769230769,4,2,2,90,0,0
56987,-76.9230769230769,4,2,2,60,0,0
58619,-76.9230769230769,4,2,2,95,0,1
70456,-76.9230769230769,4,2,2,75,0,1
70864,-76.9230769230769,4,2,2,55,0,1
71272,-76.9230769230769,4,2,2,45,0,1
71681,-76.9230769230769,4,2,2,95,0,1
83109,-100,4,2,1,50,0,0
86374,-100,4,2,1,5,0,0

[Colours]
Combo1 : 255,128,64
Combo2 : 74,197,255
Combo3 : 223,223,223

[HitObjects]
140,285,6511,5,2,0:0:0:0:
140,285,6783,1,2,0:0:0:0:
219,172,7191,2,0,P|207:110|222:56,1,113.333326975505,2|2,0:0|0:0,0:0:0:0:
303,64,7599,2,0,P|315:126|300:180,1,113.333326975505,2|2,0:0|0:0,0:0:0:0:
262,248,8007,1,2,0:0:0:0:
437,280,8415,1,2,0:0:0:0:
437,280,8823,1,2,0:0:0:0:
464,103,9232,1,0,0:0:0:0:
416,46,9368,5,2,0:0:0:0:
345,30,9504,1,2,0:0:0:0:
277,59,9640,1,2,0:0:0:0:
277,59,10048,1,2,0:0:0:0:
199,151,10456,2,0,P|140:159|71:145,1,113.333326975505,2|2,0:0|0:0,0:0:0:0:
17,199,10864,2,0,P|4:136|42:80,1,113.333326975505,2|2,0:0|0:0,0:0:0:0:
5,11,11272,2,0,P|60:16|109:70,1,113.333326975505,2|0,0:0|0:0,0:0:0:0:
200,54,11681,2,0,P|262:66|322:48,1,113.333326975505,2|2,0:0|0:0,0:0:0:0:
400,35,12089,6,0,B|451:56|451:56|475:111,1,113.333326975505,2|2,0:0|0:0,0:0:0:0:
395,140,12497,2,0,P|386:205|402:255,1,113.333326975505,2|0,0:0|0:0,0:0:0:0:
434,327,12905,5,10,0:0:0:0:
241,159,13313,1,10,0:0:0:0:
74,328,13721,2,0,B|52:283|52:283|82:212,1,113.333326975505,10|0,0:0|0:0,0:0:0:0:
91,136,14130,2,0,P|139:166|165:221,1,113.333326975505,10|0,0:0|0:0,0:0:0:0:
172,306,14538,2,0,P|231:298|268:256,1,113.333326975505,10|0,0:0|0:0,0:0:0:0:
320,192,14946,1,10,0:0:0:0:
392,26,15354,1,10,0:0:0:0:
219,46,15762,1,8,0:0:0:0:
150,75,15898,5,2,0:0:0:0:
115,140,16034,1,2,0:0:0:0:
124,213,16170,1,10,0:0:0:0:
124,213,16579,1,10,0:0:0:0:
313,289,16987,2,0,P|292:234|329:166,1,113.333326975505,10|0,0:0|0:0,0:0:0:0:
392,169,17395,2,0,P|398:115|360:61,1,113.333326975505,10|0,0:0|0:0,0:0:0:0:
250,51,17803,5,2,0:0:0:0:
168,26,17939,1,2,0:0:0:0:
96,71,18075,2,0,P|50:124|114:176,1,169.999990463257,2|0,0:0|0:0,0:0:0:0:
217,168,18619,6,0,P|210:225|158:270,1,113.333326975505,2|0,0:0|0:0,0:0:0:0:
87,253,19028,2,0,P|44:302|40:362,1,113.333326975505,2|0,0:0|0:0,0:0:0:0:
142,337,19436,5,12,0:0:0:0:
293,260,19708,1,0,0:0:0:0:
293,260,19844,1,8,0:0:0:0:
444,337,20116,1,0,0:0:0:0:
478,259,20252,2,0,L|463:143,1,113.333326975505,10|2,0:0|0:0,0:0:0:0:
452,62,20660,1,10,0:0:0:0:
314,31,20932,1,2,0:0:0:0:
314,31,21068,2,0,P|332:114|305:206,1,169.999990463257,8|8,0:0|0:0,0:0:0:0:
143,278,21749,5,0,0:0:0:0:
75,329,21885,1,10,0:0:0:0:
23,158,22157,1,2,0:0:0:0:
23,158,22293,2,0,P|13:92|49:49,1,113.333326975505,10|2,0:0|0:0,0:0:0:0:
120,99,22701,2,0,P|197:65|287:103,1,169.999990463257,10|8,0:0|0:0,0:0:0:0:
431,43,23381,5,0,0:0:0:0:
475,115,23517,1,8,0:0:0:0:
307,242,23789,1,0,0:0:0:0:
328,159,23926,1,8,0:0:0:0:
438,331,24198,1,0,0:0:0:0:
417,243,24334,6,0,P|356:232|290:249,1,113.333326975505,10|2,0:0|0:0,0:0:0:0:
262,314,24742,1,10,0:0:0:0:
97,356,25014,1,2,0:0:0:0:
97,356,25150,2,0,P|108:295|68:248,1,113.333326975505,8|10,0:0|0:0,0:0:0:0:
14,201,25558,1,8,0:0:0:0:
53,35,25830,1,10,0:0:0:0:
30,116,25966,6,0,P|89:108|132:51,1,113.333326975505,8|0,0:0|0:0,0:0:0:0:
199,30,26374,1,8,0:0:0:0:
454,17,26783,2,0,P|395:25|352:82,1,113.333326975505,10|2,0:0|0:0,0:0:0:0:
320,137,27191,1,10,0:0:0:0:
463,227,27463,1,2,0:0:0:0:
463,227,27599,2,0,P|448:310|527:351,1,169.999990463257,10|8,0:0|0:0,0:0:0:0:
300,251,28279,5,0,0:0:0:0:
300,251,28415,2,0,B|241:234|241:234|181:251,1,113.333326975505,10|2,0:0|0:0,0:0:0:0:
99,285,28823,2,0,B|82:226|82:226|99:166,1,113.333326975505,10|2,0:0|0:0,0:0:0:0:
117,81,29232,2,0,B|201:103|201:103|295:75,1,169.999990463257,10|8,0:0|0:0,0:0:0:0:
450,73,29912,5,0,0:0:0:0:
381,122,30048,1,8,0:0:0:0:
247,258,30320,1,0,0:0:0:0:
226,175,30456,1,8,0:0:0:0:
78,98,30728,1,0,0:0:0:0:
127,25,30864,6,0,P|165:75|158:143,1,113.333326975505,2|2,0:0|0:0,0:0:0:0:
111,262,31272,1,2,0:0:0:0:
230,220,31545,2,0,P|305:179|381:205,1,169.999990463257,2|2,0:0|0:0,0:0:0:0:
380,204,32497,5,12,1:2:0:0:
367,226,32633,1,2,0:0:0:0:
354,248,32769,1,2,0:0:0:0:
288,306,32905,1,8,1:2:0:0:
273,286,33041,1,2,0:0:0:0:
258,266,33177,1,2,0:0:0:0:
187,212,33313,6,0,P|112:255|63:176,1,186.99999521637,8|8,1:2|1:2,0:0:0:0:
26,46,33857,1,2,0:0:0:0:
134,161,33994,1,2,0:0:0:0:
207,127,34130,2,0,P|195:56|228:2,1,124.66666347758,10|0,1:2|0:0,0:0:0:0:
316,80,34538,2,0,P|369:45|441:63,1,124.66666347758,8|0,1:2|0:0,0:0:0:0:
395,160,34946,2,0,P|449:222|428:325,1,186.99999521637,8|8,1:2|1:2,0:0:0:0:
219,315,35626,5,10,0:0:0:0:
219,315,35762,2,0,P|178:267|166:202,1,124.66666347758,8|2,1:2|0:0,0:0:0:0:
189,130,36170,1,8,1:2:0:0:
160,54,36306,1,2,0:0:0:0:
79,44,36443,1,2,0:0:0:0:
34,111,36579,2,0,B|22:166|51:181|34:242,1,124.66666347758,8|2,1:2|0:0,0:0:0:0:
54,315,36987,1,8,1:2:0:0:
123,357,37123,1,2,0:0:0:0:
200,331,37259,1,2,0:0:0:0:
263,277,37395,6,0,P|322:289|393:277,1,124.66666347758,8|0,1:2|0:0,0:0:0:0:
456,330,37803,2,0,P|471:269|426:203,1,124.66666347758,8|0,1:2|0:0,0:0:0:0:
500,148,38211,2,0,P|441:131|381:156,1,124.66666347758,8|8,1:2|0:0,0:0:0:0:
296,175,38619,2,0,P|286:111|327:58,1,124.66666347758,8|8,1:2|0:0,0:0:0:0:
153,41,39028,5,8,1:2:0:0:
132,54,39164,1,2,0:0:0:0:
110,66,39300,1,2,0:0:0:0:
22,110,39436,1,8,1:2:0:0:
36,130,39572,1,2,0:0:0:0:
51,149,39708,1,2,0:0:0:0:
11,273,39844,6,0,P|90:306|130:217,1,186.99999521637,8|8,1:2|1:2,0:0:0:0:
110,66,40388,1,2,0:0:0:0:
211,186,40525,1,2,0:0:0:0:
239,257,40660,2,0,P|277:304|337:314,1,124.66666347758,10|0,1:2|0:0,0:0:0:0:
365,245,41068,2,0,P|412:202|486:207,1,124.66666347758,8|0,1:2|0:0,0:0:0:0:
444,117,41477,2,0,P|462:28|372:18,1,186.99999521637,8|8,1:2|1:2,0:0:0:0:
216,51,42157,5,2,0:0:0:0:
139,92,42293,1,0,1:0:0:0:
87,21,42429,1,2,0:0:0:0:
13,68,42565,1,2,0:0:0:0:
48,147,42701,5,0,1:0:0:0:
123,191,42837,1,2,0:0:0:0:
62,253,42973,1,2,0:0:0:0:
6,320,43109,5,0,1:0:0:0:
68,380,43245,1,2,0:0:0:0:
137,327,43381,1,2,0:0:0:0:
194,261,43517,5,0,1:0:0:0:
280,272,43653,1,2,0:0:0:0:
246,352,43789,1,2,0:0:0:0:
334,343,43926,6,0,B|431:334|431:334|405:300,1,124.66666347758,2|2,0:0|0:0,0:0:0:0:
203,160,44334,2,0,B|106:169|106:169|132:203,1,124.66666347758,2|0,0:0|0:0,0:0:0:0:
386,201,44742,2,0,B|483:192|483:192|457:158,1,124.66666347758,2|0,0:0|0:0,0:0:0:0:
271,54,45150,1,6,0:0:0:0:
188,338,45558,6,0,P|158:257|195:190,1,147.333318323772,4|0,1:2|0:0,0:0:0:0:
271,54,45966,2,0,P|301:135|264:202,1,147.333318323772,0|0,1:2|0:0,0:0:0:0:
343,343,46374,6,0,P|384:351|420:342,1,73.666659161886,2|0,1:2|0:0,0:0:0:0:
505,176,46647,1,2,0:2:0:0:
462,85,46783,2,0,P|421:77|385:86,1,73.666659161886,2|0,1:2|0:0,0:0:0:0:
182,191,47055,1,2,0:2:0:0:
108,60,47191,2,0,P|178:36|252:59,1,147.333318323772,2|0,1:2|0:0,0:0:0:0:
283,188,47599,2,0,B|259:256|307:260|283:332,1,147.333318323772,0|0,1:2|0:0,0:0:0:0:
55,372,48007,6,0,B|55:290,1,73.666659161886,2|0,1:2|0:0,0:0:0:0:
158,115,48279,1,2,0:2:0:0:
87,40,48415,2,0,B|53:28|53:28|17:40,1,73.666659161886,2|0,1:2|0:0,0:0:0:0:
114,182,48687,1,2,0:2:0:0:
235,80,48823,2,0,B|303:52|303:52|371:80,1,147.333318323772,2|0,1:2|0:0,0:0:0:0:
300,171,49232,5,0,1:2:0:0:
102,247,49504,1,0,0:0:0:0:
160,339,49640,1,0,1:2:0:0:
300,171,49912,1,0,0:0:0:0:
144,80,50048,1,0,1:2:0:0:
187,20,50184,1,2,0:0:0:0:
220,86,50320,1,2,0:0:0:0:
220,86,50456,6,0,P|293:65|368:92,1,147.333318323772,2|0,1:2|0:0,0:0:0:0:
446,174,50864,2,0,P|433:217|451:259,1,73.666659161886,2|0,1:2|0:0,0:0:0:0:
334,322,51136,2,0,P|291:332|247:316,1,73.666659161886,2|0,0:0|1:0,0:0:0:0:
19,229,51545,2,0,P|57:217|93:229,1,73.666659161886,2|0,0:0|1:2,0:0:0:0:
112,25,51953,1,0,1:2:0:0:
197,41,52089,6,0,B|270:22|270:22|357:41,1,147.333318323772,0|0,1:2|0:0,0:0:0:0:
267,157,52497,2,0,P|239:225|269:297,1,147.333318323772,0|0,1:2|0:0,0:0:0:0:
450,339,52905,6,0,P|458:300|443:259,1,73.666659161886,2|0,1:2|0:0,0:0:0:0:
339,94,53177,1,2,0:2:0:0:
267,157,53313,2,0,L|191:157,1,73.666659161886,2|0,1:2|0:0,0:0:0:0:
28,228,53585,2,0,L|101:228,1,73.666659161886,2|2,0:2|1:2,0:0:0:0:
329,322,53994,1,0,0:0:0:0:
329,322,54130,2,0,B|305:254|353:250|329:178,1,147.333318323772,0|0,1:2|0:0,0:0:0:0:
132,179,54538,6,0,B|108:247|156:251|132:323,1,147.333318323772,0|2,1:2|0:2,0:0:0:0:
38,357,54946,1,2,1:2:0:0:
226,256,55082,1,0,0:0:0:0:
310,311,55218,1,2,0:2:0:0:
397,271,55354,5,0,1:2:0:0:
360,166,55490,1,2,0:0:0:0:
451,102,55626,1,2,0:0:0:0:
371,26,55762,5,0,1:2:0:0:
291,102,55898,1,2,0:0:0:0:
243,18,56034,1,2,0:0:0:0:
194,100,56170,5,0,1:2:0:0:
239,184,56306,1,2,0:0:0:0:
173,254,56443,1,2,0:0:0:0:
75,247,56579,2,0,B|57:178|57:178|78:105,1,147.333318323772,0|0,1:2|0:0,0:0:0:0:
189,49,56987,6,0,P|257:70|341:43,1,147.333318323772,2|2,1:2|0:0,0:0:0:0:
434,105,57395,2,0,P|462:176|434:258,1,147.333318323772,2|2,1:2|0:0,0:0:0:0:
350,346,57803,2,0,P|276:315|197:350,1,147.333318323772,2|2,1:2|0:0,0:0:0:0:
97,321,58211,6,0,L|61:315,1,36.833329580943,0|0,1:2|0:0,0:0:0:0:
84,247,58347,2,0,L|54:226,1,36.833329580943,0|0,1:2|0:0,0:0:0:0:
125,183,58483,2,0,L|109:151,1,36.833329580943,0|0,1:2|0:0,0:0:0:0:
215,335,58619,6,0,B|187:295|187:295|215:199,1,147.333318323772,4|0,1:2|0:0,0:0:0:0:
281,21,59028,2,0,B|309:61|309:61|281:157,1,147.333318323772,8|0,0:0|0:0,0:0:0:0:
161,222,59436,6,0,P|121:234|70:210,1,73.666659161886,2|0,1:2|0:0,0:0:0:0:
22,66,59708,1,2,0:0:0:0:
99,24,59844,2,0,P|134:16|179:27,1,73.666659161886,10|0,0:0|0:0,0:0:0:0:
251,126,60116,2,0,P|287:135|334:118,1,73.666659161886,2|2,0:0|1:2,0:0:0:0:
504,19,60524,1,0,0:0:0:0:
472,106,60660,2,0,P|450:177|487:264,1,147.333318323772,8|0,0:0|0:0,0:0:0:0:
279,333,61068,6,0,P|314:340|350:331,1,73.666659161886,2|0,1:2|0:0,0:0:0:0:
279,155,61340,1,2,0:0:0:0:
139,199,61477,2,0,P|131:235|140:271,1,73.666659161886,10|0,0:0|0:0,0:0:0:0:
279,155,61749,2,0,P|287:119|278:83,1,73.666659161886,2|2,0:0|1:2,0:0:0:0:
54,210,62157,5,0,0:0:0:0:
54,210,62293,2,0,L|68:361,1,147.333318323772,8|0,0:0|0:0,0:0:0:0:
305,357,62701,2,0,L|319:211,1,147.333318323772,0|0,1:2|0:0,0:0:0:0:
193,21,63109,2,0,L|193:177,1,147.333318323772,8|0,0:0|0:0,0:0:0:0:
268,96,63517,6,0,L|110:96,1,147.333318323772,2|0,1:2|0:0,0:0:0:0:
13,6,63926,1,10,0:0:0:0:
101,217,64198,1,2,0:0:0:0:
9,229,64334,2,0,P|-20:295|7:376,1,147.333318323772,2|2,1:2|0:0,0:0:0:0:
151,292,64742,1,8,0:0:0:0:
358,332,65014,5,0,1:0:0:0:
272,283,65150,2,0,P|243:217|270:136,1,147.333318323772,0|0,1:2|0:0,0:0:0:0:
430,276,65558,2,0,P|461:212|432:129,1,147.333318323772,8|0,0:0|0:0,0:0:0:0:
170,340,65966,6,0,P|130:352|79:328,1,73.666659161886,2|0,1:2|0:0,0:0:0:0:
12,167,66238,1,2,0:0:0:0:
70,78,66374,2,0,P|105:70|150:81,1,73.666659161886,10|0,0:0|0:0,0:0:0:0:
223,29,66646,2,0,P|259:38|306:21,1,73.666659161886,2|2,0:0|1:2,0:0:0:0:
489,118,67054,1,0,0:0:0:0:
477,211,67190,2,0,P|455:282|492:369,1,147.333318323772,8|0,0:0|0:0,0:0:0:0:
319,349,67599,6,0,P|343:282|306:194,1,147.333318323772,2|2,1:2|0:0,0:0:0:0:
233,93,68007,1,10,0:0:0:0:
281,17,68143,1,0,0:0:0:0:
332,84,68279,1,2,0:0:0:0:
397,158,68415,5,0,1:0:0:0:
368,241,68551,1,2,0:0:0:0:
282,218,68687,1,2,0:0:0:0:
213,312,68823,5,10,0:0:0:0:
125,303,68959,1,2,0:0:0:0:
135,214,69096,1,2,0:0:0:0:
31,156,69232,5,0,1:0:0:0:
108,113,69368,1,2,0:0:0:0:
38,57,69504,1,2,0:0:0:0:
38,57,69640,1,8,0:0:0:0:
256,36,69912,5,0,1:0:0:0:
336,112,70048,1,0,1:2:0:0:
256,188,70184,1,0,1:0:0:0:
176,112,70320,1,0,1:0:0:0:
184,224,70456,5,8,0:0:0:0:
256,260,70592,1,0,1:0:0:0:
328,224,70728,1,0,1:0:0:0:
320,296,70864,5,0,1:2:0:0:
256,260,71000,1,0,1:0:0:0:
192,296,71136,1,0,1:0:0:0:
240,352,71272,5,8,0:0:0:0:
256,360,71409,1,0,1:0:0:0:
272,352,71545,1,0,1:0:0:0:
410,187,71681,6,0,P|477:209|506:275,1,147.333318323772,4|0,1:2|0:0,0:0:0:0:
375,280,72089,2,0,P|307:257|278:191,1,147.333318323772,8|0,0:0|0:0,0:0:0:0:
150,217,72497,6,0,L|54:217,1,73.666659161886,2|0,1:2|0:0,0:0:0:0:
49,28,72769,1,2,0:0:0:0:
120,84,72905,2,0,B|155:99|155:99|201:84,1,73.666659161886,10|0,0:0|0:0,0:0:0:0:
310,26,73177,2,0,B|345:11|345:11|391:26,1,73.666659161886,2|2,0:0|1:2,0:0:0:0:
512,204,73585,1,0,0:0:0:0:
512,204,73721,2,0,L|352:204,1,147.333318323772,8|0,0:0|0:0,0:0:0:0:
188,288,74130,6,0,B|257:314|257:314|345:282,1,147.333318323772,0|2,1:2|0:0,0:0:0:0:
442,161,74538,2,0,P|381:110|366:37,1,147.333318323772,8|2,0:0|0:0,0:0:0:0:
70,161,74946,2,0,P|131:110|146:37,1,147.333318323772,0|0,1:2|0:0,0:0:0:0:
308,182,75354,2,0,L|369:36,1,147.333318323772,8|0,0:0|0:0,0:0:0:0:
204,182,75762,2,0,L|143:36,1,147.333318323772,0|0,1:2|0:0,0:0:0:0:
255,11,76170,1,8,0:0:0:0:
204,182,76443,5,0,0:0:0:0:
308,182,76579,2,0,L|455:182,1,147.333318323772,2|2,1:2|0:0,0:0:0:0:
364,331,76987,2,0,L|437:331,1,73.666659161886,10|0,0:0|0:0,0:0:0:0:
308,182,77259,1,2,0:0:0:0:
161,324,77395,2,0,L|87:324,1,73.666659161886,0|0,1:2|0:0,0:0:0:0:
135,181,77668,1,2,0:0:0:0:
35,100,77804,1,8,0:0:0:0:
281,64,78075,5,0,1:0:0:0:
281,64,78211,2,0,P|352:43|433:74,1,147.333318323772,0|0,1:2|0:0,0:0:0:0:
348,180,78619,2,0,P|370:250|342:336,1,147.333318323772,8|0,0:0|0:0,0:0:0:0:
229,249,79028,2,0,P|189:259|150:239,1,73.666659161886,2|0,1:2|0:0,0:0:0:0:
121,71,79300,1,2,0:0:0:0:
212,63,79436,2,0,P|253:52|290:73,1,73.666659161886,10|0,0:0|0:0,0:0:0:0:
389,250,79707,5,2,0:0:0:0:
490,249,79844,2,0,B|518:178|518:178|484:91,1,147.333318323772,2|0,1:2|0:0,0:0:0:0:
369,181,80252,1,8,0:0:0:0:
148,141,80524,5,0,0:0:0:0:
75,213,80660,2,0,P|32:221|-6:213,1,73.666659161886,2|0,1:2|0:0,0:0:0:0:
146,33,80932,1,2,0:0:0:0:
251,84,81068,2,0,P|287:88|323:80,1,73.666659161886,10|0,0:0|0:0,0:0:0:0:
497,21,81340,5,2,0:0:0:0:
458,126,81477,2,0,P|503:213|435:305,1,220.999977485658,2|8,1:2|0:0,0:0:0:0:
291,208,82157,1,0,0:0:0:0:
291,208,82293,2,0,P|230:165|162:208,1,147.333318323772,0|0,1:2|0:0,0:0:0:0:
78,314,82701,5,0,1:0:0:0:
170,193,82837,1,0,1:0:0:0:
78,77,82973,1,0,1:0:0:0:
187,44,83109,6,0,P|242:26|306:55,1,113.333326975505,2|2,1:2|0:0,0:0:0:0:
320,127,83517,1,2,0:0:0:0:
266,257,83789,2,0,P|330:308|374:242,1,169.999990463257,2|2,0:0|0:0,0:0:0:0:
256,192,84334,12,0,86374,0:0:0:0:
