osu file format v14

[General]
AudioFilename: audio.mp3
AudioLeadIn: 0
PreviewTime: 51750
Countdown: 0
SampleSet: Soft
StackLeniency: 0.7
Mode: 0
LetterboxInBreaks: 0
SkinPreference:Default
WidescreenStoryboard: 0

[Editor]
DistanceSpacing: 1
BeatDivisor: 4
GridSize: 32
TimelineZoom: 2.1

[Metadata]
Title:Dancing in the Streets (Nightcore Mix)
TitleUnicode:Dancing in the Streets (Nightcore Mix)
Artist:ItaloBrothers
ArtistUnicode:ItaloBrothers
Creator:-Cronik
Version:Normal
Source:
Tags:electronic english electrodance electro dance remix hardstyle eurodance handsup techno hands speed sped up ver appetible appe
BeatmapID:3890195
BeatmapSetID:1888909

[Difficulty]
HPDrainRate:3
CircleSize:3
OverallDifficulty:4
ApproachRate:5.5
SliderMultiplier:1.2
SliderTickRate:1

[Events]
//Background and Video events
0,0,"95746487_p0.jpg",0,0
//Break Periods
2,62308,71028
//Storyboard Layer 0 (Background)
//Storyboard Layer 1 (Fail)
//Storyboard Layer 2 (Pass)
//Storyboard Layer 3 (Foreground)
//Storyboard Layer 4 (Overlay)
//Storyboard Sound Samples

[TimingPoints]
1387,316.255534471853,4,2,5,60,1,0
11349,-111.111111111111,4,2,5,50,0,0
21627,-111.111111111111,4,2,5,55,0,0
31747,-111.111111111111,4,2,5,65,0,0
41867,-99.9999999999999,4,2,5,80,0,1
62108,-111.111111111111,4,2,5,60,0,0
72228,-111.111111111111,4,2,5,70,0,0
82348,-111.111111111111,4,2,5,55,0,0
87408,-111.111111111111,4,2,5,60,0,0
89938,-111.111111111111,4,2,5,65,0,0
94998,-99.9999999999999,4,2,5,80,0,1
112708,-99.9999999999999,4,2,5,60,0,0

[Colours]
Combo1 : 255,255,128
Combo2 : 128,255,255
Combo3 : 255,128,128
Combo4 : 128,255,128
SliderBorder : 99,169,129
SliderTrackOverride : 55,55,55

[HitObjects]
43,308,11349,5,2,2:2:0:0:
43,308,11507,1,6,2:2:0:0:
201,361,11981,1,2,2:2:0:0:
201,361,12139,2,0,P|308:356|323:355,1,107.999996704102,2|2,2:2|2:2,0:0:0:0:
404,311,12772,1,2,2:2:0:0:
277,136,13404,2,0,P|284:104|289:76,2,53.9999983520508,2|0|2,2:2|0:0|2:2,0:0:0:0:
214,224,14037,6,0,B|153:207|174:252|94:228,1,107.999996704102,2|2,2:2|2:2,0:0:0:0:
61,251,14511,1,2,2:2:0:0:
61,251,14669,2,0,P|49:195|72:136,1,107.999996704102,2|2,2:2|2:2,0:0:0:0:
137,68,15302,2,0,P|141:33|133:5,1,53.9999983520508,2|0,2:2|0:0,0:0:0:0:
300,164,16092,1,2,2:2:0:0:
300,164,16251,1,2,2:2:0:0:
360,74,16567,6,0,P|417:75|462:122,1,107.999996704102,2|0,2:2|0:0,0:0:0:0:
484,158,17041,1,2,2:2:0:0:
484,158,17199,2,0,P|495:221|505:284,1,107.999996704102,2|0,2:2|0:0,0:0:0:0:
417,331,17832,1,2,2:2:0:0:
417,331,17990,2,0,B|349:335|373:299|302:305,1,107.999996704102,2|2,2:2|2:2,0:0:0:0:
267,277,18464,2,0,P|262:241|259:217,2,53.9999983520508,2|2|2,2:2|2:2|2:2,0:0:0:0:
173,328,19097,5,2,2:2:0:0:
173,328,19255,2,0,P|111:321|85:265,1,107.999996704102,2|0,2:2|0:0,0:0:0:0:
81,130,20046,1,2,2:2:0:0:
81,130,20204,2,0,L|70:58,2,53.9999983520508,2|2|2,2:2|2:2|2:2,0:0:0:0:
186,96,20836,1,8,2:2:0:0:
186,96,20994,2,0,P|220:107|292:136,1,107.999996704102,8|8,2:2|2:2,0:0:0:0:
394,137,21627,6,0,P|379:222|376:250,1,107.999996704102,12|8,2:2|2:2,0:0:0:0:
417,286,22101,1,0,0:0:0:0:
417,286,22259,2,0,B|351:267|368:306|309:293,1,107.999996704102,8|8,2:2|2:2,0:0:0:0:
217,346,22892,2,0,P|153:331|106:328,1,107.999996704102,8|8,2:2|2:2,0:0:0:0:
65,311,23366,1,0,0:0:0:0:
65,311,23524,2,0,P|41:329|32:372,2,53.9999983520508,8|0|8,2:2|0:0|2:2,0:0:0:0:
144,237,24157,6,0,B|123:180|165:175|133:108,1,107.999996704102,8|8,2:2|2:2,0:0:0:0:
161,83,24631,1,0,0:0:0:0:
161,83,24789,2,0,P|113:74|52:103,1,107.999996704102,8|8,2:2|2:2,0:0:0:0:
13,193,25422,2,0,P|26:291|30:317,1,107.999996704102,8|8,2:2|2:2,0:0:0:0:
174,231,26213,2,0,L|233:242,1,53.9999983520508,0|8,0:0|2:2,0:0:0:0:
287,330,26687,6,0,P|347:318|412:312,1,107.999996704102,8|8,2:2|2:2,0:0:0:0:
434,356,27161,1,0,0:0:0:0:
434,356,27319,2,0,P|419:285|412:227,1,107.999996704102,8|8,2:2|2:2,0:0:0:0:
431,199,27794,1,0,0:0:0:0:
431,199,27952,1,8,2:2:0:0:
382,75,28426,1,0,0:0:0:0:
382,75,28584,2,0,L|442:83,2,53.9999983520508,8|0|8,2:2|0:0|2:2,0:0:0:0:
286,122,29217,5,8,2:2:0:0:
286,122,29375,2,0,P|221:112|167:105,1,107.999996704102,0|0,0:0|0:0,0:0:0:0:
38,186,30166,2,0,L|29:244,1,53.9999983520508,8|0,2:2|0:0,0:0:0:0:
25,296,30482,1,8,2:2:0:0:
25,296,30640,2,0,B|88:286|64:321|138:310,1,107.999996704102,0|0,0:0|0:0,0:0:0:0:
180,330,31115,1,8,2:2:0:0:
280,291,31431,1,8,2:2:0:0:
376,338,31747,6,0,P|406:292|397:235,1,107.999996704102,10|8,2:2|2:2,0:0:0:0:
364,209,32221,1,2,2:2:0:0:
364,209,32380,2,0,P|362:153|370:87,1,107.999996704102,10|10,2:2|2:2,0:0:0:0:
278,39,33012,2,0,B|218:27|218:52|166:40,1,107.999996704102,10|8,2:2|2:2,0:0:0:0:
124,26,33486,1,2,2:2:0:0:
124,26,33645,2,0,P|93:74|103:135,1,107.999996704102,10|10,2:2|2:2,0:0:0:0:
172,199,34277,6,0,P|244:198|297:194,1,107.999996704102,10|10,2:2|2:2,0:0:0:0:
310,152,34751,1,2,2:2:0:0:
310,152,34910,2,0,P|348:157|380:160,1,53.9999983520508,10|0,2:2|0:0,0:0:0:0:
415,142,35226,1,10,2:2:0:0:
506,212,35542,2,0,P|489:275|487:318,1,107.999996704102,10|8,2:2|2:2,0:0:0:0:
452,359,36016,1,0,0:0:0:0:
452,359,36175,2,0,L|387:347,1,53.9999983520508,8|2,2:2|2:2,0:0:0:0:
359,312,36491,1,10,2:2:0:0:
253,333,36807,6,0,P|201:320|132:314,1,107.999996704102,10|8,2:2|2:2,0:0:0:0:
99,334,37282,1,10,2:2:0:0:
99,334,37440,2,0,P|107:296|108:269,1,53.9999983520508,10|8,2:2|2:2,0:0:0:0:
125,229,37756,1,8,2:2:0:0:
38,174,38072,1,10,2:2:0:0:
38,174,38230,2,0,P|24:129|63:71,1,107.999996704102,10|10,2:2|2:2,0:0:0:0:
103,78,38705,2,0,P|119:30|114:6,2,53.9999983520508,10|10|10,2:2|2:2|2:2,0:0:0:0:
256,192,39337,12,2,40602,1:2:0:0:
53,348,41867,6,0,P|36:290|41:217,1,120,12|8,2:2|2:2,0:0:0:0:
86,194,42342,1,0,0:0:0:0:
86,194,42500,1,8,2:2:0:0:
196,241,42816,1,8,2:2:0:0:
296,175,43132,2,0,P|278:112|274:44,1,120,8|8,2:2|2:2,0:0:0:0:
329,28,43607,1,0,0:0:0:0:
329,28,43765,2,0,P|377:34|405:41,1,60,8|0,2:2|0:0,0:0:0:0:
445,19,44081,2,0,P|461:60|465:90,1,60,8|0,2:2|0:0,0:0:0:0:
434,127,44397,5,8,2:2:0:0:
488,234,44714,2,0,P|484:275|485:320,1,60,8|0,2:2|0:0,0:0:0:0:
441,336,45030,2,0,P|378:345|312:319,1,120,8|8,2:2|2:2,0:0:0:0:
269,328,45504,1,0,0:0:0:0:
269,328,45662,1,8,2:2:0:0:
193,234,45979,1,8,2:2:0:0:
260,136,46295,1,8,2:2:0:0:
260,136,46453,2,0,L|246:68,1,60,8|8,2:2|2:2,0:0:0:0:
343,4,46927,6,0,P|413:6|456:53,1,120,8|8,2:2|2:2,0:0:0:0:
499,79,47402,1,0,0:0:0:0:
499,79,47560,2,0,P|504:121|513:204,1,120,8|8,2:2|2:2,0:0:0:0:
412,265,48192,2,0,P|344:276|286:247,1,120,8|8,2:2|2:2,0:0:0:0:
254,224,48667,1,0,0:0:0:0:
254,224,48825,2,0,P|201:234|179:238,1,60,8|0,2:2|0:0,0:0:0:0:
145,200,49141,1,8,2:2:0:0:
34,238,49457,5,8,2:2:0:0:
34,238,49615,2,0,B|11:276|11:276|47:358,1,120,0|0,0:0|0:0,0:0:0:0:
97,367,50090,1,8,2:2:0:0:
187,288,50406,2,0,P|224:292|254:297,1,60,8|0,2:2|0:0,0:0:0:0:
289,345,50722,1,8,2:2:0:0:
289,345,50880,2,0,B|353:329|341:370|409:353,1,120,0|8,0:0|2:2,0:0:0:0:
462,334,51355,1,0,1:1:0:0:
407,226,51671,2,0,P|412:170|413:154,1,60,0|2,1:1|2:2,0:0:0:0:
436,111,51987,6,0,B|391:72|391:72|325:88,1,120,14|8,2:2|2:2,0:0:0:0:
281,113,52462,1,2,2:2:0:0:
281,113,52620,2,0,P|226:99|206:96,1,60,10|0,2:2|0:0,0:0:0:0:
178,58,52936,1,10,2:2:0:0:
63,94,53252,2,0,P|52:151|82:230,1,120,10|8,2:2|2:2,0:0:0:0:
125,241,53727,1,2,2:2:0:0:
125,241,53885,1,10,2:2:0:0:
230,303,54201,2,0,P|278:298|299:296,1,60,10|2,2:2|2:2,0:0:0:0:
328,251,54517,6,0,B|371:237|393:282|459:267,1,120,10|10,2:2|2:2,0:0:0:0:
504,252,54992,1,2,2:2:0:0:
504,252,55150,2,0,P|495:204|489:186,1,60,10|0,2:2|0:0,0:0:0:0:
440,162,55466,1,10,2:2:0:0:
487,52,55782,2,0,P|431:20|373:42,1,120,10|8,2:2|2:2,0:0:0:0:
276,93,56415,2,0,P|226:85|201:80,1,60,8|10,2:2|2:2,0:0:0:0:
158,67,56731,1,10,2:2:0:0:
57,132,57047,6,0,P|27:180|45:249,1,120,10|8,2:2|2:2,0:0:0:0:
100,257,57522,1,2,2:2:0:0:
100,257,57680,2,0,P|139:242|227:226,1,120,10|8,2:2|2:2,0:0:0:0:
324,171,58312,1,10,2:2:0:0:
324,171,58471,2,0,P|381:202|384:271,1,120,2|2,2:2|2:2,0:0:0:0:
394,312,58945,2,0,P|354:299|322:299,1,60,10|2,2:2|2:2,0:0:0:0:
278,282,59261,1,10,2:2:0:0:
168,326,59578,5,10,2:2:0:0:
168,326,59736,2,0,P|105:300|53:291,1,120,2|0,2:2|0:0,0:0:0:0:
1,319,60210,2,0,P|29:266|21:186,1,120,8|10,2:2|2:2,0:0:0:0:
121,134,60843,2,0,L|201:146,1,60,10|2,2:2|2:2,0:0:0:0:
232,171,61159,1,8,2:2:0:0:
232,171,61317,1,8,2:2:0:0:
349,196,61633,1,12,2:2:0:0:
468,86,62108,5,0,1:2:0:0:
26,306,72228,6,0,B|91:295|71:336|139:326,1,107.999996704102,4|8,1:2|2:2,0:0:0:0:
171,369,72702,1,0,0:0:0:0:
171,369,72860,2,0,P|211:320|197:258,1,107.999996704102,0|10,1:1|2:2,0:0:0:0:
170,239,73335,1,2,2:2:0:0:
87,169,73651,2,0,P|100:118|105:95,1,53.9999983520508,2|8,2:2|2:2,0:0:0:0:
98,58,73967,2,0,P|161:21|216:32,1,107.999996704102,2|2,2:2|2:2,0:0:0:0:
243,44,74442,1,8,2:2:0:0:
318,120,74758,6,0,B|355:117|355:117|372:131|372:131|436:125,1,107.999996704102,0|8,1:1|2:2,0:0:0:0:
453,85,75232,1,2,2:2:0:0:
453,85,75390,2,0,P|507:126|506:161,1,107.999996704102,2|10,1:2|2:2,0:0:0:0:
479,208,75865,1,2,2:2:0:0:
383,258,76181,2,0,P|340:248|310:242,1,53.9999983520508,2|8,2:2|2:2,0:0:0:0:
290,209,76497,2,0,P|237:221|159:230,1,107.999996704102,2|2,2:2|2:2,0:0:0:0:
134,205,76972,1,8,2:2:0:0:
34,247,77288,6,0,P|14:300|63:343,1,107.999996704102,2|8,1:2|2:2,0:0:0:0:
82,373,77762,2,0,P|160:364|210:355,1,107.999996704102,2|0,2:2|0:0,0:0:0:0:
227,320,78237,1,10,2:2:0:0:
335,351,78553,1,0,1:1:0:0:
335,351,78711,2,0,P|372:321|438:316,1,107.999996704102,2|0,2:2|0:0,0:0:0:0:
484,307,79185,2,0,P|477:346|472:371,2,53.9999983520508,2|2|10,1:2|2:2|2:2,0:0:0:0:
429,213,79818,6,0,P|426:158|435:94,1,107.999996704102,2|8,1:2|2:2,0:0:0:0:
456,59,80292,2,0,B|396:37|406:81|330:56,1,107.999996704102,2|0,2:2|0:0,0:0:0:0:
309,25,80767,1,10,2:2:0:0:
248,97,81083,1,2,1:2:0:0:
248,97,81241,2,0,P|178:81|118:74,1,107.999996704102,2|2,2:2|2:2,0:0:0:0:
100,51,81715,2,0,B|112:122|115:174,1,107.999996704102,2|10,1:2|2:2,0:0:0:0:
86,262,82348,6,0,P|140:284|193:255,1,107.999996704102,14|8,2:2|2:2,0:0:0:0:
215,224,82822,1,2,2:2:0:0:
215,224,82980,2,0,P|263:197|318:205,1,107.999996704102,10|10,2:2|2:2,0:0:0:0:
410,251,83613,2,0,P|424:295|376:343,1,107.999996704102,10|8,2:2|2:2,0:0:0:0:
341,326,84087,1,2,2:2:0:0:
341,326,84245,2,0,P|306:326|278:335,1,53.9999983520508,10|0,2:2|0:0,0:0:0:0:
239,355,84562,1,10,2:2:0:0:
131,359,84878,6,0,P|83:329|95:270,1,107.999996704102,10|10,2:2|2:2,0:0:0:0:
128,246,85352,1,2,2:2:0:0:
128,246,85510,2,0,P|110:185|102:130,1,107.999996704102,10|10,2:2|2:2,0:0:0:0:
176,61,86143,2,0,B|234:54|231:93|291:86,1,107.999996704102,10|8,2:2|2:2,0:0:0:0:
327,60,86617,1,0,0:0:0:0:
327,60,86775,2,0,P|361:64|394:67,1,53.9999983520508,8|2,2:2|2:2,0:0:0:0:
431,84,87092,1,10,2:2:0:0:
493,172,87408,6,0,P|483:247|474:289,1,107.999996704102,10|8,2:2|2:2,0:0:0:0:
488,334,87882,1,10,2:2:0:0:
488,334,88041,2,0,P|411:323|360:321,1,107.999996704102,10|8,2:2|2:2,0:0:0:0:
283,275,88673,1,10,2:2:0:0:
283,275,88831,2,0,P|214:283|150:288,1,107.999996704102,10|10,2:2|2:2,0:0:0:0:
121,285,89306,2,0,P|128:239|132:211,1,53.9999983520508,10|10,2:2|2:2,0:0:0:0:
122,178,89622,1,10,2:2:0:0:
256,192,89938,12,0,92468,1:2:0:0:
102,73,93733,5,0,1:2:0:0:
295,169,94366,2,0,P|340:170|361:166,1,53.9999983520508,8|8,2:2|2:2,0:0:0:0:
399,185,94682,2,0,P|387:141|393:119,1,53.9999983520508,12|0,2:2|0:0,0:0:0:0:
432,93,94998,6,0,P|416:42|344:24,1,120,12|8,2:2|2:2,0:0:0:0:
307,52,95473,1,8,2:2:0:0:
307,52,95631,2,0,P|250:46|171:41,1,120,8|8,2:2|2:2,0:0:0:0:
137,19,96105,1,0,0:0:0:0:
137,19,96263,1,8,2:2:0:0:
54,105,96579,2,0,P|64:194|65:243,1,120,8|8,2:2|2:2,0:0:0:0:
116,265,97054,1,8,2:2:0:0:
116,265,97212,1,8,2:2:0:0:
197,352,97528,6,0,B|247:350|247:350|262:360|262:360|335:358,1,120,8|8,2:2|2:2,0:0:0:0:
378,366,98003,1,0,0:0:0:0:
378,366,98161,2,0,P|404:311|383:251,1,120,8|8,2:2|2:2,0:0:0:0:
340,216,98635,1,0,0:0:0:0:
340,216,98793,2,0,P|287:225|202:231,1,120,8|8,2:2|2:2,0:0:0:0:
105,196,99426,2,0,P|92:163|89:129,1,60,8|0,2:2|0:0,0:0:0:0:
105,81,99742,2,0,P|146:89|171:87,1,60,8|0,2:2|0:0,0:0:0:0:
209,49,100058,5,8,2:2:0:0:
209,49,100216,2,0,P|286:70|347:80,1,120,0|0,0:0|0:0,0:0:0:0:
380,52,100691,1,8,2:2:0:0:
453,146,101007,2,0,P|449:197|447:220,1,60,8|0,2:2|0:0,0:0:0:0:
477,264,101323,1,8,2:2:0:0:
477,264,101481,2,0,P|470:303|465:323,1,60,0|8,0:0|2:2,0:0:0:0:
412,352,101798,1,8,2:2:0:0:
311,296,102114,1,8,2:2:0:0:
311,296,102272,2,0,P|263:303|235:305,1,60,0|2,1:1|2:2,0:0:0:0:
193,317,102588,6,0,P|158:267|171:205,1,120,14|8,2:2|2:2,0:0:0:0:
183,156,103063,1,2,2:2:0:0:
183,156,103221,2,0,P|258:167|326:173,1,120,10|10,2:2|2:2,0:0:0:0:
417,205,103853,2,0,P|452:173|435:88,1,120,10|8,2:2|2:2,0:0:0:0:
425,55,104328,1,2,2:2:0:0:
425,55,104486,2,0,P|389:63|358:68,1,60,10|0,2:2|0:0,0:0:0:0:
306,70,104802,1,10,2:2:0:0:
193,111,105118,6,0,P|154:173|174:217,1,120,10|10,2:2|2:2,0:0:0:0:
227,232,105593,1,10,2:2:0:0:
227,232,105751,2,0,P|259:280|242:348,1,120,10|10,2:2|2:2,0:0:0:0:
190,350,106225,1,0,0:0:0:0:
190,350,106383,2,0,P|127:340|52:328,1,120,10|8,2:2|2:2,0:0:0:0:
11,226,107016,2,0,P|8:181|6:155,1,60,8|2,2:2|2:2,0:0:0:0:
30,111,107332,1,10,2:2:0:0:
125,38,107648,6,0,B|176:24|189:69|254:58,1,120,10|8,2:2|2:2,0:0:0:0:
298,42,108123,1,2,2:2:0:0:
298,42,108281,2,0,P|356:60|421:78,1,120,10|8,2:2|2:2,0:0:0:0:
470,58,108755,1,2,2:2:0:0:
470,58,108913,2,0,P|463:99|463:127,1,60,10|2,2:2|2:2,0:0:0:0:
402,223,109388,1,2,2:2:0:0:
402,223,109546,2,0,P|410:271|412:291,1,60,10|2,2:2|2:2,0:0:0:0:
382,334,109862,1,10,2:2:0:0:
266,331,110178,5,10,2:2:0:0:
266,331,110337,2,0,B|214:322|195:342|134:327,1,120,2|0,2:2|0:0,0:0:0:0:
93,302,110811,1,8,2:2:0:0:
37,195,111127,2,0,P|52:156|55:127,1,60,10|2,2:2|2:2,0:0:0:0:
67,82,111443,1,10,2:2:0:0:
67,82,111602,2,0,P|119:104|144:108,1,60,2|8,2:2|2:2,0:0:0:0:
182,100,111918,1,8,2:2:0:0:
268,182,112234,2,0,P|261:225|261:254,1,60,8|8,2:2|2:2,0:0:0:0:
285,295,112550,1,8,2:2:0:0:
285,295,112708,5,0,0:0:0:0:
256,192,113025,12,0,117769,0:0:0:0:
