osu file format v14

[General]
AudioFilename: audio.mp3
AudioLeadIn: 0
PreviewTime: 51750
Countdown: 0
SampleSet: Soft
StackLeniency: 0.7
Mode: 0
LetterboxInBreaks: 0
SkinPreference:Default
WidescreenStoryboard: 1

[Editor]
DistanceSpacing: 1
BeatDivisor: 4
GridSize: 32
TimelineZoom: 2.1

[Metadata]
Title:Dancing in the Streets (Nightcore Mix)
TitleUnicode:Dancing in the Streets (Nightcore Mix)
Artist:ItaloBrothers
ArtistUnicode:ItaloBrothers
Creator:-Cronik
Version:Hard
Source:
Tags:electronic english electrodance electro dance remix hardstyle eurodance handsup techno hands speed sped up ver appetible appe
BeatmapID:3890194
BeatmapSetID:1888909

[Difficulty]
HPDrainRate:4.5
CircleSize:3.5
OverallDifficulty:6
ApproachRate:8
SliderMultiplier:1.4
SliderTickRate:1

[Events]
//Background and Video events
0,0,"95746487_p0.jpg",0,0
//Break Periods
2,62308,71478
//Storyboard Layer 0 (Background)
//Storyboard Layer 1 (Fail)
//Storyboard Layer 2 (Pass)
//Storyboard Layer 3 (Foreground)
//Storyboard Layer 4 (Overlay)
//Storyboard Sound Samples

[TimingPoints]
1387,316.255534471853,4,2,5,60,1,0
11349,-117.647058823529,4,2,5,50,0,0
21627,-111.111111111111,4,2,5,55,0,0
31747,-111.111111111111,4,2,5,65,0,0
41867,-99.9999999999999,4,2,5,80,0,1
62108,-111.111111111111,4,2,5,60,0,0
72228,-117.647058823529,4,2,5,70,0,0
82348,-125,4,2,5,55,0,0
87408,-117.647058823529,4,2,5,60,0,0
89938,-111.111111111111,4,2,5,65,0,0
92468,-142.857142857143,4,2,5,65,0,0
93733,-111.111111111111,4,2,5,65,0,0
94998,-99.9999999999999,4,2,5,80,0,1
112708,-99.9999999999999,4,2,5,60,0,0

[Colours]
Combo1 : 255,255,128
Combo2 : 128,255,255
Combo3 : 255,128,128
Combo4 : 128,255,128
SliderBorder : 99,169,129
SliderTrackOverride : 55,55,55

[HitObjects]
43,331,11349,5,2,2:2:0:0:
43,331,11507,2,0,P|106:333|181:352,1,119.000002269745,6|0,2:2|0:0,0:0:0:0:
253,366,11981,1,2,2:2:0:0:
253,366,12139,2,0,P|327:343|342:284,1,119.000002269745,2|2,2:2|2:2,0:0:0:0:
403,167,12772,6,0,P|372:135|291:88,1,119.000002269745,2|0,2:2|0:0,0:0:0:0:
223,35,13246,1,2,2:2:0:0:
223,35,13404,2,0,P|143:50|109:89,1,119.000002269745,2|2,2:2|2:2,0:0:0:0:
30,160,13879,1,2,2:2:0:0:
30,160,14037,6,0,B|61:150|84:181|69:184|100:205|147:197,1,119.000002269745,2|2,2:2|2:2,0:0:0:0:
219,142,14511,1,2,2:2:0:0:
222,146,14669,2,0,P|281:146|321:211,1,119.000002269745,2|2,2:2|2:2,0:0:0:0:
261,305,15302,5,2,2:2:0:0:
261,305,15460,2,0,P|364:295|392:293,1,119.000002269745,0|0,0:0|0:0,0:0:0:0:
473,231,15934,1,0,0:0:0:0:
401,133,16251,1,2,2:2:0:0:
401,133,16409,1,0,0:0:0:0:
468,54,16567,6,0,B|422:43|422:43|398:51|398:51|335:35,1,119.000002269745,2|0,2:2|0:0,0:0:0:0:
278,0,17041,1,2,2:2:0:0:
278,0,17199,2,0,B|227:9|227:9|215:20|215:20|156:30,1,119.000002269745,2|0,2:2|0:0,0:0:0:0:
81,14,17674,1,2,2:2:0:0:
81,14,17832,1,2,2:2:0:0:
21,78,17990,6,0,P|20:126|91:158,1,119.000002269745,2|2,2:2|2:2,0:0:0:0:
176,134,18464,2,0,P|165:181|146:260,1,119.000002269745,2|2,2:2|2:2,0:0:0:0:
110,347,19097,1,2,2:2:0:0:
110,347,19255,6,0,B|157:338|157:338|176:349|176:349|240:337,1,119.000002269745,2|0,2:2|0:0,0:0:0:0:
306,281,19729,2,0,P|338:294|446:309,1,119.000002269745,0|2,0:0|2:2,0:0:0:0:
501,217,20362,1,2,2:2:0:0:
501,217,20520,6,0,P|510:183|480:88,1,119.000002269745,2|8,2:2|2:2,0:0:0:0:
417,42,20994,2,0,P|375:47|335:51,1,59.5000011348725,8|8,2:2|2:2,0:0:0:0:
357,48,21232,1,8,2:2:0:0:
357,48,21311,1,8,2:2:0:0:
273,24,21469,1,8,2:2:0:0:
318,131,21627,6,0,P|253:127|178:114,1,125.999996154785,12|8,2:2|2:2,0:0:0:0:
117,67,22101,1,0,0:0:0:0:
117,67,22259,2,0,P|106:115|101:140,1,62.9999980773926,8|0,2:2|0:0,0:0:0:0:
24,189,22576,2,0,P|28:227|34:275,1,62.9999980773926,8|0,2:2|0:0,0:0:0:0:
0,350,22892,6,0,P|62:341|138:339,1,125.999996154785,8|8,2:2|2:2,0:0:0:0:
201,296,23366,1,0,0:0:0:0:
201,296,23524,2,0,P|190:252|197:218,2,62.9999980773926,8|0|8,2:2|0:0|2:2,0:0:0:0:
292,326,23999,1,0,0:0:0:0:
349,253,24157,6,0,B|384:239|412:269|399:275|419:304|474:286,1,125.999996154785,8|8,2:2|2:2,0:0:0:0:
511,216,24631,1,0,0:0:0:0:
511,216,24710,1,0,0:0:0:0:
511,216,24789,2,0,P|502:175|497:143,1,62.9999980773926,8|0,2:2|0:0,0:0:0:0:
434,67,25106,2,0,P|429:107|426:141,1,62.9999980773926,8|0,2:2|0:0,0:0:0:0:
325,62,25422,6,0,P|214:79|183:82,1,125.999996154785,8|8,2:2|2:2,0:0:0:0:
60,122,26054,2,0,P|65:72|69:47,2,62.9999980773926,8|0|8,2:2|0:0|2:2,0:0:0:0:
137,230,26687,6,0,B|172:216|200:246|187:252|207:281|262:263,1,125.999996154785,8|8,2:2|2:2,0:0:0:0:
335,304,27161,1,0,0:0:0:0:
335,304,27319,2,0,P|316:227|313:167,1,125.999996154785,8|8,2:2|2:2,0:0:0:0:
277,102,27794,1,0,0:0:0:0:
277,102,27952,6,0,P|297:57|382:35,1,125.999996154785,8|8,2:2|2:2,0:0:0:0:
441,80,28426,1,0,0:0:0:0:
441,80,28505,1,0,0:0:0:0:
441,80,28584,2,0,P|437:130|435:155,1,62.9999980773926,8|0,2:2|0:0,0:0:0:0:
386,213,28901,1,8,2:2:0:0:
386,213,29059,1,0,0:0:0:0:
441,290,29217,5,8,2:2:0:0:
441,290,29375,2,0,B|406:276|378:306|391:312|371:341|316:323,1,125.999996154785,0|0,0:0|0:0,0:0:0:0:
253,263,29849,2,0,P|207:268|183:270,1,62.9999980773926,8|0,2:2|0:0,0:0:0:0:
111,319,30166,1,8,2:2:0:0:
111,319,30324,1,0,0:0:0:0:
35,265,30482,5,8,2:2:0:0:
35,265,30640,2,0,P|14:184|19:124,1,125.999996154785,0|0,0:0|0:0,0:0:0:0:
11,42,31115,2,0,P|51:68|137:88,1,125.999996154785,8|8,2:2|2:2,0:0:0:0:
215,43,31589,1,10,2:2:0:0:
215,43,31747,6,0,P|292:37|361:35,1,125.999996154785,10|8,2:2|2:2,0:0:0:0:
447,39,32221,1,2,2:2:0:0:
447,39,32380,2,0,P|441:81|437:113,1,62.9999980773926,10|0,2:2|0:0,0:0:0:0:
388,178,32696,1,10,2:2:0:0:
447,258,32854,1,0,0:0:0:0:
447,258,32933,1,8,2:2:0:0:
447,258,33012,6,0,B|410:245|381:276|394:283|370:313|326:298,1,125.999996154785,10|8,2:2|2:2,0:0:0:0:
246,245,33486,1,2,2:2:0:0:
246,245,33645,2,0,P|254:293|260:319,1,62.9999980773926,10|0,2:2|0:0,0:0:0:0:
186,355,33961,1,10,2:2:0:0:
104,300,34119,1,2,2:2:0:0:
104,300,34198,1,8,2:2:0:0:
104,300,34277,6,0,P|70:265|100:178,1,125.999996154785,10|10,2:2|2:2,0:0:0:0:
159,153,34751,1,2,2:2:0:0:
159,153,34910,2,0,P|205:165|238:172,1,62.9999980773926,10|0,2:2|0:0,0:0:0:0:
295,119,35226,1,10,2:2:0:0:
341,204,35384,1,0,0:0:0:0:
341,204,35463,1,8,2:2:0:0:
341,204,35542,6,0,P|403:192|491:196,1,125.999996154785,10|8,2:2|2:2,0:0:0:0:
497,108,36016,1,0,0:0:0:0:
497,108,36175,2,0,P|481:58|482:18,1,62.9999980773926,8|2,2:2|2:2,0:0:0:0:
399,22,36491,1,10,2:2:0:0:
304,72,36649,1,0,0:0:0:0:
304,72,36728,1,8,2:2:0:0:
304,72,36807,6,0,B|314:149,2,62.9999980773926,10|8|8,2:2|2:2|2:2,0:0:0:0:
181,35,37282,1,10,2:2:0:0:
107,110,37440,2,0,P|60:103|24:96,2,62.9999980773926,10|8|8,2:2|2:2|2:2,0:0:0:0:
183,184,37914,1,10,2:2:0:0:
109,293,38072,5,10,2:2:0:0:
109,293,38230,2,0,P|164:289|192:287,1,62.9999980773926,10|8,2:2|2:2,0:0:0:0:
273,233,38547,1,10,2:2:0:0:
273,233,38626,1,0,0:0:0:0:
273,233,38705,2,0,P|271:278|284:307,1,62.9999980773926,10|10,2:2|2:2,0:0:0:0:
371,329,39021,1,10,2:2:0:0:
371,329,39179,1,10,2:2:0:0:
428,246,39337,6,0,P|425:213|426:176,1,62.9999980773926,10|10,2:2|2:2,0:0:0:0:
361,114,39653,2,0,P|371:60|369:37,1,62.9999980773926,8|8,2:2|2:2,0:0:0:0:
285,15,39970,2,0,L|227:26,3,31.4999990386963,8|8|8|8,2:2|2:2|2:2|2:2,0:0:0:0:
203,13,40286,2,0,L|151:32,3,31.4999990386963,10|8|10|8,2:2|2:2|2:2|2:2,0:0:0:0:
146,56,40602,5,2,1:2:0:0:
64,361,41867,6,0,P|51:303|45:203,1,140,12|8,2:2|2:2,0:0:0:0:
93,151,42342,1,0,0:0:0:0:
161,218,42500,2,0,P|203:215|242:215,1,70,8|0,2:2|0:0,0:0:0:0:
295,146,42816,2,0,P|354:154|379:158,1,70,8|0,2:2|0:0,0:0:0:0:
461,243,43132,6,0,P|448:190|445:90,1,140,8|8,2:2|2:2,0:0:0:0:
377,40,43607,1,0,0:0:0:0:
286,76,43765,2,0,P|221:68|191:69,1,70,8|0,2:2|0:0,0:0:0:0:
151,4,44081,1,8,2:2:0:0:
94,83,44239,1,0,0:0:0:0:
6,25,44397,6,0,P|12:81|19:175,1,140,8|8,2:2|2:2,0:0:0:0:
82,247,44872,1,0,0:0:0:0:
82,247,44951,1,0,0:0:0:0:
82,247,45030,2,0,P|128:242|155:239,1,70,8|0,2:2|0:0,0:0:0:0:
238,178,45346,2,0,P|242:224|245:265,1,70,8|0,2:2|0:0,0:0:0:0:
329,310,45662,6,0,P|378:290|421:212,1,140,8|8,2:2|2:2,0:0:0:0:
449,130,46137,2,0,P|433:93|427:59,1,70,0|8,0:0|2:2,0:0:0:0:
319,72,46453,1,8,2:2:0:0:
257,6,46611,1,8,2:2:0:0:
84,24,46927,6,0,B|54:62|54:62|74:172,1,140,8|8,2:2|2:2,0:0:0:0:
46,246,47402,1,0,0:0:0:0:
138,265,47560,2,0,P|208:254|285:248,1,140,8|8,2:2|2:2,0:0:0:0:
364,278,48034,1,0,0:0:0:0:
461,198,48192,6,0,P|448:263|442:356,1,140,8|8,2:2|2:2,0:0:0:0:
355,377,48667,1,0,0:0:0:0:
355,377,48746,1,0,0:0:0:0:
355,377,48825,2,0,P|312:370|275:368,1,70,8|0,2:2|0:0,0:0:0:0:
222,292,49141,2,0,P|175:298|137:300,1,70,8|0,2:2|0:0,0:0:0:0:
65,358,49457,5,8,2:2:0:0:
4,299,49615,2,0,P|0:227|12:143,1,140,0|0,0:0|0:0,0:0:0:0:
13,63,50090,2,0,P|55:75|99:85,1,70,8|0,2:2|0:0,0:0:0:0:
168,135,50406,1,8,2:2:0:0:
168,135,50564,1,0,0:0:0:0:
261,75,50722,5,8,2:2:0:0:
332,151,50881,2,0,P|328:185|321:219,1,70,0|8,0:0|2:2,0:0:0:0:
243,282,51197,1,8,2:2:0:0:
334,339,51355,5,0,1:1:0:0:
334,339,51434,1,0,1:1:0:0:
334,339,51513,2,0,P|391:332|417:331,1,70,0|0,1:1|1:1,0:0:0:0:
507,346,51829,1,2,2:2:0:0:
469,255,51987,6,0,P|478:188|488:107,1,140,14|8,2:2|2:2,0:0:0:0:
426,33,52462,1,2,2:2:0:0:
344,89,52620,2,0,P|352:137|356:176,1,70,10|0,2:2|0:0,0:0:0:0:
265,259,52936,2,0,P|323:240|348:238,1,70,10|0,2:2|0:0,0:0:0:0:
412,307,53252,6,0,P|382:355|281:338,1,140,10|8,2:2|2:2,0:0:0:0:
215,323,53727,1,2,2:2:0:0:
124,366,53885,2,0,P|134:315|138:283,1,70,10|0,2:2|0:0,0:0:0:0:
60,239,54201,2,0,P|52:197|46:147,1,70,10|2,2:2|2:2,0:0:0:0:
94,85,54517,6,0,B|144:75|144:75|168:94|168:94|236:84,1,140,10|10,2:2|2:2,0:0:0:0:
335,39,54992,1,2,2:2:0:0:
335,39,55071,1,0,0:0:0:0:
335,39,55150,2,0,P|321:92|319:122,1,70,10|0,2:2|0:0,0:0:0:0:
267,185,55466,2,0,P|275:228|278:270,1,70,10|0,2:2|0:0,0:0:0:0:
236,356,55782,6,0,B|289:345|289:345|321:359|321:359|388:345,1,140,10|8,2:2|2:2,0:0:0:0:
465,356,56257,1,0,0:0:0:0:
498,274,56415,2,0,P|488:226|491:187,1,70,8|10,2:2|2:2,0:0:0:0:
424,141,56731,1,10,2:2:0:0:
396,22,57047,6,0,P|343:17|248:11,1,140,10|8,2:2|2:2,0:0:0:0:
174,68,57522,1,2,2:2:0:0:
91,21,57680,2,0,P|31:42|51:127,1,140,10|8,2:2|2:2,0:0:0:0:
115,141,58154,1,2,2:2:0:0:
49,209,58312,5,10,2:2:0:0:
113,264,58471,2,0,P|154:256|208:252,1,70,2|8,2:2|2:2,0:0:0:0:
256,191,58787,1,2,2:2:0:0:
256,191,58866,1,0,0:0:0:0:
256,191,58945,2,0,P|302:203|337:208,1,70,10|2,2:2|2:2,0:0:0:0:
417,156,59261,2,0,P|406:201|405:231,1,70,10|2,2:2|2:2,0:0:0:0:
448,303,59578,5,10,2:2:0:0:
381,355,59736,2,0,P|340:349|221:339,1,140,2|0,2:2|0:0,0:0:0:0:
174,248,60210,2,0,P|150:285|148:318,1,70,8|0,2:2|0:0,0:0:0:0:
57,352,60526,1,10,2:2:0:0:
57,352,60684,1,2,2:2:0:0:
21,256,60843,6,0,P|16:206|7:173,1,70,10|2,2:2|2:2,0:0:0:0:
0,97,61159,1,8,2:2:0:0:
74,42,61317,1,8,2:2:0:0:
194,136,61633,5,12,2:2:0:0:
333,19,62108,5,0,1:2:0:0:
22,34,72228,6,0,P|132:57|154:59,1,119.000002269745,4|8,1:2|2:2,0:0:0:0:
250,32,72702,1,0,0:0:0:0:
250,32,72860,2,0,P|224:74|232:108,1,59.5000011348725,0|2,1:1|2:2,0:0:0:0:
280,153,73177,2,0,P|321:150|366:148,1,59.5000011348725,10|2,2:2|2:2,0:0:0:0:
406,75,73493,6,0,P|451:105|456:188,1,119.000002269745,0|8,1:1|2:2,0:0:0:0:
392,219,73967,1,2,2:2:0:0:
392,219,74125,2,0,P|399:264|401:286,1,59.5000011348725,0|2,1:1|2:2,0:0:0:0:
458,360,74442,2,0,P|418:358|394:357,1,59.5000011348725,8|0,2:2|0:0,0:0:0:0:
317,305,74758,6,0,P|254:313|184:318,1,119.000002269745,0|8,1:1|2:2,0:0:0:0:
119,360,75232,1,2,2:2:0:0:
119,360,75390,2,0,P|112:321|108:289,1,59.5000011348725,2|2,1:2|2:2,0:0:0:0:
45,238,75707,1,10,2:2:0:0:
45,238,75865,6,0,P|45:175|71:110,1,119.000002269745,2|2,2:2|2:2,0:0:0:0:
136,64,76339,1,8,2:2:0:0:
136,64,76497,2,0,P|196:86|256:83,1,119.000002269745,2|2,2:2|2:2,0:0:0:0:
326,38,76972,1,8,2:2:0:0:
326,38,77130,1,2,2:2:0:0:
398,87,77288,6,0,P|408:125|350:178,1,119.000002269745,2|8,1:2|2:2,0:0:0:0:
269,159,77762,2,0,P|281:219|282:294,1,119.000002269745,2|0,2:2|0:0,0:0:0:0:
208,325,78237,1,10,2:2:0:0:
208,325,78395,1,0,0:0:0:0:
286,372,78553,1,0,1:1:0:0:
286,372,78711,6,0,P|371:353|424:349,1,119.000002269745,2|0,2:2|0:0,0:0:0:0:
490,369,79185,2,0,P|481:336|478:303,1,59.5000011348725,2|2,1:2|2:2,0:0:0:0:
404,259,79502,2,0,P|409:211|415:187,1,59.5000011348725,10|0,2:2|0:0,0:0:0:0:
476,126,79818,6,0,B|426:119|426:119|411:127|411:127|345:118,1,119.000002269745,2|8,1:2|2:2,0:0:0:0:
280,67,80292,1,2,2:2:0:0:
280,67,80450,2,0,P|240:71|214:77,1,59.5000011348725,0|0,1:1|0:0,0:0:0:0:
150,20,80767,2,0,P|119:32|89:46,1,59.5000011348725,10|0,2:2|0:0,0:0:0:0:
14,107,81083,6,0,P|15:173|74:192,1,119.000002269745,2|8,1:2|2:2,0:0:0:0:
145,157,81557,1,2,2:2:0:0:
145,157,81715,2,0,P|179:168|219:172,1,59.5000011348725,2|2,1:2|2:2,0:0:0:0:
305,136,82032,2,0,P|282:193|281:211,1,59.5000011348725,10|0,2:2|0:0,0:0:0:0:
249,272,82348,6,0,P|304:265|381:262,1,112,14|8,2:2|2:2,0:0:0:0:
443,303,82822,1,2,2:2:0:0:
443,303,82980,2,0,P|480:235|472:183,1,112,10|10,2:2|2:2,0:0:0:0:
491,110,83455,1,0,0:0:0:0:
491,110,83534,1,8,2:2:0:0:
491,110,83613,6,0,B|422:100|451:140|373:130,1,112,10|8,2:2|2:2,0:0:0:0:
307,78,84087,1,2,2:2:0:0:
307,78,84245,2,0,P|265:88|236:95,1,56,10|0,2:2|0:0,0:0:0:0:
179,57,84562,1,10,2:2:0:0:
118,117,84720,1,2,2:2:0:0:
118,117,84799,1,8,2:2:0:0:
118,117,84878,6,0,P|126:174|124:243,1,112,10|10,2:2|2:2,0:0:0:0:
85,304,85351,1,2,2:2:0:0:
85,304,85510,2,0,P|119:320|144:327,1,56,10|0,2:2|0:0,0:0:0:0:
218,353,85827,1,10,2:2:0:0:
290,303,85985,1,0,0:0:0:0:
290,303,86064,1,8,2:2:0:0:
290,303,86143,6,0,B|316:293|347:311|331:314|354:341|409:324,1,112,10|8,2:2|2:2,0:0:0:0:
472,286,86617,1,0,0:0:0:0:
472,286,86775,2,0,P|465:244|460:218,1,56,8|2,2:2|2:2,0:0:0:0:
392,178,87092,2,0,P|398:142|401:107,1,56,10|0,2:2|0:0,0:0:0:0:
469,60,87408,6,0,P|423:51|397:46,1,59.5000011348725,10|8,2:2|2:2,0:0:0:0:
326,12,87724,2,0,P|274:23|250:26,1,59.5000011348725,8|10,2:2|2:2,0:0:0:0:
197,74,88041,1,10,2:2:0:0:
197,74,88199,1,8,2:2:0:0:
123,32,88357,2,0,P|82:47|58:54,1,59.5000011348725,8|10,2:2|2:2,0:0:0:0:
11,117,88673,5,10,2:2:0:0:
11,117,88831,2,0,P|0:173|66:217,1,119.000002269745,10|10,2:2|2:2,0:0:0:0:
121,172,89306,2,0,P|165:171|192:167,1,59.5000011348725,10|10,2:2|2:2,0:0:0:0:
258,223,89622,2,0,P|296:228|329:239,1,59.5000011348725,10|10,2:2|2:2,0:0:0:0:
397,304,89938,5,10,2:2:0:0:
420,284,90017,1,8,2:2:0:0:
431,254,90096,1,10,2:2:0:0:
432,219,90175,1,8,2:2:0:0:
421,178,90254,2,0,P|410:124|405:100,1,62.9999980773926,8|8,2:2|2:2,0:0:0:0:
348,60,90571,2,0,P|300:69|264:77,1,62.9999980773926,8|8,2:2|2:2,0:0:0:0:
201,47,90887,1,10,2:2:0:0:
201,47,91045,1,10,2:2:0:0:
131,107,91203,5,14,2:2:0:0:
117,130,91282,1,8,2:2:0:0:
121,162,91361,1,10,2:2:0:0:
145,182,91440,1,8,2:2:0:0:
182,187,91519,2,0,L|218:182,3,31.4999990386963,8|8|8|8,2:2|2:2|2:2|2:2,0:0:0:0:
245,155,91836,2,0,L|292:161,3,31.4999990386963,8|8|8|8,2:2|2:2|2:2|2:2,0:0:0:0:
316,142,92152,2,0,L|371:157,3,31.4999990386963,8|8|8|8,2:2|2:2|2:2|2:2,0:0:0:0:
384,137,92468,5,0,1:2:0:0:
481,344,93733,6,0,P|386:327|327:324,1,125.999996154785,0|8,1:2|0:0,0:0:0:0:
280,351,94207,1,8,2:2:0:0:
280,351,94287,1,8,2:2:0:0:
280,351,94366,1,8,2:2:0:0:
199,301,94524,1,8,2:2:0:0:
120,353,94682,2,0,P|88:336|70:308,1,62.9999980773926,12|0,2:2|0:0,0:0:0:0:
5,252,94998,6,0,P|26:199|34:109,1,140,12|8,2:2|2:2,0:0:0:0:
122,76,95473,1,8,2:2:0:0:
122,76,95552,1,8,2:2:0:0:
122,76,95631,2,0,P|186:70|219:71,1,70,8|0,2:2|0:0,0:0:0:0:
271,19,95947,2,0,P|333:42|357:46,1,70,8|0,2:2|0:0,0:0:0:0:
452,35,96263,6,0,P|442:94|433:186,1,140,8|8,2:2|2:2,0:0:0:0:
504,269,96738,2,0,P|469:273|435:282,1,70,0|8,0:0|2:2,0:0:0:0:
337,269,97054,1,8,2:2:0:0:
281,350,97212,1,8,2:2:0:0:
125,357,97528,6,0,P|85:336|86:241,1,140,8|8,2:2|2:2,0:0:0:0:
140,179,98003,1,0,0:0:0:0:
225,210,98161,2,0,B|303:185|280:250|370:217,1,140,8|8,2:2|2:2,0:0:0:0:
440,241,98635,1,0,0:0:0:0:
507,171,98793,6,0,P|482:89|470:24,1,140,8|8,2:2|2:2,0:0:0:0:
373,96,99268,1,0,0:0:0:0:
373,96,99347,1,0,0:0:0:0:
373,96,99426,2,0,P|308:89|287:86,1,70,8|0,2:2|0:0,0:0:0:0:
234,31,99742,2,0,P|191:40|156:42,1,70,8|0,2:2|0:0,0:0:0:0:
74,28,100058,1,8,2:2:0:0:
15,104,100216,6,0,P|11:158|103:186,1,140,0|0,0:0|0:0,0:0:0:0:
156,140,100691,2,0,P|211:147|241:152,1,70,8|0,2:2|0:0,0:0:0:0:
303,88,101007,2,0,P|341:99|381:113,1,70,8|0,2:2|0:0,0:0:0:0:
433,181,101323,6,0,P|421:234|417:264,1,70,8|0,2:2|0:0,0:0:0:0:
415,340,101640,1,8,2:2:0:0:
344,281,101798,1,8,2:2:0:0:
272,345,101956,1,0,1:1:0:0:
272,345,102035,1,0,1:1:0:0:
272,345,102114,1,8,2:2:0:0:
191,295,102272,2,0,P|151:302|104:303,1,70,0|2,1:1|2:2,0:0:0:0:
24,347,102588,6,0,P|37:287|46:199,1,140,14|8,2:2|2:2,0:0:0:0:
6,124,103063,1,2,2:2:0:0:
85,66,103221,2,0,B|162:46|131:108|223:81,1,140,10|10,2:2|2:2,0:0:0:0:
304,32,103695,1,0,0:0:0:0:
363,105,103853,6,0,P|344:158|335:251,1,140,10|8,2:2|2:2,0:0:0:0:
263,303,104328,1,2,2:2:0:0:
337,353,104486,2,0,P|376:345|426:336,1,70,10|0,2:2|0:0,0:0:0:0:
506,377,104802,2,0,P|495:328|492:293,1,70,10|2,2:2|2:2,0:0:0:0:
433,225,105118,6,0,P|448:159|446:82,1,140,10|10,2:2|2:2,0:0:0:0:
370,29,105593,1,10,2:2:0:0:
301,95,105751,2,0,P|226:88|213:87,1,70,10|0,2:2|0:0,0:0:0:0:
129,20,106067,2,0,P|136:74|141:110,1,70,10|0,2:2|0:0,0:0:0:0:
79,167,106383,6,0,P|113:220|193:217,1,140,10|8,2:2|2:2,0:0:0:0:
264,161,106858,1,0,0:0:0:0:
327,231,107016,2,0,P|370:219|400:215,1,70,8|2,2:2|2:2,0:0:0:0:
474,257,107332,1,10,2:2:0:0:
433,111,107648,6,0,P|319:83|272:74,1,140,10|8,2:2|2:2,0:0:0:0:
222,27,108123,1,2,2:2:0:0:
152,78,108281,2,0,P|162:163|171:237,1,140,10|8,2:2|2:2,0:0:0:0:
230,273,108755,1,2,2:2:0:0:
167,336,108913,5,10,2:2:0:0:
82,296,109072,2,0,P|76:237|66:131,1,140,2|2,2:2|2:2,0:0:0:0:
6,86,109546,1,10,2:2:0:0:
66,21,109704,1,2,2:2:0:0:
143,70,109862,2,0,P|182:67|225:62,1,70,10|2,2:2|2:2,0:0:0:0:
295,18,110178,5,10,2:2:0:0:
360,71,110337,2,0,P|387:124|323:187,1,140,2|0,2:2|0:0,0:0:0:0:
261,149,110811,1,8,2:2:0:0:
211,216,110969,1,0,0:0:0:0:
275,274,111127,2,0,P|345:268|370:266,1,70,10|2,2:2|2:2,0:0:0:0:
430,309,111443,5,10,2:2:0:0:
487,232,111602,2,0,P|481:180|482:155,1,70,2|8,2:2|2:2,0:0:0:0:
426,85,111918,1,8,2:2:0:0:
354,149,112076,5,4,1:2:0:0:
354,149,112155,1,0,1:1:0:0:
354,149,112234,1,8,2:2:0:0:
270,95,112392,2,0,P|216:86|190:80,1,70,8|8,2:2|2:2,0:0:0:0:
107,129,112708,5,0,0:0:0:0:
