osu file format v14

[General]
AudioFilename: audio.mp3
AudioLeadIn: 0
PreviewTime: 51750
Countdown: 0
SampleSet: Soft
StackLeniency: 0.7
Mode: 0
LetterboxInBreaks: 0
SkinPreference:Default
WidescreenStoryboard: 1

[Editor]
Bookmarks: 11190
DistanceSpacing: 1.4
BeatDivisor: 4
GridSize: 4
TimelineZoom: 2.1

[Metadata]
Title:Dancing in the Streets (Nightcore Mix)
TitleUnicode:Dancing in the Streets (Nightcore Mix)
Artist:ItaloBrothers
ArtistUnicode:ItaloBrothers
Creator:-Cronik
Version:Appe's Insane
Source:
Tags:electronic english electrodance electro dance remix hardstyle eurodance handsup techno hands speed sped up ver appetible appe
BeatmapID:3922625
BeatmapSetID:1888909

[Difficulty]
HPDrainRate:6
CircleSize:4
OverallDifficulty:7.5
ApproachRate:8.8
SliderMultiplier:1.75
SliderTickRate:2

[Events]
//Background and Video events
0,0,"95746487_p0.jpg",0,0
//Break Periods
2,62308,71599
//Storyboard Layer 0 (Background)
//Storyboard Layer 1 (Fail)
//Storyboard Layer 2 (Pass)
//Storyboard Layer 3 (Foreground)
//Storyboard Layer 4 (Overlay)
//Storyboard Sound Samples

[TimingPoints]
1387,316.255534471853,4,2,5,60,1,0
1387,-142.857142857143,4,2,5,60,0,0
11349,-142.857142857143,4,2,5,50,0,0
21627,-125,4,2,5,55,0,0
31747,-111.111111111111,4,2,5,65,0,0
41867,-100,4,2,5,80,0,1
51987,-100,4,2,5,80,0,1
62108,-111.111111111111,4,2,5,60,0,0
72228,-111.111111111111,4,2,5,70,0,0
82032,-133.333333333333,4,2,5,70,0,0
82348,-142.857142857143,4,2,5,55,0,0
87408,-125,4,2,5,60,0,0
89938,-125,4,2,5,65,0,0
92468,-166.666666666667,4,2,5,65,0,0
93733,-111.111111111111,4,2,5,65,0,0
94998,-100,4,2,5,80,0,1
102588,-100,4,2,5,80,0,1
112708,-142.857142857143,4,2,5,60,0,0

[Colours]
Combo1 : 255,255,128
Combo2 : 128,255,255
Combo3 : 255,128,128
Combo4 : 128,255,128
SliderBorder : 99,169,129
SliderTrackOverride : 55,55,55

[HitObjects]
80,192,11349,5,2,2:2:0:0:
80,106,11507,2,0,B|121:106|121:106|163:106|186:63,1,122.499996261597,6|0,2:2|0:0,0:0:0:0:
256,16,11981,1,2,2:2:0:0:
326,63,12139,2,0,L|326:124,1,61.2499981307984,2|0,2:2|0:0,0:0:0:0:
411,62,12455,2,0,L|411:124,1,61.2499981307984,2|0,2:2|0:0,0:0:0:0:
497,62,12772,2,0,L|497:124,1,61.2499981307984,2|0,2:2|0:0,0:0:0:0:
497,295,13246,5,2,2:2:0:0:
436,355,13404,2,0,B|404:355|404:355|383:375,2,61.2499981307984,2|0|2,2:2|0:0|2:2,0:0:0:0:
497,295,13879,1,2,2:2:0:0:
436,234,14037,2,0,L|321:192,1,122.499996261597,2|2,2:2|2:2,0:0:0:0:
256,136,14511,1,2,2:2:0:0:
191,192,14669,2,0,L|191:253,1,61.2499981307984,2|0,2:2|0:0,0:0:0:0:
105,191,14985,2,0,L|105:253,1,61.2499981307984,2|0,2:2|0:0,0:0:0:0:
18,191,15302,2,0,L|18:253,1,61.2499981307984,2|0,2:2|0:0,0:0:0:0:
256,8,16092,5,2,2:2:0:0:
227,92,16251,2,0,B|256:101|256:101|284:92,1,61.2499981307984,2|0,2:2|0:0,0:0:0:0:
371,92,16567,2,0,B|407:92|407:92|452:92|476:136,1,122.499996261597,2|0,2:2|0:0,0:0:0:0:
411,192,17041,1,2,2:2:0:0:
476,247,17199,2,0,B|452:292|407:292|407:292|371:292,1,122.499996261597,2|0,2:2|0:0,0:0:0:0:
310,352,17674,1,2,2:2:0:0:
249,291,17832,1,2,2:2:0:0:
309,230,17990,1,2,2:2:0:0:
256,68,18306,5,2,2:2:0:0:
170,68,18464,2,0,B|140:68|140:68|113:84,1,61.2499981307984,2|2,2:2|2:2,0:0:0:0:
79,163,18781,2,0,B|70:192|70:192|79:220,1,61.2499981307984,2|2,2:2|2:2,0:0:0:0:
113,299,19097,2,0,B|140:316|140:316|170:316,1,61.2499981307984,2|2,2:2|2:2,0:0:0:0:
342,68,20046,6,0,B|372:68|372:68|399:85,1,61.2499981307984,2|2,2:2|2:2,0:0:0:0:
453,150,20362,2,0,P|469:192|453:234,2,91.8749971961976,2|0|8,2:2|0:0|2:2,0:0:0:0:
379,192,20994,1,8,2:2:0:0:
363,192,21073,1,8,2:2:0:0:
348,192,21152,1,8,2:2:0:0:
333,192,21231,1,8,2:2:0:0:
317,192,21310,1,8,2:2:0:0:
302,192,21389,1,8,2:2:0:0:
287,192,21468,1,8,2:2:0:0:
271,192,21547,1,8,2:2:0:0:
256,192,21627,6,0,L|116:192,1,140,12|8,2:2|2:2,0:0:0:0:
46,133,22101,1,0,0:0:0:0:
116,75,22259,2,0,B|128:42|128:42|116:10,1,70,8|0,2:2|0:0,0:0:0:0:
207,73,22576,2,0,B|219:41|219:41|207:9,1,70,8|0,2:2|0:0,0:0:0:0:
297,74,22892,6,0,L|440:74,1,140,8|8,2:2|2:2,0:0:0:0:
505,134,23366,1,0,0:0:0:0:
436,192,23524,1,8,2:2:0:0:
505,250,23683,1,0,0:0:0:0:
436,308,23841,2,0,L|436:380,1,70,8|0,2:2|0:0,0:0:0:0:
345,378,24157,6,0,P|300:333|256:378,1,140,8|8,2:2|2:2,0:0:0:0:
191,313,24631,1,0,0:0:0:0:
191,313,24710,1,0,0:0:0:0:
191,313,24789,2,0,P|146:357|101:313,2,140,8|8|8,2:2|2:2|2:2,0:0:0:0:
328,192,25738,1,8,2:2:0:0:
191,71,26054,1,8,2:2:0:0:
126,135,26213,1,0,0:0:0:0:
190,70,26371,2,0,P|225:71|256:55,1,70,8|0,2:2|0:0,0:0:0:0:
320,119,26687,6,0,B|360:119|379:89|379:89|398:119|439:119,1,140,8|8,2:2|2:2,0:0:0:0:
503,192,27161,1,0,0:0:0:0:
439,265,27319,2,0,B|398:265|379:294|379:294|360:265|320:265,1,140,8|8,2:2|2:2,0:0:0:0:
256,192,27794,1,0,0:0:0:0:
192,264,27952,1,8,2:2:0:0:
256,338,28110,1,0,0:0:0:0:
74,338,28426,5,0,0:0:0:0:
74,338,28505,1,0,0:0:0:0:
74,338,28584,2,0,L|74:269,1,70,8|0,2:2|0:0,0:0:0:0:
9,203,28901,2,0,L|9:134,1,70,8|0,2:2|0:0,0:0:0:0:
73,68,29217,1,8,2:2:0:0:
137,132,29375,1,0,0:0:0:0:
503,203,30166,6,0,L|503:134,1,70,8|0,2:2|0:0,0:0:0:0:
439,68,30482,1,8,2:2:0:0:
375,132,30640,1,0,0:0:0:0:
255,191,31747,6,0,P|289:259|255:327,1,157.499995193482,10|8,2:2|2:2,0:0:0:0:
109,254,32221,1,2,2:2:0:0:
109,254,32380,2,0,P|145:241|182:254,1,78.7499975967408,10|0,2:2|0:0,0:0:0:0:
256,191,32696,1,10,2:2:0:0:
181,130,32854,5,0,0:0:0:0:
181,130,32933,1,8,2:2:0:0:
181,130,33012,2,0,P|145:143|109:130,1,78.7499975967408,10|0,2:2|0:0,0:0:0:0:
28,192,33328,1,8,2:2:0:0:
109,254,33486,1,2,2:2:0:0:
28,316,33645,2,0,L|75:378,2,78.7499975967408,10|0|10,2:2|0:0|2:2,0:0:0:0:
109,254,34119,5,2,2:2:0:0:
109,254,34198,1,8,2:2:0:0:
109,254,34277,2,0,B|146:229|183:249|183:254|183:257|221:278|258:254,1,157.499995193482,10|10,2:2|2:2,0:0:0:0:
330,326,34751,1,2,2:2:0:0:
471,253,34910,2,0,B|453:240|453:240|419:240|419:240|402:253,1,78.7499975967408,10|0,2:2|0:0,0:0:0:0:
328,181,35226,1,10,2:2:0:0:
400,108,35384,5,0,0:0:0:0:
400,108,35463,1,8,2:2:0:0:
400,108,35542,2,0,B|417:120|417:120|451:120|451:120|469:108,1,78.7499975967408,10|0,2:2|0:0,0:0:0:0:
328,181,35858,2,0,B|310:168|310:168|276:168|276:168|258:181,1,78.7499975967408,8|0,2:2|0:0,0:0:0:0:
400,253,36175,1,8,2:2:0:0:
328,325,36333,1,2,2:2:0:0:
400,253,36491,2,0,B|417:265|417:265|451:265|451:265|469:253,1,78.7499975967408,10|0,2:2|0:0,0:0:0:0:
328,325,36807,5,10,2:2:0:0:
328,325,36965,1,8,2:2:0:0:
184,325,37123,5,8,2:2:0:0:
184,325,37281,1,10,2:2:0:0:
184,181,37440,5,10,2:2:0:0:
184,181,37598,1,8,2:2:0:0:
328,181,37756,5,8,2:2:0:0:
328,181,37914,1,10,2:2:0:0:
338,335,38072,5,10,2:2:0:0:
338,335,38230,1,10,2:2:0:0:
173,335,38388,5,8,2:2:0:0:
173,335,38546,1,10,2:2:0:0:
173,170,38705,5,10,2:2:0:0:
173,170,38863,1,10,2:2:0:0:
338,170,39021,5,10,2:2:0:0:
338,170,39179,1,10,2:2:0:0:
346,343,39337,6,0,L|386:343,3,39.3749987983704,10|8|10|8,2:2|2:2|2:2|2:2,0:0:0:0:
300,267,39653,2,0,L|333:245,3,39.3749987983704,8|8|8|8,2:2|2:2|2:2|2:2,0:0:0:0:
212,267,39970,2,0,L|178:245,3,39.3749987983704,8|8|8|8,2:2|2:2|2:2|2:2,0:0:0:0:
165,343,40286,2,0,L|126:343,3,39.3749987983704,10|8|10|8,2:2|2:2|2:2|2:2,0:0:0:0:
256,192,40602,6,0,L|256:34,1,157.499995193482,2|8,1:2|2:2,0:0:0:0:
345,85,41077,1,8,2:2:0:0:
167,85,41235,1,0,1:1:0:0:
151,109,41314,1,0,1:1:0:0:
146,138,41393,1,0,1:1:0:0:
151,167,41472,1,0,0:0:0:0:
167,192,41551,2,0,P|180:228|166:264,1,78.7499975967408,8|0,2:2|1:1,0:0:0:0:
256,354,41867,6,0,B|297:326|339:349|339:354|339:358|380:381|422:354,1,175,12|8,2:2|2:2,0:0:0:0:
512,273,42342,1,0,0:0:0:0:
421,109,42500,2,0,B|407:150|407:150|421:191,1,87.5,8|0,2:2|0:0,0:0:0:0:
511,109,42816,2,0,B|525:68|525:68|511:27,1,87.5,8|0,2:2|0:0,0:0:0:0:
331,109,43132,6,0,P|256:71|181:109,1,175,8|8,2:2|2:2,0:0:0:0:
88,192,43607,1,0,0:0:0:0:
180,275,43765,1,8,2:2:0:0:
88,109,43923,1,0,0:0:0:0:
180,192,44081,1,8,2:2:0:0:
88,275,44239,1,0,0:0:0:0:
180,358,44397,6,0,B|256:358|256:358|276:307|325:292,1,175,8|8,2:2|2:2,0:0:0:0:
397,192,44872,1,0,0:0:0:0:
397,192,44951,1,0,0:0:0:0:
397,192,45030,2,0,L|484:192,1,87.5,8|0,2:2|0:0,0:0:0:0:
325,92,45346,2,0,L|237:92,1,87.5,8|0,2:2|0:0,0:0:0:0:
397,192,45662,6,0,B|430:273|430:273|397:353,2,175,8|8|8,2:2|2:2|2:2,0:0:0:0:
256,352,46453,1,8,2:2:0:0:
296,191,46611,2,0,P|255:176|215:191,1,87.5,8|0,2:2|0:0,0:0:0:0:
397,192,46927,6,0,B|423:150|393:95|340:95|340:95|302:95,1,175,8|8,2:2|2:2,0:0:0:0:
115,192,47402,1,0,0:0:0:0:
324,260,47560,2,0,B|281:278|256:312|256:312|230:278|187:260,1,175,8|8,2:2|2:2,0:0:0:0:
397,192,48034,1,0,0:0:0:0:
256,27,48192,6,0,B|256:101|256:101|252:109|252:109|259:109|259:109|256:117|256:117|256:191,1,175,8|8,2:2|2:2,0:0:0:0:
350,27,48667,1,0,0:0:0:0:
350,27,48746,1,0,0:0:0:0:
350,27,48825,2,0,L|350:114,1,87.5,8|0,2:2|0:0,0:0:0:0:
256,279,49141,2,0,L|256:192,1,87.5,8|0,2:2|0:0,0:0:0:0:
169,104,49457,5,8,2:2:0:0:
84,192,49615,1,0,0:0:0:0:
169,104,49774,2,0,P|128:89|88:104,1,87.5,8|0,2:2|0:0,0:0:0:0:
256,27,50090,2,0,P|296:41|336:26,1,87.5,8|0,2:2|0:0,0:0:0:0:
426,110,50406,1,8,2:2:0:0:
335,192,50564,1,0,0:0:0:0:
426,274,50722,6,0,P|467:261|508:273,1,87.5,8|0,2:2|0:0,0:0:0:0:
335,192,51039,1,8,2:2:0:0:
426,110,51197,1,8,2:2:0:0:
426,110,51276,1,0,0:0:0:0:
426,110,51355,2,0,L|469:110,3,43.75,0|0|0|0,1:1|1:1|1:1|0:0,0:0:0:0:
335,192,51671,6,0,L|291:192,1,43.75,0|0,1:1|0:0,0:0:0:0:
426,274,51829,1,2,2:2:0:0:
335,356,51987,6,0,B|256:356|256:356|192:283,1,175,14|8,2:2|2:2,0:0:0:0:
109,192,52462,1,2,2:2:0:0:
192,100,52620,2,0,B|280:100,1,87.5,10|0,2:2|0:0,0:0:0:0:
361,192,52936,1,10,2:2:0:0:
280,283,53094,1,0,0:0:0:0:
361,375,53252,6,0,B|361:308|424:277|424:277|470:255,1,175,10|8,2:2|2:2,0:0:0:0:
470,129,53727,1,2,2:2:0:0:
322,192,53885,2,0,P|362:205|403:191,1,87.5,10|0,2:2|0:0,0:0:0:0:
256,128,54201,1,10,2:2:0:0:
403,64,54359,1,2,2:2:0:0:
256,0,54517,6,0,B|179:0|179:0|164:15|164:15|88:15,1,175,10|10,2:2|2:2,0:0:0:0:
0,102,54992,1,2,2:2:0:0:
0,102,55071,1,0,0:0:0:0:
0,102,55150,2,0,B|43:102|43:102|77:135,1,87.5,10|0,2:2|0:0,0:0:0:0:
0,282,55466,2,0,B|43:282|43:282|77:249,1,87.5,10|0,2:2|0:0,0:0:0:0:
162,132,55782,6,0,P|215:192|162:252,2,175,10|8|8,2:2|2:2|2:2,0:0:0:0:
256,52,56573,1,10,2:2:0:0:
351,132,56731,2,0,B|383:132|383:132|391:140|391:140|399:132|399:132|431:132,1,87.5,10|0,2:2|0:0,0:0:0:0:
351,252,57047,6,0,B|387:252|412:264|424:288|424:288|412:313|387:325|351:325,1,175,10|8,2:2|2:2,0:0:0:0:
256,132,57522,1,2,2:2:0:0:
161,325,57680,2,0,B|124:325|99:313|87:288|87:288|99:264|124:252|161:252,1,175,10|8,2:2|2:2,0:0:0:0:
350,325,58154,1,2,2:2:0:0:
256,192,58312,5,10,2:2:0:0:
350,59,58471,2,0,B|395:59|395:59|433:86,1,87.5,2|8,2:2|2:2,0:0:0:0:
487,192,58787,1,2,2:2:0:0:
487,192,58866,1,0,0:0:0:0:
487,192,58945,2,0,L|486:279,1,87.5,10|2,2:2|2:2,0:0:0:0:
399,365,59261,1,10,2:2:0:0:
312,279,59419,1,2,2:2:0:0:
399,192,59578,5,10,2:2:0:0:
312,279,59736,1,2,2:2:0:0:
399,192,59894,2,0,B|399:160|399:160|407:152|407:152|399:144|399:144|399:112,1,87.5,8|0,2:2|0:0,0:0:0:0:
276,31,60210,2,0,B|276:63|276:63|268:71|268:71|276:79|276:79|276:111,1,87.5,8|0,2:2|0:0,0:0:0:0:
184,192,60526,1,10,2:2:0:0:
277,272,60684,1,2,2:2:0:0:
184,192,60843,6,0,B|151:192|151:192|144:184|144:184|136:192|136:192|104:192,1,87.5,10|2,2:2|2:2,0:0:0:0:
277,272,61159,1,8,2:2:0:0:
104,352,61317,2,0,B|136:352|136:352|144:360|144:360|151:352|151:352|184:352,1,87.5,8|0,2:2|0:0,0:0:0:0:
405,272,61633,2,0,B|357:272|357:272|341:236|341:236|325:272|325:272|276:272,1,175,12|0,2:2|0:0,0:0:0:0:
184,192,62108,5,0,1:2:0:0:
256,126,72228,6,0,P|292:192|256:257,2,157.499995193482,4|8|0,1:2|2:2|1:1,0:0:0:0:
195,65,73018,1,2,2:2:0:0:
256,2,73177,1,10,2:2:0:0:
317,65,73335,2,0,L|395:65,1,78.7499975967408,2|0,2:2|1:1,0:0:0:0:
317,75,73651,2,0,L|395:75,1,78.7499975967408,2|8,2:2|2:2,0:0:0:0:
195,65,73967,2,0,L|116:65,1,78.7499975967408,2|0,2:2|1:1,0:0:0:0:
195,75,74283,2,0,L|116:75,1,78.7499975967408,2|8,2:2|2:2,0:0:0:0:
49,142,74600,1,0,0:0:0:0:
115,208,74758,6,0,B|139:245|121:282|115:282|108:282|90:319|115:356,1,157.499995193482,0|8,1:1|2:2,0:0:0:0:
303,356,75232,1,2,2:2:0:0:
209,356,75390,2,0,P|196:319|209:282,1,78.7499975967408,2|2,1:2|2:2,0:0:0:0:
256,200,75707,1,10,2:2:0:0:
302,356,75865,2,0,P|315:319|302:282,1,78.7499975967408,2|0,2:2|1:1,0:0:0:0:
313,356,76181,2,0,P|325:319|312:282,1,78.7499975967408,2|8,2:2|2:2,0:0:0:0:
209,356,76497,2,0,P|196:319|209:282,1,78.7499975967408,2|0,2:2|1:1,0:0:0:0:
199,356,76813,2,0,P|186:319|199:282,1,78.7499975967408,2|8,2:2|2:2,0:0:0:0:
131,215,77130,1,2,2:2:0:0:
64,148,77288,6,0,L|196:58,1,157.499995193482,2|8,1:2|2:2,0:0:0:0:
256,131,77762,2,0,L|388:41,1,157.499995193482,2|0,2:2|0:0,0:0:0:0:
430,126,78237,2,0,P|466:192|430:258,1,157.499995193482,10|0,2:2|1:1,0:0:0:0:
361,324,78711,2,0,P|324:257|360:191,1,157.499995193482,2|0,2:2|0:0,0:0:0:0:
293,124,79185,1,2,1:2:0:0:
228,192,79343,1,2,2:2:0:0:
293,124,79502,1,10,2:2:0:0:
64,236,79818,6,0,L|196:326,1,157.499995193482,2|8,1:2|2:2,0:0:0:0:
256,253,80292,2,0,L|388:343,1,157.499995193482,2|0,2:2|0:0,0:0:0:0:
430,258,80767,2,0,P|466:192|430:126,1,157.499995193482,10|2,2:2|1:2,0:0:0:0:
361,60,81241,2,0,P|324:126|360:192,1,157.499995193482,2|2,2:2|2:2,0:0:0:0:
293,260,81715,1,2,1:2:0:0:
228,192,81873,1,2,2:2:0:0:
293,260,82032,2,0,B|293:291|293:291|315:318,1,65.6250025033952,10|0,2:2|0:0,0:0:0:0:
256,371,82348,6,0,B|226:352|201:367|197:371|193:375|168:389|139:371,1,122.499996261597,14|8,2:2|2:2,0:0:0:0:
81,313,82822,1,2,2:2:0:0:
138,253,82980,2,0,L|138:191,1,61.2499981307984,10|0,2:2|0:0,0:0:0:0:
194,134,83297,1,10,2:2:0:0:
256,83,83455,1,0,0:0:0:0:
256,83,83534,1,8,2:2:0:0:
256,83,83613,2,0,P|311:60|366:82,1,122.499996261597,10|8,2:2|2:2,0:0:0:0:
422,26,84087,1,2,2:2:0:0:
478,82,84245,2,0,L|478:143,1,61.2499981307984,10|0,2:2|0:0,0:0:0:0:
415,192,84562,1,10,2:2:0:0:
478,240,84720,5,2,2:2:0:0:
478,240,84799,1,8,2:2:0:0:
478,240,84878,2,0,L|478:302,1,61.2499981307984,10|0,2:2|0:0,0:0:0:0:
398,302,85194,1,10,2:2:0:0:
341,358,85352,1,2,2:2:0:0:
284,301,85510,2,0,B|255:301|255:301|231:278,1,61.2499981307984,10|0,2:2|0:0,0:0:0:0:
175,335,85827,2,0,B|151:312|151:312|122:312,1,61.2499981307984,10|0,2:2|0:0,0:0:0:0:
66,255,86143,2,0,B|66:192|66:192|97:141,2,122.499996261597,10|8|8,2:2|2:2|2:2,0:0:0:0:
122,312,86934,1,2,2:2:0:0:
178,255,87092,2,0,L|178:193,1,61.2499981307984,10|0,2:2|0:0,0:0:0:0:
97,141,87408,5,10,2:2:0:0:
97,141,87566,1,8,2:2:0:0:
165,81,87724,5,8,2:2:0:0:
165,81,87882,1,10,2:2:0:0:
256,61,88041,5,10,2:2:0:0:
256,61,88199,1,8,2:2:0:0:
347,81,88357,5,8,2:2:0:0:
347,81,88515,1,10,2:2:0:0:
415,141,88673,5,10,2:2:0:0:
415,141,88831,1,10,2:2:0:0:
356,69,88989,5,8,2:2:0:0:
356,69,89147,1,10,2:2:0:0:
256,47,89306,5,10,2:2:0:0:
256,47,89464,1,10,2:2:0:0:
155,69,89622,5,10,2:2:0:0:
155,69,89780,1,10,2:2:0:0:
81,135,89938,5,10,2:2:0:0:
256,192,90096,12,0,92468,1:2:0:0:
185,50,93733,6,0,P|255:20|326:49,1,157.499995193482,0|8,1:2|0:0,0:0:0:0:
256,113,94207,1,8,2:2:0:0:
256,152,94286,1,8,2:2:0:0:
256,191,94365,1,8,2:2:0:0:
256,231,94444,1,8,2:2:0:0:
256,270,94523,1,8,2:2:0:0:
185,333,94682,1,12,2:2:0:0:
326,333,94840,1,0,0:0:0:0:
185,333,94998,6,0,B|190:292|164:251|113:251|113:251|63:251,1,175,12|8,2:2|2:2,0:0:0:0:
63,133,95473,1,8,2:2:0:0:
63,133,95552,1,8,2:2:0:0:
63,133,95631,2,0,L|154:133,1,87.5,8|0,2:2|0:0,0:0:0:0:
63,251,95947,2,0,L|154:251,1,87.5,8|0,2:2|0:0,0:0:0:0:
256,192,96263,2,0,B|315:192|315:192|334:172|334:172|354:192|354:192|413:192,2,175,8|8|8,2:2|2:2|2:2,0:0:0:0:
256,288,97054,1,8,2:2:0:0:
336,384,97212,2,0,P|296:368|256:384,1,87.5,8|0,2:2|0:0,0:0:0:0:
90,288,97528,6,0,B|131:263|173:288|173:288|214:263|256:288,1,175,8|8,2:2|2:2,0:0:0:0:
336,192,98003,1,0,0:0:0:0:
255,96,98161,2,0,B|213:120|172:96|172:96|130:120|89:96,1,175,8|8,2:2|2:2,0:0:0:0:
12,192,98635,1,0,0:0:0:0:
88,381,98793,6,0,B|162:335|162:335|88:289,1,175,8|8,2:2|2:2,0:0:0:0:
164,192,99268,1,0,0:0:0:0:
164,192,99347,1,0,0:0:0:0:
164,192,99426,2,0,B|164:148|164:148|190:113,1,87.5,8|0,2:2|0:0,0:0:0:0:
348,192,99742,2,0,B|348:148|348:148|321:113,1,87.5,8|0,2:2|0:0,0:0:0:0:
256,270,100058,5,8,2:2:0:0:
348,348,100216,1,0,0:0:0:0:
440,270,100374,2,0,P|474:192|441:114,2,175,8|8|8,2:2|2:2|2:2,0:0:0:0:
348,192,101165,1,0,0:0:0:0:
169,270,101323,6,0,L|256:270,1,87.5,8|0,2:2|0:0,0:0:0:0:
169,114,101640,1,8,2:2:0:0:
169,114,101719,1,0,0:0:0:0:
169,114,101798,2,0,L|256:114,2,87.5,8|0|8,2:2|1:1|2:2,0:0:0:0:
44,192,102272,1,0,1:1:0:0:
169,270,102430,1,2,2:2:0:0:
44,192,102588,6,0,B|44:116|44:116|29:97|29:97|29:22,1,175,14|8,2:2|2:2,0:0:0:0:
169,114,103063,1,2,2:2:0:0:
308,21,103221,2,0,P|267:5|227:20,1,87.5,10|0,2:2|0:0,0:0:0:0:
366,113,103537,1,10,2:2:0:0:
227,205,103695,1,0,0:0:0:0:
366,113,103853,6,0,L|463:258,1,175,10|8,2:2|2:2,0:0:0:0:
407,368,104328,1,2,2:2:0:0:
256,269,104486,2,0,B|297:253|297:253|337:268,1,87.5,10|0,2:2|0:0,0:0:0:0:
186,367,104802,1,10,2:2:0:0:
116,269,104960,1,2,2:2:0:0:
187,87,105118,6,0,P|201:128|186:168,1,87.5,10|0,2:2|0:0,0:0:0:0:
256,269,105435,1,10,2:2:0:0:
324,87,105593,1,10,2:2:0:0:
324,87,105672,1,8,2:2:0:0:
324,87,105751,2,0,P|310:128|326:168,1,87.5,10|0,2:2|0:0,0:0:0:0:
391,349,106067,2,0,P|407:309|393:269,1,87.5,10|0,2:2|0:0,0:0:0:0:
256,269,106383,6,0,B|220:269|220:269|168:269|135:318|155:366,2,175,10|8|8,2:2|2:2|2:2,0:0:0:0:
391,192,107174,1,2,2:2:0:0:
256,115,107332,2,0,L|168:115,1,87.5,10|0,2:2|0:0,0:0:0:0:
352,115,107648,6,0,B|352:83|367:58|399:51|399:51|431:58|448:83|448:115,1,175,10|8,2:2|2:2,0:0:0:0:
256,192,108123,1,2,2:2:0:0:
448,269,108281,2,0,B|448:301|431:325|399:333|399:333|367:325|352:301|352:269,1,175,10|8,2:2|2:2,0:0:0:0:
448,115,108755,1,2,2:2:0:0:
351,268,108913,5,10,2:2:0:0:
256,115,109072,2,0,L|168:115,1,87.5,2|8,2:2|2:2,0:0:0:0:
8,192,109388,1,2,2:2:0:0:
8,192,109467,1,0,0:0:0:0:
8,192,109546,2,0,L|95:192,1,87.5,10|2,2:2|2:2,0:0:0:0:
256,269,109862,2,0,L|168:269,1,87.5,10|2,2:2|2:2,0:0:0:0:
328,192,110178,5,10,2:2:0:0:
256,115,110337,1,2,2:2:0:0:
328,38,110495,2,0,B|412:38|412:38|473:105,2,175,8|8|10,2:2|2:2|2:2,0:0:0:0:
256,115,111285,1,2,2:2:0:0:
103,38,111443,6,0,P|143:23|184:38,1,87.5,10|2,2:2|2:2,0:0:0:0:
256,125,111760,1,8,2:2:0:0:
328,37,111918,1,8,2:2:0:0:
401,125,112076,5,4,1:2:0:0:
401,125,112155,1,0,1:1:0:0:
401,125,112234,2,0,L|447:125,1,43.75,8|0,2:2|0:0,0:0:0:0:
328,192,112392,2,0,L|328:235,3,43.75,8|0|8|0,2:2|0:0|2:2|0:0,0:0:0:0:
256,125,112708,5,0,0:0:0:0:
