osu file format v14

[General]
AudioFilename: audio.mp3
AudioLeadIn: 0
PreviewTime: 51750
Countdown: 0
SampleSet: Soft
StackLeniency: 0.7
Mode: 0
LetterboxInBreaks: 0
SkinPreference:Default
WidescreenStoryboard: 1

[Editor]
Bookmarks: 11349,62108,72228
DistanceSpacing: 1.4
BeatDivisor: 4
GridSize: 4
TimelineZoom: 2.1

[Metadata]
Title:Dancing in the Streets (Nightcore Mix)
TitleUnicode:Dancing in the Streets (Nightcore Mix)
Artist:ItaloBrothers
ArtistUnicode:ItaloBrothers
Creator:-Cronik
Version:Appe's Dance!
Source:
Tags:electronic english electrodance electro dance remix hardstyle eurodance handsup techno hands speed sped up ver appetible appe
BeatmapID:3907571
BeatmapSetID:1888909

[Difficulty]
HPDrainRate:7
CircleSize:4
OverallDifficulty:8
ApproachRate:9.2
SliderMultiplier:1.8
SliderTickRate:2

[Events]
//Background and Video events
0,0,"95746487_p0.jpg",0,0
//Break Periods
2,62308,71628
//Storyboard Layer 0 (Background)
//Storyboard Layer 1 (Fail)
//Storyboard Layer 2 (Pass)
//Storyboard Layer 3 (Foreground)
//Storyboard Layer 4 (Overlay)
//Storyboard Sound Samples

[TimingPoints]
1387,316.255534471853,4,2,5,60,1,0
1387,-142.857142857143,4,2,5,60,0,0
11349,-142.857142857143,4,2,5,50,0,0
21627,-125,4,2,5,55,0,0
31747,-111.111111111111,4,2,5,65,0,0
40602,-200,4,2,5,65,0,0
41551,-66.6666666666667,4,2,5,65,0,0
41867,-90.9090909090909,4,2,5,80,0,1
51671,-66.6666666666667,4,2,5,80,0,1
51987,-90.9090909090909,4,2,5,80,0,1
62108,-111.111111111111,4,2,5,60,0,0
72228,-100,4,2,5,70,0,0
82348,-125,4,2,5,55,0,0
87408,-111.111111111111,4,2,5,60,0,0
89938,-111.111111111111,4,2,5,65,0,0
92468,-142.857142857143,4,2,5,65,0,0
93733,-100,4,2,5,65,0,0
94682,-133.333333333333,4,2,5,65,0,0
94998,-90.9090909090909,4,2,5,80,0,1
102272,-66.6666666666667,4,2,5,80,0,1
102588,-90.9090909090909,4,2,5,80,0,1
112708,-125,4,2,5,60,0,0

[Colours]
Combo1 : 255,255,128
Combo2 : 128,255,255
Combo3 : 255,128,128
Combo4 : 128,255,128
SliderBorder : 99,169,129
SliderTrackOverride : 55,55,55

[HitObjects]
256,36,11349,5,2,2:2:0:0:
313,93,11507,2,0,P|256:116|199:93,1,125.999996154785,6|0,2:2|0:0,0:0:0:0:
141,150,11981,1,2,2:2:0:0:
82,92,12139,2,0,P|75:61|83:31,1,62.9999980773926,2|0,2:2|0:0,0:0:0:0:
25,149,12455,2,0,P|32:179|25:209,1,62.9999980773926,2|0,2:2|0:0,0:0:0:0:
83,267,12772,1,2,2:2:0:0:
316,192,13246,5,2,2:2:0:0:
373,134,13404,2,0,P|380:103|372:73,2,62.9999980773926,2|0|2,2:2|0:0|2:2,0:0:0:0:
432,192,13879,1,2,2:2:0:0:
374,249,14037,2,0,P|366:279|373:309,1,62.9999980773926,2|0,2:2|0:0,0:0:0:0:
315,366,14353,1,2,2:2:0:0:
256,309,14511,1,2,2:2:0:0:
197,366,14669,2,0,B|170:309|170:309|197:252,1,125.999996154785,2|2,2:2|2:2,0:0:0:0:
256,192,15144,1,0,0:0:0:0:
315,252,15302,2,0,B|342:309|342:309|315:366,1,125.999996154785,2|0,2:2|0:0,0:0:0:0:
256,128,16092,5,2,2:2:0:0:
256,128,16251,2,0,L|256:65,1,62.9999980773926,2|0,2:2|0:0,0:0:0:0:
198,7,16567,2,0,P|141:30|84:7,1,125.999996154785,2|0,2:2|0:0,0:0:0:0:
26,64,17041,1,2,2:2:0:0:
83,121,17199,2,0,B|105:150|93:192|93:192|145:192,1,125.999996154785,2|0,2:2|0:0,0:0:0:0:
201,252,17674,1,2,2:2:0:0:
256,192,17832,1,2,2:2:0:0:
201,132,17990,1,2,2:2:0:0:
316,16,18306,5,2,2:2:0:0:
373,73,18464,2,0,L|436:73,1,62.9999980773926,2|2,2:2|2:2,0:0:0:0:
436,152,18781,1,2,2:2:0:0:
436,232,18939,1,2,2:2:0:0:
436,311,19097,2,0,L|373:311,1,62.9999980773926,2|2,2:2|2:2,0:0:0:0:
139,73,20046,6,0,L|76:73,1,62.9999980773926,2|2,2:2|2:2,0:0:0:0:
76,152,20363,1,2,2:2:0:0:
76,232,20521,1,2,2:2:0:0:
76,232,20599,1,0,0:0:0:0:
76,232,20678,1,0,0:0:0:0:
202,152,20836,1,8,2:2:0:0:
328,232,20994,5,8,2:2:0:0:
343,214,21073,1,8,2:2:0:0:
348,191,21152,1,8,2:2:0:0:
343,169,21231,1,8,2:2:0:0:
327,151,21310,1,8,2:2:0:0:
312,133,21390,1,8,2:2:0:0:
306,111,21469,1,8,2:2:0:0:
312,88,21548,1,8,2:2:0:0:
328,71,21627,6,0,B|378:71|378:71|395:58|395:58|412:71|412:71|463:71,1,144,12|8,2:2|2:2,0:0:0:0:
463,192,22101,1,0,0:0:0:0:
463,312,22259,2,0,P|430:324|397:313,1,72,8|0,2:2|0:0,0:0:0:0:
370,192,22576,2,0,P|336:179|303:191,1,72,8|0,2:2|0:0,0:0:0:0:
212,127,22892,2,0,P|185:192|212:256,1,144,8|8,2:2|2:2,0:0:0:0:
256,339,23366,1,0,0:0:0:0:
299,256,23524,1,8,2:2:0:0:
169,339,23683,2,0,L|97:339,2,72,0|8|0,0:0|2:2|0:0,0:0:0:0:
343,339,24157,6,0,L|456:245,1,144,8|8,2:2|2:2,0:0:0:0:
432,146,24631,1,0,0:0:0:0:
432,146,24710,1,0,0:0:0:0:
432,145,24789,2,0,L|377:192,1,72,8|0,2:2|0:0,0:0:0:0:
365,79,25106,2,0,L|420:32,1,72,8|0,2:2|0:0,0:0:0:0:
298,12,25422,2,0,B|256:12|256:12|214:12|187:36|177:66,2,144,8|8|8,2:2|2:2|2:2,0:0:0:0:
365,79,26213,1,0,0:0:0:0:
497,11,26371,2,0,P|464:0|431:12,1,72,8|0,2:2|0:0,0:0:0:0:
365,79,26687,6,0,B|334:87|312:114|312:159|312:159|312:198,1,144,8|8,2:2|2:2,0:0:0:0:
256,273,27161,1,0,0:0:0:0:
200,198,27319,2,0,B|200:159|200:159|200:114|178:87|147:79,1,144,8|8,2:2|2:2,0:0:0:0:
210,9,27794,1,0,0:0:0:0:
256,79,27952,5,8,2:2:0:0:
301,9,28110,2,0,P|335:-2|368:8,1,72,0|8,0:0|2:2,0:0:0:0:
480,78,28426,1,0,0:0:0:0:
480,78,28505,1,0,0:0:0:0:
480,78,28584,2,0,P|447:67|414:78,1,72,8|0,2:2|0:0,0:0:0:0:
369,161,28901,1,8,2:2:0:0:
413,244,29059,1,0,0:0:0:0:
369,327,29217,1,8,2:2:0:0:
325,244,29375,1,0,0:0:0:0:
143,161,30166,5,8,2:2:0:0:
99,244,30324,1,0,0:0:0:0:
143,327,30482,1,8,2:2:0:0:
187,244,30640,1,0,0:0:0:0:
256,32,31431,6,0,L|256:140,1,108,8|0,2:2|0:0,0:0:0:0:
256,192,31747,6,0,B|294:166|332:185|332:192|332:198|370:217|408:192,1,161.999995056153,10|8,2:2|2:2,0:0:0:0:
481,269,32221,1,2,2:2:0:0:
332,344,32380,2,0,P|369:358|407:345,1,80.9999975280763,10|0,2:2|0:0,0:0:0:0:
259,269,32696,2,0,P|221:254|184:268,1,80.9999975280763,10|0,2:2|0:0,0:0:0:0:
147,304,32933,1,8,2:2:0:0:
147,304,33012,2,0,B|131:339|86:354|86:354|41:339|26:304,1,161.999995056153,10|8,2:2|2:2,0:0:0:0:
26,192,33486,1,2,2:2:0:0:
145,117,33645,2,0,P|159:154|147:192,2,80.9999975280763,10|0|10,2:2|0:0|2:2,0:0:0:0:
257,117,34119,5,2,2:2:0:0:
257,117,34198,1,8,2:2:0:0:
257,117,34277,2,0,P|269:154|255:191,1,80.9999975280763,10|0,2:2|0:0,0:0:0:0:
330,266,34593,1,10,2:2:0:0:
256,340,34751,1,2,2:2:0:0:
182,266,34910,2,0,B|149:192|149:192|69:192,1,161.999995056153,10|10,2:2|2:2,0:0:0:0:
68,86,35384,5,0,0:0:0:0:
68,86,35463,1,8,2:2:0:0:
68,86,35542,2,0,L|149:86,1,80.9999975280763,10|0,2:2|0:0,0:0:0:0:
296,13,35858,2,0,L|215:13,1,80.9999975280763,8|0,2:2|0:0,0:0:0:0:
363,86,36175,1,8,2:2:0:0:
430,13,36333,1,2,2:2:0:0:
363,86,36491,2,0,B|350:123|350:123|364:161,1,80.9999975280763,10|0,2:2|0:0,0:0:0:0:
408,192,36728,1,8,2:2:0:0:
408,192,36807,5,10,2:2:0:0:
363,298,36965,1,8,2:2:0:0:
301,192,37123,1,8,2:2:0:0:
256,298,37281,1,10,2:2:0:0:
194,192,37440,5,10,2:2:0:0:
149,298,37598,1,8,2:2:0:0:
87,192,37756,1,8,2:2:0:0:
42,298,37914,1,10,2:2:0:0:
87,192,38072,6,0,P|101:154|87:117,1,80.9999975280763,10|10,2:2|2:2,0:0:0:0:
171,42,38388,1,8,2:2:0:0:
256,117,38547,1,10,2:2:0:0:
256,117,38626,1,0,0:0:0:0:
256,117,38705,2,0,P|242:155|256:192,1,80.9999975280763,10|10,2:2|2:2,0:0:0:0:
338,259,39021,1,10,2:2:0:0:
419,192,39179,1,10,2:2:0:0:
338,124,39337,5,10,2:2:0:0:
341,84,39416,1,8,2:2:0:0:
325,47,39495,1,10,2:2:0:0:
295,21,39574,1,8,2:2:0:0:
256,12,39653,1,8,2:2:0:0:
216,21,39732,1,8,2:2:0:0:
186,47,39811,1,8,2:2:0:0:
170,84,39890,1,8,2:2:0:0:
173,124,39970,6,0,L|133:124,3,40.4999987640381,8|8|8|8,2:2|2:2|2:2|2:2,0:0:0:0:
256,192,40286,2,0,L|296:192,3,40.4999987640381,10|8|10|8,2:2|2:2|2:2|2:2,0:0:0:0:
173,259,40602,6,0,L|174:349,1,90,2|8,1:2|2:2,0:0:0:0:
256,192,41077,1,8,2:2:0:0:
338,349,41235,5,0,1:1:0:0:
338,326,41314,1,0,1:1:0:0:
338,304,41393,1,0,1:1:0:0:
338,281,41472,1,0,0:0:0:0:
338,259,41551,6,0,B|369:248|369:248|401:259,1,67.5000025749208,8|0,2:2|0:0,0:0:0:0:
495,191,41709,6,0,B|463:201|463:201|432:191,1,67.5000025749208,0|0,1:1|0:0,0:0:0:0:
337,124,41867,6,0,B|375:104|375:48|344:20|302:20|302:20|256:20,1,198.000006042481,12|8,2:2|2:2,0:0:0:0:
163,111,42342,1,0,0:0:0:0:
255,282,42500,2,0,P|274:237|255:192,1,99.0000030212403,8|0,2:2|0:0,0:0:0:0:
70,282,42816,2,0,P|51:237|69:192,1,99.0000030212403,8|0,2:2|0:0,0:0:0:0:
163,380,43132,6,0,B|163:294|163:294|167:286|167:286|158:286|158:286|163:277|163:277|163:192,1,198.000006042481,8|8,2:2|2:2,0:0:0:0:
256,111,43607,1,0,0:0:0:0:
349,192,43765,1,8,2:2:0:0:
442,111,43923,1,0,0:0:0:0:
256,191,44081,1,8,2:2:0:0:
349,110,44239,1,0,0:0:0:0:
440,344,44397,6,0,B|485:320|499:267|499:267|485:215|442:191,1,198.000006042481,8|8,2:2|2:2,0:0:0:0:
310,269,44872,1,0,0:0:0:0:
310,269,44951,1,0,0:0:0:0:
310,269,45030,2,0,P|355:250|400:268,1,99.0000030212403,8|0,2:2|0:0,0:0:0:0:
256,191,45346,2,0,P|211:210|166:192,1,99.0000030212403,8|0,2:2|0:0,0:0:0:0:
304,118,45662,6,0,B|381:118|381:118|400:79|400:79|478:79,2,198.000006042481,8|8|8,2:2|2:2|2:2,0:0:0:0:
166,192,46453,1,8,2:2:0:0:
305,356,46611,2,0,B|323:311|323:311|304:266,1,99.0000030212403,8|0,2:2|0:0,0:0:0:0:
166,192,46927,6,0,B|201:146|170:99|166:99|162:99|131:52|166:5,1,198.000006042481,8|8,2:2|2:2,0:0:0:0:
256,192,47402,1,0,0:0:0:0:
346,5,47560,2,0,B|381:52|350:99|346:99|342:99|311:146|346:192,1,198.000006042481,8|8,2:2|2:2,0:0:0:0:
256,52,48034,1,0,0:0:0:0:
442,192,48192,6,0,B|410:208|394:236|394:272|394:272|394:236|378:208|346:192,1,198.000006042481,8|8,2:2|2:2,0:0:0:0:
256,52,48667,1,0,0:0:0:0:
256,52,48746,1,0,0:0:0:0:
256,52,48825,1,8,2:2:0:0:
166,192,48983,1,0,0:0:0:0:
346,100,49141,1,8,2:2:0:0:
256,240,49299,1,0,0:0:0:0:
166,100,49457,5,8,2:2:0:0:
346,192,49615,1,0,0:0:0:0:
166,284,49774,2,0,B|166:222|126:192|74:192|74:192|23:192,2,198.000006042481,8|8|8,2:2|2:2|2:2,0:0:0:0:
346,100,50564,1,0,0:0:0:0:
256,284,50722,1,8,2:2:0:0:
166,100,50880,1,0,0:0:0:0:
346,192,51039,5,8,2:2:0:0:
346,192,51118,1,8,2:2:0:0:
346,192,51197,2,0,L|395:192,1,49.5000015106202,8|0,2:2|0:0,0:0:0:0:
166,192,51355,5,0,1:1:0:0:
166,192,51434,1,0,1:1:0:0:
166,192,51513,2,0,L|117:192,1,49.5000015106202,0|0,1:1|0:0,0:0:0:0:
256,102,51671,6,0,B|256:78|256:78|252:72|252:72|259:72|259:72|256:66|256:66|256:45,1,67.5000025749208,0|0,1:1|0:0,0:0:0:0:
256,282,51829,1,2,2:2:0:0:
346,102,51987,6,0,P|427:54|508:102,1,198.000006042481,14|8,2:2|2:2,0:0:0:0:
346,192,52462,1,2,2:2:0:0:
508,282,52620,2,0,B|508:318|508:318|517:327|517:327|508:336|508:336|508:372,1,99.0000030212403,10|0,2:2|0:0,0:0:0:0:
346,283,52936,2,0,B|346:246|346:246|336:237|336:237|346:228|346:228|346:192,1,99.0000030212403,10|0,2:2|0:0,0:0:0:0:
184,282,53252,6,0,B|139:311|102:274|102:274|91:285|91:285|50:252|6:282,1,198.000006042481,10|8,2:2|2:2,0:0:0:0:
6,102,53727,1,2,2:2:0:0:
95,192,53885,1,10,2:2:0:0:
184,102,54043,1,0,0:0:0:0:
95,202,54201,1,10,2:2:0:0:
6,102,54359,1,2,2:2:0:0:
95,12,54517,6,0,L|196:12,1,99.0000030212403,10|0,2:2|0:0,0:0:0:0:
328,102,54834,1,10,2:2:0:0:
194,192,54992,1,2,2:2:0:0:
194,192,55071,1,0,0:0:0:0:
194,192,55150,2,0,L|95:192,1,99.0000030212403,10|0,2:2|0:0,0:0:0:0:
318,192,55466,2,0,L|417:192,1,99.0000030212403,10|0,2:2|0:0,0:0:0:0:
184,102,55782,6,0,B|234:88|256:39|256:39|278:88|328:102,2,198.000006042481,10|8|8,2:2|2:2|2:2,0:0:0:0:
256,244,56573,1,10,2:2:0:0:
423,102,56731,2,0,B|375:90|375:90|328:102,1,99.0000030212403,10|0,2:2|0:0,0:0:0:0:
493,244,57047,6,0,B|452:244|452:244|407:244|356:297|392:357,1,198.000006042481,10|8,2:2|2:2,0:0:0:0:
328,192,57522,1,2,2:2:0:0:
185,282,57680,2,0,B|196:233|156:192|156:192|196:151|184:102,1,198.000006042481,10|8,2:2|2:2,0:0:0:0:
328,192,58154,1,2,2:2:0:0:
185,282,58312,5,10,2:2:0:0:
328,372,58471,2,0,P|374:357|420:372,1,99.0000030212403,2|8,2:2|2:2,0:0:0:0:
256,282,58787,1,2,2:2:0:0:
256,282,58866,1,0,0:0:0:0:
256,282,58945,1,10,2:2:0:0:
184,372,59103,1,2,2:2:0:0:
327,282,59261,1,10,2:2:0:0:
184,192,59419,1,2,2:2:0:0:
327,102,59578,5,10,2:2:0:0:
184,12,59736,1,2,2:2:0:0:
327,102,59894,2,0,B|375:102|375:102|416:131,1,99.0000030212403,8|0,2:2|0:0,0:0:0:0:
327,282,60210,2,0,B|375:282|375:282|416:252,1,99.0000030212403,8|0,2:2|0:0,0:0:0:0:
185,102,60526,5,10,2:2:0:0:
328,192,60684,1,2,2:2:0:0:
185,282,60843,1,10,2:2:0:0:
328,372,61001,1,2,2:2:0:0:
185,282,61159,6,0,L|135:282,1,49.5000015106202,8|0,2:2|0:0,0:0:0:0:
110,192,61317,2,0,L|209:192,1,99.0000030212403,8|0,2:2|0:0,0:0:0:0:
302,139,61633,2,0,B|386:192|386:192|302:245,1,198.000006042481,12|0,2:2|0:0,0:0:0:0:
209,192,62108,5,0,1:2:0:0:
192,192,72228,6,0,B|119:192|119:192|107:179|107:179|95:192|95:192|22:192,2,180,4|8|0,1:2|2:2|1:1,0:0:0:0:
256,106,73018,1,2,2:2:0:0:
192,18,73177,1,10,2:2:0:0:
256,106,73335,6,0,P|297:90|338:105,1,90,2|0,2:2|1:1,0:0:0:0:
485,191,73651,2,0,P|443:206|401:191,1,90,2|8,2:2|2:2,0:0:0:0:
255,279,73967,2,0,P|297:264|339:279,1,90,2|0,2:2|1:1,0:0:0:0:
485,365,74283,2,0,P|443:380|402:366,1,90,2|8,2:2|2:2,0:0:0:0:
339,279,74600,1,0,0:0:0:0:
402,192,74758,6,0,B|438:177|458:125|458:125|438:74|402:59,1,180,0|8,1:1|2:2,0:0:0:0:
310,4,75232,1,2,2:2:0:0:
202,4,75390,2,0,L|202:94,1,90,2|2,1:2|2:2,0:0:0:0:
155,192,75707,1,10,2:2:0:0:
201,290,75865,6,0,L|201:381,1,90,2|0,2:2|1:1,0:0:0:0:
310,290,76181,2,0,L|311:381,1,90,2|8,2:2|2:2,0:0:0:0:
191,290,76497,2,0,L|190:380,1,90,2|0,2:2|1:1,0:0:0:0:
321,290,76813,2,0,L|321:380,1,90,2|8,2:2|2:2,0:0:0:0:
256,192,77130,1,2,2:2:0:0:
321,94,77288,6,0,P|256:42|191:94,1,180,2|8,1:2|2:2,0:0:0:0:
24,192,77762,2,0,P|89:140|154:192,1,180,2|0,2:2|0:0,0:0:0:0:
191,290,78237,6,0,P|256:342|321:290,1,180,10|0,2:2|1:1,0:0:0:0:
488,192,78711,2,0,P|423:244|358:192,1,180,2|0,2:2|0:0,0:0:0:0:
256,96,79185,5,2,1:2:0:0:
154,192,79343,1,2,2:2:0:0:
256,96,79502,2,0,L|346:96,1,90,10|0,2:2|0:0,0:0:0:0:
154,192,79818,6,0,B|120:175|103:153|103:124|103:124|103:153|86:175|52:192,1,180,2|8,1:2|2:2,0:0:0:0:
103,297,80292,2,0,B|136:313|153:335|153:364|153:364|153:335|170:313|204:297,1,180,2|0,2:2|0:0,0:0:0:0:
358,192,80767,6,0,B|391:208|408:230|408:259|408:259|408:230|425:208|459:192,1,180,10|2,2:2|1:2,0:0:0:0:
409,87,81241,2,0,B|375:70|358:48|358:19|358:19|358:48|341:70|307:87,1,180,2|2,2:2|2:2,0:0:0:0:
205,192,81715,5,2,1:2:0:0:
205,87,81874,1,2,2:2:0:0:
307,192,82032,2,0,L|307:282,1,90,10|0,2:2|0:0,0:0:0:0:
205,192,82348,6,0,B|165:192|165:192|110:192|80:243,1,144,14|8,2:2|2:2,0:0:0:0:
19,303,82822,1,2,2:2:0:0:
80,364,82980,2,0,L|152:364,1,72,10|0,2:2|0:0,0:0:0:0:
213,302,83297,1,10,2:2:0:0:
274,363,83455,5,0,0:0:0:0:
274,363,83534,1,8,2:2:0:0:
274,363,83613,2,0,L|368:254,1,144,10|8,2:2|2:2,0:0:0:0:
428,192,84087,1,2,2:2:0:0:
368,130,84245,2,0,P|335:117|302:129,1,72,10|0,2:2|0:0,0:0:0:0:
256,56,84562,1,10,2:2:0:0:
209,129,84720,5,2,2:2:0:0:
209,129,84799,1,8,2:2:0:0:
209,129,84878,2,0,P|179:192|210:254,1,144,10|10,2:2|2:2,0:0:0:0:
149,315,85352,1,2,2:2:0:0:
87,376,85510,2,0,L|15:376,1,72,10|0,2:2|0:0,0:0:0:0:
149,315,85827,1,10,2:2:0:0:
210,376,85985,5,0,0:0:0:0:
210,376,86064,1,8,2:2:0:0:
210,376,86143,2,0,B|231:323|286:323|286:323|330:323,2,144,10|8|8,2:2|2:2|2:2,0:0:0:0:
149,315,86934,1,2,2:2:0:0:
87,253,87092,1,10,2:2:0:0:
149,315,87250,1,0,0:0:0:0:
148,192,87408,5,10,2:2:0:0:
148,192,87566,1,8,2:2:0:0:
256,84,87724,5,8,2:2:0:0:
256,84,87882,1,10,2:2:0:0:
364,192,88041,5,10,2:2:0:0:
364,192,88199,1,8,2:2:0:0:
256,300,88357,5,8,2:2:0:0:
256,300,88515,1,10,2:2:0:0:
137,192,88673,5,10,2:2:0:0:
137,192,88831,1,10,2:2:0:0:
256,73,88989,5,8,2:2:0:0:
256,73,89147,1,10,2:2:0:0:
374,192,89306,5,10,2:2:0:0:
374,192,89464,1,10,2:2:0:0:
256,310,89622,5,10,2:2:0:0:
256,310,89780,1,10,2:2:0:0:
125,192,89938,5,10,2:2:0:0:
125,192,90017,1,8,2:2:0:0:
125,192,90096,2,0,L|84:192,1,40.4999987640381,10|8,2:2|2:2,0:0:0:0:
163,99,90254,5,8,2:2:0:0:
163,99,90333,1,8,2:2:0:0:
163,99,90412,2,0,L|134:70,1,40.4999987640381,8|8,2:2|2:2,0:0:0:0:
256,61,90571,5,8,2:2:0:0:
256,61,90650,1,8,2:2:0:0:
256,61,90729,2,0,L|256:20,1,40.4999987640381,8|8,2:2|2:2,0:0:0:0:
348,99,90887,5,10,2:2:0:0:
348,99,90966,1,8,2:2:0:0:
348,99,91045,2,0,L|377:70,1,40.4999987640381,10|8,2:2|2:2,0:0:0:0:
386,192,91203,5,14,2:2:0:0:
376,209,91282,1,8,2:2:0:0:
364,225,91361,1,10,2:2:0:0:
349,239,91440,1,8,2:2:0:0:
332,251,91519,5,8,2:2:0:0:
315,260,91598,1,8,2:2:0:0:
296,267,91677,1,8,2:2:0:0:
276,271,91756,1,8,2:2:0:0:
256,272,91835,5,8,2:2:0:0:
235,271,91914,1,8,2:2:0:0:
216,267,91993,1,8,2:2:0:0:
197,260,92072,1,8,2:2:0:0:
179,251,92151,5,8,2:2:0:0:
162,239,92230,1,8,2:2:0:0:
148,225,92309,1,8,2:2:0:0:
135,209,92388,1,8,2:2:0:0:
125,192,92468,6,0,L|0:192,1,125.999996154785,0|0,1:2|0:0,0:0:0:0:
0,116,92942,1,0,0:0:0:0:
0,39,93101,2,0,L|62:39,1,62.9999980773926,0|0,0:0|0:0,0:0:0:0:
200,39,93417,2,0,L|138:39,1,62.9999980773926,0|0,0:0|0:0,0:0:0:0:
0,116,93733,6,0,B|48:192|48:192|0:268,1,180,0|8,1:2|0:0,0:0:0:0:
107,116,94207,5,8,2:2:0:0:
131,154,94286,1,8,2:2:0:0:
154,192,94365,1,8,2:2:0:0:
130,230,94444,1,8,2:2:0:0:
106,268,94524,1,8,2:2:0:0:
256,192,94682,6,0,B|275:192|275:192|283:196|283:196|283:187|283:187|292:192|292:192|311:192,1,67.5000025749208,12|0,2:2|0:0,0:0:0:0:
256,66,94998,6,0,B|302:35|346:62|349:66|353:70|396:98|443:66,1,198.000006042481,12|8,2:2|2:2,0:0:0:0:
444,192,95473,1,8,2:2:0:0:
444,192,95552,1,8,2:2:0:0:
444,192,95631,2,0,B|461:237|461:237|444:283,1,99.0000030212403,8|0,2:2|0:0,0:0:0:0:
256,192,95947,2,0,B|238:237|238:237|256:283,1,99.0000030212403,8|0,2:2|0:0,0:0:0:0:
349,193,96263,6,0,B|349:277|349:277|354:286|354:286|345:286|345:286|349:294|349:294|349:380,2,198.000006042481,8|8|8,2:2|2:2|2:2,0:0:0:0:
256,66,97054,1,8,2:2:0:0:
164,192,97212,2,0,B|209:174|209:174|255:192,1,99.0000030212403,8|0,2:2|0:0,0:0:0:0:
115,279,97528,6,0,P|75:191|115:105,1,198.000006042481,8|8,2:2|2:2,0:0:0:0:
349,193,98003,1,0,0:0:0:0:
163,366,98161,2,0,P|203:279|164:192,1,198.000006042481,8|8,2:2|2:2,0:0:0:0:
256,66,98635,1,0,0:0:0:0:
348,191,98793,6,0,P|308:279|348:366,1,198.000006042481,8|8,2:2|2:2,0:0:0:0:
163,192,99268,1,0,0:0:0:0:
163,192,99347,1,0,0:0:0:0:
163,192,99426,1,8,2:2:0:0:
256,66,99584,1,0,0:0:0:0:
349,192,99742,1,8,2:2:0:0:
163,66,99900,1,0,0:0:0:0:
256,192,100058,5,8,2:2:0:0:
349,66,100216,1,0,0:0:0:0:
442,192,100374,2,0,B|422:233|442:275|442:275|438:283|438:283|445:283|445:283|442:291|442:291|422:332|442:374,2,198.000006042481,8|8|8,2:2|2:2|2:2,0:0:0:0:
349,66,101165,1,0,0:0:0:0:
256,192,101323,1,8,2:2:0:0:
163,66,101481,1,0,0:0:0:0:
70,192,101640,5,8,2:2:0:0:
70,192,101719,1,0,0:0:0:0:
70,192,101798,2,0,L|20:192,1,49.5000015106202,8|0,2:2|0:0,0:0:0:0:
163,318,101956,5,0,1:1:0:0:
163,318,102035,1,0,1:1:0:0:
163,318,102114,2,0,L|213:318,1,49.5000015106202,8|0,2:2|0:0,0:0:0:0:
256,191,102272,6,0,B|256:170|256:170|259:164|259:164|252:164|252:164|256:158|256:158|256:135,1,67.5000025749208,0|0,1:1|0:0,0:0:0:0:
299,318,102430,1,2,2:2:0:0:
342,192,102588,6,0,B|391:171|397:97|343:65|343:65|307:44,1,198.000006042481,14|8,2:2|2:2,0:0:0:0:
170,192,103063,1,2,2:2:0:0:
299,318,103221,2,0,B|272:325|256:341|256:341|240:325|213:318,1,99.0000030212403,10|0,2:2|0:0,0:0:0:0:
83,192,103537,2,0,B|110:185|126:169|126:169|142:185|169:192,1,99.0000030212403,10|0,2:2|0:0,0:0:0:0:
256,43,103853,6,0,B|306:61|347:24|347:24|389:61|439:43,1,198.000006042481,10|8,2:2|2:2,0:0:0:0:
256,192,104328,1,2,2:2:0:0:
348,111,104486,1,10,2:2:0:0:
440,192,104644,1,0,0:0:0:0:
348,273,104802,1,10,2:2:0:0:
256,192,104960,1,2,2:2:0:0:
164,359,105118,6,0,B|157:332|141:316|141:316|157:300|164:273,1,99.0000030212403,10|0,2:2|0:0,0:0:0:0:
256,192,105435,1,10,2:2:0:0:
348,359,105593,1,10,2:2:0:0:
348,359,105672,1,8,2:2:0:0:
348,359,105751,2,0,B|355:332|371:316|371:316|355:300|348:273,1,99.0000030212403,10|0,2:2|0:0,0:0:0:0:
256,106,106067,2,0,B|249:133|233:149|233:149|249:165|256:192,1,99.0000030212403,10|0,2:2|0:0,0:0:0:0:
164,359,106383,6,0,B|195:308|150:248|92:248|92:248|54:248,2,198.000006042481,10|8|8,2:2|2:2|2:2,0:0:0:0:
256,192,107174,1,2,2:2:0:0:
348,358,107332,2,0,B|394:342|394:342|441:358,1,99.0000030212403,10|0,2:2|0:0,0:0:0:0:
348,243,107648,6,0,B|395:156|395:156|441:243,1,198.000006042481,10|8,2:2|2:2,0:0:0:0:
396,78,108123,1,2,2:2:0:0:
208,105,108281,2,0,B|256:192|256:192|304:105,1,198.000006042481,10|8,2:2|2:2,0:0:0:0:
256,270,108756,1,2,2:2:0:0:
156,192,108913,5,10,2:2:0:0:
56,270,109072,2,0,B|40:316|40:316|56:363,1,99.0000030212403,2|8,2:2|2:2,0:0:0:0:
255,269,109388,1,2,2:2:0:0:
255,269,109467,1,0,0:0:0:0:
256,269,109546,2,0,B|271:316|271:316|256:363,1,99.0000030212403,10|2,2:2|2:2,0:0:0:0:
156,192,109862,1,10,2:2:0:0:
256,114,110020,1,2,2:2:0:0:
356,192,110178,5,10,2:2:0:0:
256,95,110337,1,2,2:2:0:0:
156,192,110495,2,0,B|57:192|57:192|6:106,2,198.000006042481,8|8|10,2:2|2:2|2:2,0:0:0:0:
256,269,111285,1,2,2:2:0:0:
356,192,111443,5,10,2:2:0:0:
456,270,111602,1,2,2:2:0:0:
356,348,111760,2,0,L|306:348,1,49.5000015106202,8|0,2:2|0:0,0:0:0:0:
456,270,111918,1,8,2:2:0:0:
456,270,111997,1,0,0:0:0:0:
456,270,112076,2,0,L|505:270,1,49.5000015106202,4|0,1:2|1:1,0:0:0:0:
356,192,112234,2,0,L|306:192,1,49.5000015106202,8|0,2:2|0:0,0:0:0:0:
456,114,112392,2,0,B|456:66|456:66|426:24,1,99.0000030212403,8|8,2:2|2:2,0:0:0:0:
307,103,112708,1,0,0:0:0:0:
