osu file format v14

[General]
AudioFilename: audio.mp3
AudioLeadIn: 0
PreviewTime: -1
Countdown: 0
SampleSet: None
StackLeniency: 0.7
Mode: 0
LetterboxInBreaks: 1
WidescreenStoryboard: 0

[Editor]
DistanceSpacing: 1
BeatDivisor: 4
GridSize: 16
TimelineZoom: 2

[Metadata]
Title:Tu Fallo (DJ Zazza Remix)
TitleUnicode:Tu Fallo (DJ Zazza Remix)
Artist:Italo Dance
ArtistUnicode:Italo Dance
Creator:kristrace
Version:Insane
Source:
Tags:
BeatmapID:1707800
BeatmapSetID:814366

[Difficulty]
HPDrainRate:6
CircleSize:3.8
OverallDifficulty:6
ApproachRate:9
SliderMultiplier:1.4
SliderTickRate:1

[Events]
//Background and Video events
0,0,"image (7).jpg",0,0
//Break Periods
2,20741,26998
2,34884,46455
2,68955,79884
2,89512,95570
//Storyboard Layer 0 (Background)
//Storyboard Layer 1 (Fail)
//Storyboard Layer 2 (Pass)
//Storyboard Layer 3 (Foreground)
//Storyboard Sound Samples

[TimingPoints]
170,428.571428571429,4,3,1,40,1,0
19027,-333.333333333333,4,3,1,40,0,0
27598,-66.6666666666667,4,3,1,50,0,0
48170,-66.6666666666667,4,3,1,80,0,1
53312,-100,4,3,1,80,0,0
55027,-66.6666666666667,4,3,1,80,0,1
60170,-66.6666666666667,4,3,1,80,0,0
61884,-66.6666666666667,4,3,1,80,0,1
68741,-66.6666666666667,4,3,1,50,0,0
80741,-83.3333333333333,4,3,1,50,0,0
81384,-111.111111111111,4,3,1,50,0,0
82455,-83.3333333333333,4,3,1,50,0,0
83098,-111.111111111111,4,3,1,50,0,0
96170,-200,4,3,1,30,0,0
103027,-100,4,3,1,50,0,0
109884,-66.6666666666667,4,3,1,80,0,0
110741,-55.5555555555556,4,3,1,80,0,0

[Colours]
Combo1 : 128,128,128
Combo2 : 0,0,160
Combo3 : 255,81,168
Combo4 : 128,0,255
Combo5 : 11,117,37

[HitObjects]
176,224,7027,6,0,P|160:160|320:240,1,420,2|0,0:0|0:0,0:0:0:0:
256,272,8741,2,0,P|256:192|448:288,1,420,2|0,0:0|0:0,0:0:0:0:
352,336,10455,2,0,B|352:288|352:288|384:192|320:160|320:160|336:64|336:64|192:96,1,420,2|0,0:0|0:0,0:0:0:0:
48,64,12170,2,0,P|48:128|256:48,1,420,2|0,0:0|0:0,0:0:0:0:
160,128,13884,6,0,P|192:256|336:112,1,420,2|0,0:0|0:0,0:0:0:0:
256,32,15598,2,0,B|288:112|288:112|224:208|288:256|288:256|256:336|256:336|144:336,1,420,2|0,0:0|0:0,0:0:0:0:
80,176,17312,2,0,B|224:128|256:64|256:64|288:128|432:176,1,420,2|0,0:0|0:0,0:0:0:0:
256,320,19027,2,0,L|256:192,1,125.999996154785
256,80,27598,6,0,L|144:96,1,105.000004005432
256,192,28027,1,0,0:0:0:0:
352,128,28241,1,0,0:0:0:0:
432,64,28670,2,0,P|496:96|432:192,1,210.000008010865
352,128,29312,5,0,0:0:0:0:
352,224,29527,1,0,0:0:0:0:
352,224,29741,2,0,L|240:240,1,105.000004005432
160,144,30384,2,0,P|112:192|176:304,1,210.000008010865
208,304,31027,1,0,0:0:0:0:
256,192,31455,12,0,34455,0:0:0:0:
176,64,48170,6,0,B|112:96|112:96|96:160,1,105.000004005432,8|0,0:0|0:0,0:0:0:0:
336,64,48598,2,0,B|400:96|400:96|416:160,1,105.000004005432,8|0,0:0|0:0,0:0:0:0:
384,256,49027,1,8,0:0:0:0:
320,320,49241,1,0,0:0:0:0:
208,320,49455,1,8,0:0:0:0:
128,256,49670,1,0,0:0:0:0:
384,144,49884,6,0,B|448:176|448:176|456:208,1,105.000004005432,8|0,0:0|0:0,0:0:0:0:
55,208,50312,2,0,B|64:176|64:176|128:144,1,105.000004005432,8|0,0:0|0:0,0:0:0:0:
224,64,50741,1,8,0:0:0:0:
288,256,50955,1,0,0:0:0:0:
224,64,51170,1,8,0:0:0:0:
144,256,51384,1,0,0:0:0:0:
48,320,51598,6,0,B|112:336|112:336|176:336,1,105.000004005432,8|0,0:0|0:0,0:0:0:0:
464,320,52027,2,0,B|400:336|400:336|360:336,1,105.000004005432,8|0,0:0|0:0,0:0:0:0:
128,256,52455,1,8,0:0:0:0:
208,192,52670,1,0,0:0:0:0:
320,192,52884,1,8,0:0:0:0:
384,256,53098,1,0,0:0:0:0:
256,336,53312,1,0,0:0:0:0:
128,64,55027,6,0,B|144:128|144:128|208:192,1,105.000004005432,8|0,0:0|0:0,0:0:0:0:
384,64,55455,2,0,B|368:128|368:128|304:192,1,105.000004005432,8|0,0:0|0:0,0:0:0:0:
256,112,55884,1,8,0:0:0:0:
336,304,56098,1,0,0:0:0:0:
256,112,56312,1,8,0:0:0:0:
176,304,56527,1,0,0:0:0:0:
464,192,56741,6,0,B|432:176|432:176|352:176,1,105.000004005432,8|0,0:0|0:0,0:0:0:0:
144,176,57170,2,0,B|74:176|74:176|32:160,1,105.000004005432,8|0,0:0|0:0,0:0:0:0:
208,64,57598,1,8,0:0:0:0:
272,144,57812,1,0,0:0:0:0:
272,256,58027,1,8,0:0:0:0:
208,320,58241,1,0,0:0:0:0:
48,240,58455,2,0,B|96:256|96:256|160:256,1,105.000004005432,8|0,0:0|0:0,0:0:0:0:
464,240,58884,2,0,B|416:256|416:256|352:256,1,105.000004005432,8|0,0:0|0:0,0:0:0:0:
256,336,59312,5,8,0:0:0:0:
256,240,59527,1,0,0:0:0:0:
256,144,59741,1,8,0:0:0:0:
256,48,59955,1,0,0:0:0:0:
384,144,60170,1,0,0:0:0:0:
128,144,60384,1,0,0:0:0:0:
128,144,60598,6,0,B|96:176|96:176|96:256,1,105.000004005432,8|0,0:0|0:0,0:0:0:0:
96,336,61241,1,0,0:0:0:0:
272,352,61455,2,0,P|288:288|256:208,1,105.000004005432,8|0,0:0|0:0,0:0:0:0:
128,128,61884,6,0,B|73:128|73:128|25:144,2,105.000004005432,8|0|8,0:0|0:0|0:0,0:0:0:0:
352,128,62527,1,0,0:0:0:0:
352,128,62741,2,0,P|416:128|480:144,1,105.000004005432,8|0,0:0|0:0,0:0:0:0:
256,320,63170,1,8,0:0:0:0:
256,144,63384,1,0,0:0:0:0:
128,320,63598,6,0,B|73:320|73:320|25:336,2,105.000004005432,8|0|8,0:0|0:0|0:0,0:0:0:0:
160,224,64241,1,0,0:0:0:0:
224,32,64455,1,8,0:0:0:0:
160,224,64670,1,8,0:0:0:0:
80,32,64884,1,8,0:0:0:0:
320,144,65098,1,0,0:0:0:0:
320,144,65312,6,0,B|368:160|368:160|432:160,1,105.000004005432,8|0,0:0|0:0,0:0:0:0:
416,304,65741,1,0,0:0:0:0:
192,336,65955,1,0,0:0:0:0:
192,336,66170,2,0,B|160:288|160:288|160:240,2,105.000004005432,8|0|8,0:0|0:0|0:0,0:0:0:0:
32,336,66812,5,0,0:0:0:0:
32,176,67027,1,8,0:0:0:0:
208,176,67241,1,0,0:0:0:0:
32,304,67455,1,8,0:0:0:0:
69,172,67670,1,0,0:0:0:0:
200,210,67884,1,8,0:0:0:0:
163,341,68098,1,0,0:0:0:0:
112,256,68312,1,8,0:0:0:0:
55,64,80741,6,0,B|79:155|79:155|157:232,1,167.999994873047,8|0,0:0|0:0,0:0:0:0:
211,120,81384,2,0,B|284:156|284:156|404:148,1,188.999994232178,8|0,0:0|0:0,0:0:0:0:
362,43,82455,2,0,B|407:59|407:59|466:106,1,83.9999974365235,8|0,0:0|0:0,0:0:0:0:
455,116,82884,1,8,0:0:0:0:
492,234,83098,2,0,B|440:295|440:295|332:337,1,188.999994232178,8|0,0:0|0:0,0:0:0:0:
257,233,83955,5,0,0:0:0:0:
257,233,84170,2,0,L|168:213,2,62.9999980773926,8|0|0,0:0|0:0|0:0,0:0:0:0:
191,324,84812,2,0,B|99:317|99:317|24:250,1,188.999994232178,8|0,0:0|0:0,0:0:0:0:
132,176,85670,1,0,0:0:0:0:
132,176,85884,6,0,B|194:148|194:148|224:93,1,125.999996154785,8|0,0:0|0:0,0:0:0:0:
273,40,86527,2,0,B|286:134|286:134|373:195,1,188.999994232178,8|0,0:0|0:0,0:0:0:0:
256,192,87598,12,0,89312,0:0:0:0:
46,72,96170,6,0,P|144:112|240:64,1,210,2|0,0:0|0:0,0:0:0:0:
475,175,97884,6,0,P|381:216|288:176,1,210,2|0,0:0|0:0,0:0:0:0:
21,317,99598,2,0,B|96:288|116:256|116:256|131:289|190:312,1,210,2|0,0:0|0:0,0:0:0:0:
407,348,101312,2,0,B|435:273|468:253|468:253|435:238|412:179,1,210,2|0,0:0|0:0,0:0:0:0:
340,73,103027,6,0,L|333:147,1,70
231,238,103455,2,0,L|253:162,1,70
267,69,103884,2,0,L|260:143,1,70
169,263,104312,2,0,L|191:187,1,70
288,144,104741,6,0,B|325:134|325:134|386:138,1,70
491,207,105170,2,0,B|454:197|454:197|422:199,1,70
299,196,105598,2,0,B|264:169|264:169|233:125,1,70
374,32,106027,2,0,B|405:65|405:65|415:104,1,70
438,173,106455,6,0,B|431:220|431:220|409:270,1,70
272,231,106884,2,0,L|188:259,1,70
70,228,107312,2,0,L|145:189,1,70
237,320,107741,2,0,L|162:359,1,70
173,184,108170,6,0,B|205:152|205:152|248:129,1,70
381,196,108598,2,0,B|353:221|353:221|309:237,1,70
256,157,109027,2,0,B|248:124|248:124|264:82,1,70
371,90,109455,2,0,B|386:121|386:121|383:160,1,70
335,287,109884,6,0,L|213:298,1,105,8|0,0:0|0:0,0:0:0:0:
320,116,110312,2,0,L|439:95,1,105.000004005432,8|0,0:0|0:0,0:0:0:0:
238,251,110741,2,0,B|170:272|170:272|81:279,1,125.999996154785,10|0,0:0|0:0,0:0:0:0:
237,79,111170,2,0,B|306:56|306:56|402:52,1,125.999996154785,8|0,0:0|0:0,0:0:0:0:
439,316,111598,6,0,P|400:253|402:188,1,125.999996154785,8|0,0:0|0:0,0:0:0:0:
73,316,112027,2,0,P|112:253|110:188,1,125.999996154785,8|0,0:0|0:0,0:0:0:0:
466,248,112455,2,0,B|437:187|437:187|446:99,1,125.999996154785,10|0,0:0|0:0,0:0:0:0:
46,248,112884,2,0,B|75:187|75:187|66:99,1,125.999996154785,8|0,0:0|0:0,0:0:0:0:
192,67,113312,6,0,P|255:58|359:73,1,125.999996154785,8|0,0:0|0:0,0:0:0:0:
415,254,113741,2,0,P|336:278|264:279,1,125.999996154785,8|0,0:0|0:0,0:0:0:0:
67,199,114170,2,0,P|131:157|212:152,1,125.999996154785,10|0,0:0|0:0,0:0:0:0:
451,188,114598,2,0,P|388:217|319:219,1,125.999996154785,8|0,0:0|0:0,0:0:0:0:
142,81,115027,6,0,B|160:143|160:143|205:191,1,125.999996154785,8|0,0:0|0:0,0:0:0:0:
269,143,115455,2,0,B|315:187|315:187|314:256,1,125.999996154785,8|0,0:0|0:0,0:0:0:0:
212,357,115884,2,0,B|194:304|194:304|225:242,1,125.999996154785,10|0,0:0|0:0,0:0:0:0:
317,256,116312,2,0,B|345:194|345:194|328:125,1,125.999996154785,8|0,0:0|0:0,0:0:0:0:
