osu file format v14

[General]
AudioFilename: audio.mp3
AudioLeadIn: 0
PreviewTime: 55060
Countdown: 0
SampleSet: Soft
StackLeniency: 0.7
Mode: 0
LetterboxInBreaks: 0
WidescreenStoryboard: 0

[Editor]
DistanceSpacing: 1.2
BeatDivisor: 4
GridSize: 16
TimelineZoom: 2.2

[Metadata]
Title:Mugenranbushou(Game size)
TitleUnicode:夢現乱舞抄(Game size)
Artist:Itagaki Soutarou
ArtistUnicode:板垣奏太郎
Creator:Regraz
Version:Hard
Source:刀剣乱舞-ONLINE-
Tags:dmm games king records touken ranbu op opening F_D_Flourite Abhor [_Abhor_] HabiHolic
BeatmapID:1112625
BeatmapSetID:514795

[Difficulty]
HPDrainRate:5
CircleSize:3.6
OverallDifficulty:6
ApproachRate:7.5
SliderMultiplier:1.4
SliderTickRate:1

[Events]
//Background and Video events
0,0,"3BG.jpg",0,0
//Break Periods
2,22083,31395
//Storyboard Layer 0 (Background)
//Storyboard Layer 1 (Fail)
//Storyboard Layer 2 (Pass)
//Storyboard Layer 3 (Foreground)
//Storyboard Sound Samples

[TimingPoints]
707,352.941176470588,4,2,1,25,1,0
707,-133.333333333333,4,2,1,25,0,0
10589,-100,4,2,1,60,0,0
21884,-100,4,2,1,25,0,0
32471,-100,4,2,1,60,0,0
33177,-100,4,2,1,50,0,0
55059,-100,4,2,1,35,0,0
55765,-100,4,2,1,60,0,1
66706,-100,4,2,1,60,0,0
67059,-100,4,2,1,60,0,1
78354,-100,4,2,1,60,0,0

[Colours]
Combo1 : 235,118,17
Combo2 : 151,133,119
Combo3 : 234,44,205
Combo4 : 222,43,52

[HitObjects]
462,86,707,6,0,L|354:93,1,105.000004005432,2|0,0:1|0:0,0:0:0:0:
288,44,1412,2,0,P|298:152|204:177,1,210.000008010865,0|2,0:0|0:1,0:0:0:0:
148,132,2471,1,0,0:0:0:0:
89,192,2824,2,0,P|76:245|100:297,1,105.000004005432,0|0,0:0|0:0,0:0:0:0:
168,328,3530,6,0,L|282:304,2,105.000004005432,2|0|0,0:1|0:0|0:3,0:0:0:0:
93,290,4589,1,0,0:0:0:0:
160,240,4942,2,0,L|377:203,1,210.000008010865,2|0,0:1|0:3,0:0:0:0:
443,240,6001,1,0,0:0:0:0:
383,299,6354,6,0,P|314:286|283:244,2,105.000004005432,2|0|0,0:1|0:0|0:0,0:0:0:0:
443,240,7412,1,0,0:0:0:0:
407,163,7765,2,0,L|288:171,1,105.000004005432,2|0,0:1|0:0,0:0:0:0:
223,139,8471,6,0,P|148:158|324:269,1,525.000020027161,2|0,0:0|0:0,0:0:0:0:
429,237,10589,6,0,L|450:69,1,140,4|8,0:0|0:0,0:0:0:0:
403,25,11118,2,0,P|353:51|255:24,1,140,8|8,0:0|0:0,0:0:0:0:
192,13,11648,2,0,L|98:18,1,70,8|0,0:0|0:0,0:0:0:0:
63,76,12001,6,0,B|53:125|76:166|76:166|65:239,1,140,4|8,0:0|0:0,0:0:0:0:
121,278,12530,2,0,P|201:288|256:240,1,140,0|8,0:0|0:0,0:0:0:0:
292,185,13059,2,0,L|364:195,1,70,8|0,0:0|0:0,0:0:0:0:
391,114,13412,6,0,L|226:92,1,140,4|8,0:0|0:0,0:0:0:0:
196,31,13942,2,0,P|168:87|209:165,1,140,8|8,0:0|0:0,0:0:0:0:
230,231,14471,2,0,L|145:245,1,70,8|0,0:0|0:0,0:0:0:0:
163,326,14824,6,0,L|335:300,1,140,4|8,0:0|0:0,0:0:0:0:
382,328,15354,2,0,P|317:280|343:208,1,140,0|8,0:0|0:0,0:0:0:0:
385,171,15883,2,0,L|481:189,1,70,8|8,0:0|0:0,0:0:0:0:
492,108,16236,5,4,0:0:0:0:
492,108,16412,1,0,0:0:0:0:
455,32,16589,2,0,L|386:44,1,70,8|0,0:0|0:0,0:0:0:0:
302,52,16942,2,0,L|210:38,1,70,0|0,0:0|0:0,0:0:0:0:
151,62,17295,2,0,P|142:125|155:157,1,70,8|0,0:0|0:0,0:0:0:0:
203,189,17648,6,0,P|132:164|58:207,1,140,4|8,0:0|0:0,0:0:0:0:
56,269,18177,1,0,0:0:0:0:
127,321,18354,2,0,L|138:252,1,70,0|0,0:0|0:0,0:0:0:0:
211,292,18706,2,0,L|221:361,1,70,8|0,0:0|0:0,0:0:0:0:
292,315,19059,6,0,P|334:297|437:335,1,140,4|8,0:0|0:0,0:0:0:0:
493,274,19589,1,0,0:0:0:0:
493,274,19765,2,0,L|499:183,1,70,0|0,0:0|0:0,0:0:0:0:
452,132,20118,2,0,L|458:41,1,70,8|0,0:0|0:0,0:0:0:0:
377,33,20471,6,0,B|341:20|341:20|295:49|232:35,1,140,8|8,0:0|0:0,0:0:0:0:
162,12,21001,1,0,0:3:0:0:
93,59,21177,1,8,0:0:0:0:
78,144,21354,1,0,0:3:0:0:
118,225,21530,2,0,L|104:298,1,70,2|2,0:0|0:1,0:0:0:0:
86,376,21883,5,8,0:0:0:0:
48,76,32295,5,0,0:0:0:0:
48,76,32383,1,0,0:0:0:0:
48,76,32471,5,8,0:0:0:0:
7,200,32648,1,8,0:0:0:0:
89,211,32824,2,0,P|140:198|162:162,1,70
206,126,33177,6,0,L|348:145,1,140,4|8,0:0|0:0,0:0:0:0:
413,96,33706,1,0,0:0:0:0:
448,173,33883,2,0,P|462:247|439:308,1,140,0|8,0:0|0:0,0:0:0:0:
358,325,34412,1,0,0:0:0:0:
358,325,34589,6,0,L|211:303,1,140,0|8,0:0|0:0,0:0:0:0:
135,314,35118,1,0,0:0:0:0:
56,301,35295,2,0,B|30:271|30:271|43:161,1,140,0|8,0:0|0:0,0:0:0:0:
43,87,35824,1,0,0:0:0:0:
126,66,36001,6,0,P|192:73|236:44,1,105,2|0,0:1|0:0,0:0:0:0:
259,32,36354,2,0,L|359:44,1,70,8|0,0:0|0:0,0:0:0:0:
312,124,36706,2,0,P|359:144|410:134,1,105
452,134,37059,2,0,L|459:205,1,70,8|0,0:0|0:0,0:0:0:0:
455,287,37412,6,0,B|408:275|408:275|329:297,1,105
311,297,37765,2,0,L|232:286,1,70,8|0,0:0|0:0,0:0:0:0:
228,204,38118,1,0,0:0:0:0:
279,137,38295,1,0,0:0:0:0:
223,72,38471,2,0,L|149:59,1,70,8|0,0:1|0:3,0:0:0:0:
124,92,38736,1,0,0:0:0:0:
124,92,38824,6,0,P|129:133|90:191,1,105,2|0,0:1|0:0,0:0:0:0:
55,189,39177,2,0,L|59:277,1,70,8|0,0:0|0:0,0:0:0:0:
117,319,39530,2,0,P|174:335|226:314,1,105
232,282,39883,2,0,L|320:291,1,70,8|0,0:0|0:0,0:0:0:0:
372,243,40236,5,0,0:0:0:0:
449,274,40412,1,0,0:0:0:0:
440,190,40589,2,0,L|454:96,1,70,8|0,0:0|0:0,0:0:0:0:
384,67,40942,2,0,L|378:21,2,35,0|0|0,0:0|0:0|0:0,0:0:0:0:
300,77,41295,2,0,L|294:31,2,35,8|0|0,0:0|0:0|0:0,0:0:0:0:
220,105,41648,5,12,0:0:0:0:
220,105,41824,2,0,L|123:93,1,70,8|0,0:0|0:0,0:0:0:0:
139,179,42177,1,12,0:0:0:0:
139,179,42353,2,0,L|236:191,1,70,8|0,0:0|0:0,0:0:0:0:
190,269,42706,1,12,0:0:0:0:
190,269,42882,2,0,L|93:257,1,70,8|0,0:0|0:0,0:0:0:0:
109,343,43235,1,12,0:0:0:0:
109,343,43412,2,0,L|206:355,1,70,8|0,0:0|0:0,0:0:0:0:
255,316,43765,6,0,P|315:325|366:303,1,105,12|0,0:0|0:0,0:0:0:0:
378,274,44118,2,0,L|429:279,2,35,8|0|0,0:0|0:0|0:0,0:0:0:0:
308,225,44471,2,0,P|274:146|290:108,1,105,8|0,0:1|0:0,0:0:0:0:
297,94,44824,2,0,L|227:98,1,70,8|0,0:0|0:0,0:0:0:0:
160,47,45177,2,0,L|90:51,2,70,0|0|8,0:0|0:0|0:0,0:0:0:0:
148,215,45883,6,0,L|29:222,1,105,0|0,0:0|0:0,0:0:0:0:
28,261,46236,2,0,P|26:308|34:337,1,70,8|0,0:0|0:0,0:0:0:0:
113,349,46589,2,0,L|195:342,2,70,0|0|8,0:0|0:0|0:0,0:0:0:0:
267,281,47295,6,0,L|397:286,1,105,0|0,0:0|0:0,0:0:0:0:
414,288,47648,1,8,0:0:0:0:
445,210,47824,1,0,0:0:0:0:
406,137,48001,2,0,P|330:107|283:122,1,105,0|0,0:0|0:0,0:0:0:0:
271,128,48354,1,8,0:0:0:0:
216,192,48530,1,0,0:0:0:0:
140,150,48706,6,0,L|51:140,1,70,8|0,0:1|0:0,0:0:0:0:
30,162,48971,1,0,0:0:0:0:
30,162,49059,2,0,P|17:220|26:255,1,70,8|0,0:0|0:0,0:0:0:0:
63,300,49412,1,0,0:0:0:0:
139,265,49589,1,8,0:1:0:0:
208,312,49765,2,0,L|292:308,1,70,8|0,0:0|0:0,0:0:0:0:
325,239,50118,6,0,L|448:233,1,105,4|0,0:0|0:0,0:0:0:0:
463,259,50471,2,0,L|463:187,1,70,8|0,0:0|0:0,0:0:0:0:
486,108,50824,2,0,L|363:114,1,105,8|0,0:0|0:0,0:0:0:0:
348,88,51177,2,0,L|348:160,1,70,8|0,0:0|0:0,0:0:0:0:
272,196,51530,6,0,P|204:188|180:141,1,105,0|0,0:0|0:0,0:0:0:0:
167,123,51883,2,0,L|91:138,1,70,8|8,0:0|0:0,0:0:0:0:
17,161,52236,1,0,0:0:0:0:
38,242,52412,1,8,0:0:0:0:
120,223,52589,1,8,0:0:0:0:
239,105,52942,6,0,L|366:118,2,105,4|4|8,0:0|0:0|0:0,0:0:0:0:
178,164,53648,2,0,L|51:177,2,105,4|8|8,0:0|0:0|0:0,0:0:0:0:
309,268,54530,5,12,0:0:0:0:
309,268,54706,2,0,P|321:222|318:185,1,70,12|0,0:0|0:0,0:0:0:0:
308,118,55059,1,0,0:0:0:0:
62,38,55765,6,0,L|195:36,1,105,4|0,0:0|0:0,0:0:0:0:
205,53,56118,2,0,P|210:98|203:128,1,70,8|0,0:0|0:0,0:0:0:0:
144,180,56471,1,0,0:0:0:0:
61,326,56824,2,0,L|143:315,1,70,8|0,0:0|0:0,0:0:0:0:
211,340,57177,6,0,P|279:355|326:335,1,105,2|0,0:1|0:0,0:0:0:0:
351,332,57530,2,0,L|341:242,1,70,8|0,0:0|0:0,0:0:0:0:
329,179,57883,1,0,0:0:0:0:
452,65,58236,2,0,L|443:147,1,70,8|0,0:0|0:0,0:0:0:0:
463,205,58589,6,0,B|377:174|377:174|303:181,1,140,4|8,0:0|0:0,0:0:0:0:
271,240,59118,1,0,0:0:0:0:
212,300,59295,2,0,P|185:237|215:175,1,140,0|8,0:0|0:0,0:0:0:0:
272,114,59824,1,0,0:0:0:0:
201,68,60001,6,0,L|103:81,1,70,4|0,0:0|0:0,0:0:0:0:
112,160,60354,2,0,L|14:173,1,70,0|0,0:0|0:0,0:0:0:0:
28,251,60706,2,0,P|32:329|85:368,1,140,0|8,0:0|0:0,0:0:0:0:
153,329,61236,1,0,0:0:0:0:
233,352,61412,6,0,L|352:353,1,105,4|0,0:0|0:0,0:0:0:0:
374,330,61765,2,0,P|390:284|383:249,1,70,8|0,0:0|0:0,0:0:0:0:
361,183,62118,1,0,0:0:0:0:
243,62,62471,2,0,L|143:73,1,70,8|0,0:0|0:0,0:0:0:0:
105,20,62824,6,0,P|89:93|120:138,1,105,2|0,0:1|0:0,0:0:0:0:
137,138,63177,2,0,L|126:227,1,70,8|0,0:0|0:0,0:0:0:0:
78,274,63530,2,0,P|148:231|203:264,1,140,0|8,0:0|0:0,0:0:0:0:
263,300,64059,1,0,0:0:0:0:
341,268,64236,6,0,L|335:178,1,70,4|0,0:0|0:0,0:0:0:0:
417,176,64589,2,0,L|411:86,1,70,8|0,0:0|0:0,0:0:0:0:
363,35,64942,2,0,P|329:28|295:34,1,70
332,108,65295,2,0,L|337:196,1,70,8|0,0:0|0:0,0:0:0:0:
255,150,65648,6,0,L|106:131,1,140,4|8,0:0|0:0,0:0:0:0:
57,192,66177,1,0,0:0:0:0:
101,263,66354,2,0,P|165:260|183:244,1,70,8|8,0:0|0:0,0:0:0:0:
198,229,66618,1,0,0:0:0:0:
198,229,66706,2,0,L|276:239,1,70,8|8,0:0|0:0,0:0:0:0:
329,295,67059,6,0,P|379:278|436:294,1,105,4|0,0:0|0:0,0:0:0:0:
461,315,67412,2,0,L|448:228,1,70,8|0,0:0|0:0,0:0:0:0:
401,177,67765,2,0,P|304:177|279:136,1,140,0|8,0:0|0:0,0:0:0:0:
304,67,68295,1,0,0:0:0:0:
372,18,68471,6,0,L|492:33,1,105,2|0,0:1|0:0,0:0:0:0:
495,68,68824,2,0,P|489:116|466:148,1,70,8|0,0:0|0:0,0:0:0:0:
414,188,69177,2,0,L|432:333,1,140,0|8,0:0|0:0,0:0:0:0:
348,343,69706,1,0,0:0:0:0:
269,313,69883,6,0,P|236:279|146:296,1,140,4|8,0:0|0:0,0:0:0:0:
80,337,70412,1,0,0:0:0:0:
80,337,70589,2,0,B|47:311|47:311|61:198,1,140,0|8,0:0|0:0,0:0:0:0:
73,130,71118,1,0,0:0:0:0:
73,130,71295,6,0,P|139:138|159:128,1,70,4|0,0:0|0:0,0:0:0:0:
177,61,71648,2,0,L|271:72,1,70,8|0,0:0|0:0,0:0:0:0:
323,34,72001,1,0,0:0:0:0:
396,73,72177,1,8,0:0:0:0:
471,35,72354,2,0,P|479:91|469:118,1,70,8|0,0:0|0:0,0:0:0:0:
412,158,72706,6,0,P|401:237|423:275,1,105,4|0,0:0|0:0,0:0:0:0:
440,286,73059,2,0,L|343:274,1,70,8|0,0:0|0:0,0:0:0:0:
301,326,73412,2,0,L|166:335,1,105,0|0,0:0|0:0,0:0:0:0:
154,339,73765,1,8,0:0:0:0:
86,185,74118,6,0,P|67:124|95:61,1,105,2|0,0:1|0:0,0:0:0:0:
100,50,74471,2,0,L|203:57,1,70,8|0,0:0|0:0,0:0:0:0:
232,110,74824,2,0,L|328:117,2,70,0|0|8,0:0|0:0|0:0,0:0:0:0:
251,27,75354,1,0,0:0:0:0:
334,35,75530,6,0,P|406:38|430:48,1,70,4|0,0:0|0:0,0:0:0:0:
481,69,75883,1,8,0:0:0:0:
347,171,76236,2,0,P|275:174|251:184,1,70,4|0,0:0|0:0,0:0:0:0:
200,205,76589,1,8,0:0:0:0:
302,337,76942,6,0,L|320:245,1,70,4|0,0:0|0:0,0:0:0:0:
396,291,77295,2,0,L|409:222,1,70,8|0,0:0|0:0,0:0:0:0:
451,149,77648,2,0,P|406:139|379:147,1,70,4|0,0:0|0:0,0:0:0:0:
342,150,77912,1,0,0:0:0:0:
342,150,78001,2,0,P|307:155|274:145,1,70,8|8,0:0|0:0,0:0:0:0:
213,87,78354,6,0,L|99:75,1,93.3333333333333,4|0,0:0|0:0,0:0:0:0:
66,73,78706,2,0,P|58:125|69:152,1,70,8|0,0:0|0:0,0:0:0:0:
65,223,79059,2,0,L|174:215,1,93.3333333333333,8|0,0:0|0:0,0:0:0:0:
212,213,79412,2,0,P|220:265|209:292,1,70,8|0,0:0|0:0,0:0:0:0:
152,337,79765,6,0,P|206:364|261:349,1,93.3333333333333,8|0,0:0|0:0,0:0:0:0:
282,332,80118,2,0,L|373:339,1,70,8|0,0:0|0:0,0:0:0:0:
418,286,80471,2,0,P|437:225|415:168,1,93.3333333333333,8|0,0:0|0:0,0:0:0:0:
393,160,80824,2,0,L|306:156,1,70,8|0,0:0|0:0,0:0:0:0:
260,100,81177,6,0,P|203:120|143:101,1,93.3333333333333,8|0,0:0|0:0,0:0:0:0:
137,76,81530,2,0,L|34:84,1,70,8|0,0:0|0:0,0:0:0:0:
29,156,81883,2,0,P|12:233|34:266,1,93.3333333333333,8|0,0:0|0:0,0:0:0:0:
60,268,82236,2,0,L|52:346,1,70,8|0,0:0|0:0,0:0:0:0:
137,338,82589,6,0,P|187:315|250:335,1,93.3333333333333,8|0,0:0|0:0,0:0:0:0:
266,351,82942,2,0,L|366:353,1,70,8|0,0:0|0:0,0:0:0:0:
420,349,83295,2,0,B|441:316|441:316|434:240,1,93.3333333333333,8|0,0:0|0:0,0:0:0:0:
408,218,83648,2,0,L|497:230,1,70,8|0,0:0|0:0,0:0:0:0:
484,143,84001,6,0,L|372:126,1,93.3333333333333,8|0,0:0|0:0,0:0:0:0:
356,92,84354,2,0,P|322:130|285:138,1,70,8|0,0:0|0:0,0:0:0:0:
223,116,84706,2,0,P|149:95|108:109,1,93.3333333333333,8|0,0:0|0:0,0:0:0:0:
87,123,85059,2,0,L|80:53,1,70,8|0,0:0|0:0,0:0:0:0:
8,96,85412,6,0,P|-4:169|23:212,1,93.3333333333333,8|0,0:0|0:0,0:0:0:0:
48,203,85765,2,0,L|52:283,1,70,8|0,0:0|0:0,0:0:0:0:
120,321,86118,2,0,L|246:311,1,105,8|8,0:0|0:0,0:0:0:0:
256,343,86471,2,0,L|336:351,1,70
394,301,86824,6,0,P|412:251|403:213,1,70,8|0,0:0|0:0,0:0:0:0:
397,194,87089,1,0,0:0:0:0:
397,194,87177,2,0,L|305:206,1,70,8|0,0:0|0:0,0:0:0:0:
248,172,87530,2,0,P|232:126|237:99,2,70,8|0|8,0:0|0:0|0:0,0:0:0:0:
253,256,88059,1,8,0:0:0:0:
192,314,88236,6,0,L|44:305,1,140,12|8,0:0|0:0,0:0:0:0:
121,151,88942,2,0,L|269:142,1,140,8|8,0:0|0:0,0:0:0:0:
383,258,89648,5,12,0:0:0:0:
256,192,89736,12,0,95118,0:0:0:0:
