osu file format v14

[General]
AudioFilename: audio.mp3
AudioLeadIn: 0
PreviewTime: 54949
Countdown: 0
SampleSet: Normal
StackLeniency: 0.7
Mode: 0
LetterboxInBreaks: 0
WidescreenStoryboard: 0

[Editor]
DistanceSpacing: 0.8
BeatDivisor: 1
GridSize: 32
TimelineZoom: 1

[Metadata]
Title:
TitleUnicode:Маленький бард
Artist:ItAllCanWait
ArtistUnicode:ItAllCanWait
Creator:MYXA01010
Version:Normal
Source:по геншину
Tags:GENSHIN
BeatmapID:4537576
BeatmapSetID:2153512

[Difficulty]
HPDrainRate:8
CircleSize:6
OverallDifficulty:6
ApproachRate:7
SliderMultiplier:1.4
SliderTickRate:1

[Events]
//Background and Video events
0,0,"48970e337eaad2f2b371b9f6786e0798.jpg",0,0
//Break Periods
2,18603,27027
2,125746,129884
//Storyboard Layer 0 (Background)
//Storyboard Layer 1 (Fail)
//Storyboard Layer 2 (Pass)
//Storyboard Layer 3 (Foreground)
//Storyboard Layer 4 (Overlay)
//Storyboard Sound Samples

[TimingPoints]
308.428571428571,476.190476190476,4,1,0,100,1,0

[HitObjects]
89,151,308,5,0,0:0:0:0:
144,216,784,1,0,0:0:0:0:
326,131,1260,1,0,0:0:0:0:
321,186,1737,1,0,0:0:0:0:
117,157,2213,1,0,0:0:0:0:
174,212,2689,1,0,0:0:0:0:
175,128,3165,1,0,0:0:0:0:
135,235,4117,1,0,0:0:0:0:
269,65,4594,1,0,0:0:0:0:
271,254,5070,1,0,0:0:0:0:
401,163,5546,1,0,0:0:0:0:
216,244,6022,1,0,0:0:0:0:
233,262,6498,1,0,0:0:0:0:
331,175,7451,1,0,0:0:0:0:
166,262,8879,1,0,0:0:0:0:
270,168,9356,1,0,0:0:0:0:
231,224,9832,1,0,0:0:0:0:
231,239,10308,1,0,0:0:0:0:
266,164,10784,1,0,0:0:0:0:
283,168,11260,1,0,0:0:0:0:
150,74,11737,1,0,0:0:0:0:
207,131,12213,1,0,0:0:0:0:
394,265,12689,1,0,0:0:0:0:
178,243,13165,1,0,0:0:0:0:
343,235,13641,1,0,0:0:0:0:
256,192,14117,12,0,18403,0:0:0:0:
321,98,27927,5,0,0:0:0:0:
280,192,28403,1,0,0:0:0:0:
198,96,28879,1,0,0:0:0:0:
150,188,29356,1,0,0:0:0:0:
212,124,29832,1,0,0:0:0:0:
175,123,30308,1,0,0:0:0:0:
140,136,30784,1,0,0:0:0:0:
329,103,31260,1,0,0:0:0:0:
229,28,31737,1,0,0:0:0:0:
304,142,32213,1,0,0:0:0:0:
169,70,33165,1,0,0:0:0:0:
383,57,33641,1,0,0:0:0:0:
357,219,34117,1,0,0:0:0:0:
169,48,35070,1,0,0:0:0:0:
252,85,35546,1,0,0:0:0:0:
71,170,36498,1,0,0:0:0:0:
228,144,36975,1,0,0:0:0:0:
78,251,37927,1,0,0:0:0:0:
219,215,38403,1,0,0:0:0:0:
136,129,39832,1,0,0:0:0:0:
223,91,40308,1,0,0:0:0:0:
268,121,40784,1,0,0:0:0:0:
369,105,41260,1,0,0:0:0:0:
148,231,41737,1,0,0:0:0:0:
149,199,43165,1,0,0:0:0:0:
274,197,43641,1,0,0:0:0:0:
335,216,44117,1,0,0:0:0:0:
77,170,44594,1,0,0:0:0:0:
235,129,45070,1,0,0:0:0:0:
373,137,45546,1,0,0:0:0:0:
88,212,47451,1,0,0:0:0:0:
134,119,47927,1,0,0:0:0:0:
185,211,48403,1,0,0:0:0:0:
248,223,49356,1,0,0:0:0:0:
176,200,50784,1,0,0:0:0:0:
156,91,51260,1,0,0:0:0:0:
267,152,51737,1,0,0:0:0:0:
173,161,52213,1,0,0:0:0:0:
219,132,52689,1,0,0:0:0:0:
227,248,53165,1,0,0:0:0:0:
120,211,55070,1,0,0:0:0:0:
148,217,55546,1,0,0:0:0:0:
238,115,56022,1,0,0:0:0:0:
256,263,56498,1,0,0:0:0:0:
153,133,56975,1,0,0:0:0:0:
331,182,57451,1,0,0:0:0:0:
229,267,57927,1,0,0:0:0:0:
97,149,58879,1,0,0:0:0:0:
219,185,59356,1,0,0:0:0:0:
171,266,59832,1,0,0:0:0:0:
151,132,60308,1,0,0:0:0:0:
288,250,60784,1,0,0:0:0:0:
148,173,61260,1,0,0:0:0:0:
299,212,61737,1,0,0:0:0:0:
171,186,62213,1,0,0:0:0:0:
309,201,62689,1,0,0:0:0:0:
99,254,63165,1,0,0:0:0:0:
281,264,63641,1,0,0:0:0:0:
101,179,64117,1,0,0:0:0:0:
113,249,64594,1,0,0:0:0:0:
282,237,65070,1,0,0:0:0:0:
147,146,65546,1,0,0:0:0:0:
330,148,66022,1,0,0:0:0:0:
49,227,66498,1,0,0:0:0:0:
277,240,66975,1,0,0:0:0:0:
207,138,67451,1,0,0:0:0:0:
197,98,67927,1,0,0:0:0:0:
244,174,68403,1,0,0:0:0:0:
256,192,68879,12,0,72213,0:0:0:0:
115,140,76022,5,0,0:0:0:0:
234,136,76498,1,0,0:0:0:0:
238,234,76975,1,0,0:0:0:0:
292,158,77451,1,0,0:0:0:0:
179,136,77927,1,0,0:0:0:0:
159,206,78403,1,0,0:0:0:0:
177,101,78879,1,0,0:0:0:0:
183,172,79356,1,0,0:0:0:0:
271,175,79832,1,0,0:0:0:0:
180,187,80308,1,0,0:0:0:0:
219,172,80784,1,0,0:0:0:0:
154,134,81260,1,0,0:0:0:0:
243,126,81737,1,0,0:0:0:0:
210,215,82213,1,0,0:0:0:0:
153,228,82689,1,0,0:0:0:0:
267,120,83165,1,0,0:0:0:0:
259,222,83641,1,0,0:0:0:0:
280,149,84117,1,0,0:0:0:0:
279,215,84594,1,0,0:0:0:0:
175,159,85070,1,0,0:0:0:0:
241,163,85546,1,0,0:0:0:0:
136,250,86022,1,0,0:0:0:0:
179,206,86498,1,0,0:0:0:0:
181,213,86975,1,0,0:0:0:0:
181,213,87451,1,0,0:0:0:0:
181,213,87927,1,0,0:0:0:0:
275,179,88403,1,0,0:0:0:0:
91,146,89356,1,0,0:0:0:0:
352,130,90308,1,0,0:0:0:0:
121,150,92213,1,0,0:0:0:0:
210,159,92689,1,0,0:0:0:0:
210,202,93165,1,0,0:0:0:0:
299,193,93641,1,0,0:0:0:0:
99,176,95070,1,0,0:0:0:0:
204,140,95546,1,0,0:0:0:0:
280,214,96022,1,0,0:0:0:0:
114,207,96498,1,0,0:0:0:0:
318,189,96975,1,0,0:0:0:0:
158,248,98879,1,0,0:0:0:0:
178,205,99356,1,0,0:0:0:0:
264,276,99832,1,0,0:0:0:0:
123,157,100308,1,0,0:0:0:0:
177,264,100784,1,0,0:0:0:0:
226,128,101260,1,0,0:0:0:0:
187,204,102213,1,0,0:0:0:0:
290,276,103165,1,0,0:0:0:0:
245,216,103641,1,0,0:0:0:0:
185,254,104117,1,0,0:0:0:0:
220,241,104594,1,0,0:0:0:0:
275,227,105070,1,0,0:0:0:0:
121,125,105546,1,0,0:0:0:0:
331,172,106022,1,0,0:0:0:0:
291,247,106498,1,0,0:0:0:0:
226,120,106975,1,0,0:0:0:0:
148,244,107451,1,0,0:0:0:0:
284,284,107927,1,0,0:0:0:0:
347,159,108403,1,0,0:0:0:0:
184,151,108879,1,0,0:0:0:0:
251,284,109356,1,0,0:0:0:0:
389,221,109832,1,0,0:0:0:0:
226,159,110308,1,0,0:0:0:0:
285,268,110784,1,0,0:0:0:0:
281,123,111260,1,0,0:0:0:0:
239,210,111737,1,0,0:0:0:0:
114,134,112213,1,0,0:0:0:0:
198,88,112689,1,0,0:0:0:0:
178,250,113165,1,0,0:0:0:0:
166,91,113641,1,0,0:0:0:0:
87,222,114117,1,0,0:0:0:0:
220,216,114594,1,0,0:0:0:0:
88,190,115070,1,0,0:0:0:0:
229,219,115546,1,0,0:0:0:0:
256,192,116022,12,0,119355,0:0:0:0:
134,90,116022,5,0,0:0:0:0:
182,256,116498,1,0,0:0:0:0:
256,192,119832,12,0,122689,0:0:0:0:
256,192,123165,12,0,125546,0:0:0:0:
146,194,130784,5,0,0:0:0:0:
255,85,131260,1,0,0:0:0:0:
262,214,131737,1,0,0:0:0:0:
124,75,132213,1,0,0:0:0:0:
111,200,132689,1,0,0:0:0:0:
249,225,133165,1,0,0:0:0:0:
129,219,134117,1,0,0:0:0:0:
277,96,134594,1,0,0:0:0:0:
275,229,135070,1,0,0:0:0:0:
131,158,135546,1,0,0:0:0:0:
284,107,136022,1,0,0:0:0:0:
171,229,136498,1,0,0:0:0:0:
203,210,137927,1,0,0:0:0:0:
97,120,138403,1,0,0:0:0:0:
118,232,138879,1,0,0:0:0:0:
293,136,139356,1,0,0:0:0:0:
300,245,139832,1,0,0:0:0:0:
160,238,140308,1,0,0:0:0:0:
259,107,140784,1,0,0:0:0:0:
268,256,141260,1,0,0:0:0:0:
72,158,141737,1,0,0:0:0:0:
328,189,142213,1,0,0:0:0:0:
117,250,142689,1,0,0:0:0:0:
253,270,143165,1,0,0:0:0:0:
315,141,143641,1,0,0:0:0:0:
151,144,144117,1,0,0:0:0:0:
310,246,144594,1,0,0:0:0:0:
344,150,145070,1,0,0:0:0:0:
134,199,145546,1,0,0:0:0:0:
130,107,146022,1,0,0:0:0:0:
311,200,146498,1,0,0:0:0:0:
290,265,146975,1,0,0:0:0:0:
134,197,147451,1,0,0:0:0:0:
228,288,147927,1,0,0:0:0:0:
183,153,148403,1,0,0:0:0:0:
137,259,148879,1,0,0:0:0:0:
337,289,149356,1,0,0:0:0:0:
233,183,149832,1,0,0:0:0:0:
208,269,150308,1,0,0:0:0:0:
188,109,150784,1,0,0:0:0:0:
349,213,151260,1,0,0:0:0:0:
250,276,151737,1,0,0:0:0:0:
258,176,152213,1,0,0:0:0:0:
234,244,152689,1,0,0:0:0:0:
157,223,153165,1,0,0:0:0:0:
341,165,153641,1,0,0:0:0:0:
347,250,154117,1,0,0:0:0:0:
418,101,154594,1,0,0:0:0:0:
302,165,155070,1,0,0:0:0:0:
415,166,155546,1,0,0:0:0:0:
266,224,156022,1,0,0:0:0:0:
315,131,156498,1,0,0:0:0:0:
290,283,156975,1,0,0:0:0:0:
161,351,157451,1,0,0:0:0:0:
218,126,157927,1,0,0:0:0:0:
256,192,158403,12,0,162689,0:0:0:0:
