osu file format v14

[General]
AudioFilename: audio.mp3
AudioLeadIn: 0
PreviewTime: -1
Countdown: 1
SampleSet: None
StackLeniency: 0.2
Mode: 0
LetterboxInBreaks: 0
WidescreenStoryboard: 1

[Editor]
DistanceSpacing: 1.4
BeatDivisor: 16
GridSize: 4
TimelineZoom: 1

[Metadata]
Title:Autot vezet a Mano
TitleUnicode:Autot vezet a Mano
Artist:Iszkiri Zenekar
ArtistUnicode:Iszkiri Zenekar
Creator:mqno
Version:ha asziszedj ovagy
Source:
Tags:
BeatmapID:1547758
BeatmapSetID:732499

[Difficulty]
HPDrainRate:6
CircleSize:3.8
OverallDifficulty:5
ApproachRate:5
SliderMultiplier:1.69999990463257
SliderTickRate:1

[Events]
//Background and Video events
0,0,"dikmeghalsz.png",0,0
//Break Periods
2,78320,83712
//Storyboard Layer 0 (Background)
//Storyboard Layer 1 (Fail)
//Storyboard Layer 2 (Pass)
//Storyboard Layer 3 (Foreground)
//Storyboard Sound Samples

[TimingPoints]
35823,419.58041958042,4,1,0,100,1,0
40805,-76.9230769230769,4,1,0,100,0,0
41225,-100,4,1,0,100,0,0
45406,-83.3333333333333,4,1,0,100,0,0
49064,419.58041958042,4,1,0,100,1,0
49064,-83.3333333333333,4,1,0,100,0,0
101931,-50,4,1,0,100,0,0
102560,-83.3333333333333,4,1,0,100,0,0

[HitObjects]
71,60,35770,6,0,P|120:53|162:57,1,85
144,136,36190,2,0,B|184:152|228:149,1,84.9999952316283
281,41,36610,1,0,0:0:0:0:
331,148,36819,1,0,0:0:0:0:
424,56,37028,1,0,0:0:0:0:
331,148,37238,1,0,0:0:0:0:
444,232,37448,1,0,0:0:0:0:
415,347,37659,5,0,0:0:0:0:
301,359,37868,2,0,L|195:342,1,84.9999952316283
281,248,38288,5,0,0:0:0:0:
133,241,38498,1,0,0:0:0:0:
356,253,38708,5,0,0:0:0:0:
208,246,38917,1,0,0:0:0:0:
446,262,39127,2,0,B|456:196|382:163|382:163|449:117,1,169.999990463257
498,63,39757,1,0,0:0:0:0:
386,59,39965,2,0,L|266:57,1,84.9999952316285
386,59,40385,1,0,0:0:0:0:
205,156,40595,1,0,0:0:0:0:
70,68,40805,6,0,L|36:172,1,96.6874901499754
70,68,41225,6,0,L|42:157,1,84.9999952316285
66,309,41644,1,0,0:0:0:0:
328,292,41854,1,0,0:0:0:0:
332,296,41959,1,0,0:0:0:0:
336,300,42064,1,0,0:0:0:0:
184,259,42274,1,0,0:0:0:0:
160,96,42483,5,0,0:0:0:0:
261,52,42693,2,0,P|323:51|369:83,1,116.874993443489
426,194,43165,1,0,0:0:0:0:
276,144,43375,1,0,0:0:0:0:
372,312,43585,1,0,0:0:0:0:
287,312,43795,1,0,0:0:0:0:
202,312,44004,5,0,0:0:0:0:
202,312,44214,6,0,L|302:312,1,84.9999952316285
372,312,44634,2,0,L|272:312,1,84.9999952316285
287,312,45053,1,0,0:0:0:0:
202,312,45263,1,0,0:0:0:0:
85,302,45474,2,0,P|90:243|108:197,1,101.999996887207
268,216,45893,5,0,0:0:0:0:
150,45,46103,1,0,0:0:0:0:
333,62,46313,1,0,0:0:0:0:
194,173,46523,1,0,0:0:0:0:
353,136,46733,1,0,0:0:0:0:
297,315,46942,1,0,0:0:0:0:
142,232,47152,2,0,B|118:193|118:193|73:192|86:133|86:133|119:122|119:122|100:88|118:57|132:57,1,203.999993774414
259,48,47782,5,0,0:0:0:0:
183,87,47991,1,0,0:0:0:0:
363,90,48201,1,0,0:0:0:0:
426,273,48411,1,0,0:0:0:0:
450,151,48621,1,0,0:0:0:0:
315,329,48830,1,0,0:0:0:0:
320,197,49065,6,0,B|228:213|236:262|236:262|199:298|199:298|146:292,1,203.999993774414
89,188,49694,1,0,0:0:0:0:
282,100,49904,1,0,0:0:0:0:
144,56,50113,1,0,0:0:0:0:
432,43,50323,2,0,B|480:146|410:186|410:186|468:225|468:225|468:219,1,203.999993774414
454,227,50848,5,0,0:0:0:0:
459,242,50953,2,0,B|385:311|385:311|388:311,1,101.999996887207
271,208,51372,1,0,0:0:0:0:
309,55,51582,2,0,B|203:3|206:138|93:57,1,203.999993774414
55,174,52211,1,0,0:0:0:0:
201,260,52421,5,0,0:0:0:0:
279,177,52631,5,0,0:0:0:0:
129,342,52841,5,0,0:0:0:0:
348,341,53051,6,0,P|453:294|453:293,1,101.999996887207
369,260,53470,2,0,P|431:163|430:162,1,101.999996887207
374,180,53890,1,0,0:0:0:0:
457,40,54099,6,0,L|343:49,1,101.999996887207
115,151,54519,2,0,L|216:142,1,101.999996887207
246,41,54939,1,0,0:0:0:0:
187,256,55148,1,0,0:0:0:0:
320,337,55358,2,0,P|381:347|429:338,1,101.999996887207
387,72,55778,1,0,0:0:0:0:
115,113,55988,5,0,0:0:0:0:
331,267,56197,1,0,0:0:0:0:
262,87,56407,1,0,0:0:0:0:
99,332,56617,1,0,0:0:0:0:
451,297,56827,1,0,0:0:0:0:
175,157,57037,1,0,0:0:0:0:
327,366,57246,1,0,0:0:0:0:
437,126,57456,5,0,0:0:0:0:
210,57,57666,1,0,0:0:0:0:
315,141,57876,2,0,L|338:257,1,101.999996887207
470,302,58295,2,0,B|396:310|396:310|348:343|314:337|314:337|289:332|263:281|263:281|204:321,1,305.999990661621
220,53,59134,5,0,0:0:0:0:
404,339,59344,1,0,0:0:0:0:
353,36,59554,1,0,0:0:0:0:
146,328,59764,1,0,0:0:0:0:
453,125,59974,1,0,0:0:0:0:
71,166,60183,1,0,0:0:0:0:
453,125,60393,5,0,0:0:0:0:
166,18,60603,1,0,0:0:0:0:
345,250,60813,1,0,0:0:0:0:
34,127,61023,1,0,0:0:0:0:
359,73,61232,1,0,0:0:0:0:
187,281,61442,1,0,0:0:0:0:
361,348,61652,2,0,P|446:344|459:237,1,203.999993774414
96,37,62491,5,0,0:0:0:0:
468,59,62701,1,0,0:0:0:0:
116,313,62911,1,0,0:0:0:0:
224,28,63120,1,0,0:0:0:0:
491,318,63330,1,0,0:0:0:0:
30,134,63540,1,0,0:0:0:0:
303,52,63750,1,0,0:0:0:0:
217,185,63960,1,0,0:0:0:0:
482,56,64169,5,0,0:0:0:0:
429,315,64379,1,0,0:0:0:0:
175,49,64589,1,0,0:0:0:0:
423,169,64799,1,0,0:0:0:0:
85,338,65009,2,0,L|59:234,1,101.999996887207
180,21,65428,2,0,L|205:125,1,101.999996887207
359,51,65847,5,0,0:0:0:0:
364,54,65953,1,0,0:0:0:0:
369,58,66058,2,0,P|416:122|424:187,1,101.999996887207
232,137,66477,1,0,0:0:0:0:
342,235,66687,1,0,0:0:0:0:
150,291,66897,1,0,0:0:0:0:
426,27,67106,1,0,0:0:0:0:
438,332,67316,1,0,0:0:0:0:
59,69,67526,1,0,0:0:0:0:
355,87,67736,5,0,0:0:0:0:
208,285,67946,1,0,0:0:0:0:
172,106,68155,1,0,0:0:0:0:
355,87,68365,2,0,B|404:123|419:172,1,101.999996887207
256,192,68785,12,0,71285,0:0:0:0:
96,68,71617,6,0,L|184:59,1,85
182,155,72037,2,0,L|276:165,1,85
266,63,72456,2,0,L|356:50,1,85
356,52,72771,1,0,0:0:0:0:
362,53,72876,1,0,0:0:0:0:
374,199,73085,5,0,0:0:0:0:
379,203,73295,2,0,B|377:274|322:330,1,101.999996887207
224,280,73715,2,0,L|135:346,1,101.999996887207
105,173,74134,1,0,0:0:0:0:
142,340,74344,1,0,0:0:0:0:
383,273,74554,1,0,0:0:0:0:
415,291,74659,1,0,0:0:0:0:
412,252,74764,1,0,0:0:0:0:
203,243,74974,5,0,0:0:0:0:
145,69,75183,2,0,B|208:64|253:91|253:91|294:52|340:57,1,203.999993774414
481,96,75813,1,0,0:0:0:0:
437,99,75918,1,0,0:0:0:0:
466,134,76023,2,0,B|456:204|456:204|509:273|451:327,1,203.999993774414
356,264,76652,2,0,L|308:155,1,101.999996887207
236,263,77071,2,0,L|207:362,1,101.999996887207
80,277,77491,1,0,0:0:0:0:
103,271,77596,1,0,0:0:0:0:
90,272,77701,2,0,B|58:83|106:262|80:66,1,203.999993774414
91,55,84912,6,0,L|226:69,1,101.999996887207
216,175,85331,1,0,0:0:0:0:
369,44,85541,1,0,0:0:0:0:
419,144,85751,1,0,0:0:0:0:
164,53,85961,1,0,0:0:0:0:
65,102,86170,2,0,L|43:225,1,101.999996887207
188,171,86590,1,0,0:0:0:0:
71,337,86800,5,0,0:0:0:0:
168,285,87010,2,0,L|276:298,1,101.999996887207
377,359,87429,2,0,B|487:302,1,101.999996887207
435,122,87849,2,0,L|389:214,1,101.999996887207
389,213,88163,1,0,0:0:0:0:
404,224,88268,1,0,0:0:0:0:
303,147,88478,6,0,L|186:167,1,101.999996887207
221,41,88898,1,0,0:0:0:0:
59,225,89107,1,0,0:0:0:0:
202,164,89317,1,0,0:0:0:0:
183,374,89527,1,0,0:0:0:0:
446,273,89737,1,0,0:0:0:0:
141,105,89947,5,0,0:0:0:0:
500,38,90156,1,0,0:0:0:0:
172,329,90366,1,0,0:0:0:0:
502,206,90576,1,0,0:0:0:0:
65,35,90786,1,0,0:0:0:0:
479,87,90996,1,0,0:0:0:0:
470,331,91205,2,0,P|397:278|362:298,1,101.999996887207
308,352,91625,6,0,L|195:339,1,101.999996887207
104,284,92044,1,0,0:0:0:0:
249,49,92254,1,0,0:0:0:0:
394,73,92464,1,0,0:0:0:0:
394,73,92569,1,0,0:0:0:0:
394,73,92674,2,0,B|437:105|443:164,1,101.999996887207
304,137,93093,1,0,0:0:0:0:
438,330,93303,2,0,L|324:322,1,101.999996887207
42,104,93723,2,0,L|143:111,1,101.999996887207
412,232,94142,1,0,0:0:0:0:
86,319,94352,5,0,0:0:0:0:
86,319,94457,1,0,0:0:0:0:
86,319,94562,2,0,L|66:169,1,101.999996887207
136,57,94982,1,0,0:0:0:0:
136,57,95086,1,0,0:0:0:0:
136,57,95191,1,0,0:0:0:0:
136,57,95296,1,0,0:0:0:0:
136,57,95401,2,0,L|253:74,1,101.999996887207
411,64,95794,5,0,0:0:0:0:
444,324,96004,1,0,0:0:0:0:
195,138,96213,5,0,0:0:0:0:
468,156,96423,1,0,0:0:0:0:
312,356,96633,1,0,0:0:0:0:
56,147,96843,5,0,0:0:0:0:
299,43,97053,1,0,0:0:0:0:
310,238,97262,1,0,0:0:0:0:
180,311,97445,1,0,0:0:0:0:
44,41,97655,5,0,0:0:0:0:
446,127,97865,1,0,0:0:0:0:
109,176,98075,1,0,0:0:0:0:
277,75,98284,1,0,0:0:0:0:
393,285,98494,1,0,0:0:0:0:
134,69,98704,5,0,0:0:0:0:
479,254,98914,1,0,0:0:0:0:
249,136,99124,1,0,0:0:0:0:
81,63,100620,6,0,L|211:72,1,101.999996887207
180,173,101039,2,0,P|217:200|271:212,1,85
207,298,101458,2,0,P|244:324|298:336,1,85
311,137,101878,6,0,P|386:166|383:276,1,203.999982330323
281,221,102508,5,0,0:0:0:0:
216,332,102717,1,0,0:0:0:0:
98,314,102927,2,0,P|57:299|23:242,1,99.9999952316283
126,199,103373,2,0,B|64:97|64:97|109:37,1,149.999992847443
102,62,103792,1,0,0:0:0:0:
119,54,103897,1,0,0:0:0:0:
136,47,104002,1,0,0:0:0:0:
231,140,104264,6,0,L|360:133,1,99.9999952316283
344,38,104683,2,0,L|466:86,1,99.9999952316283
400,149,105103,2,0,L|463:269,1,99.9999952316283
354,246,105523,2,0,P|323:355|323:355,1,99.9999952316283
253,288,105942,2,0,B|174:254|163:366|56:296,1,199.999990463257
173,173,106546,1,0,0:0:0:0:
82,53,106755,2,0,B|211:92|236:26|236:26|303:113|352:65|352:65|320:25|320:25|385:19,1,399.999980926513
460,345,107806,5,0,0:0:0:0:
370,246,108016,1,0,0:0:0:0:
248,347,108225,1,0,0:0:0:0:
223,151,108435,1,0,0:0:0:0:
39,339,108645,1,0,0:0:0:0:
34,42,108855,1,0,0:0:0:0:
190,280,109065,1,0,0:0:0:0:
487,32,109274,5,0,0:0:0:0:
51,346,109484,1,0,0:0:0:0:
157,51,109694,1,0,0:0:0:0:
463,326,109904,1,0,0:0:0:0:
280,42,110113,1,0,0:0:0:0:
186,343,110323,1,0,0:0:0:0:
280,42,110533,5,0,0:0:0:0:
477,254,110743,5,0,0:0:0:0:
26,312,110953,5,0,0:0:0:0:
438,45,111162,5,0,0:0:0:0:
364,358,111372,5,0,0:0:0:0:
37,39,111582,5,0,0:0:0:0:
407,93,111792,5,0,0:0:0:0:
37,39,112002,5,0,0:0:0:0:
232,319,112211,5,0,0:0:0:0:
407,93,112421,5,0,0:0:0:0:
37,39,112631,5,0,0:0:0:0:
232,319,112841,5,0,0:0:0:0:
37,39,113051,5,0,0:0:0:0:
232,319,113260,5,0,0:0:0:0:
407,93,113470,5,0,0:0:0:0:
259,29,113680,2,0,L|141:34,1,101.999991165162
219,156,114099,5,0,0:0:0:0:
314,297,114309,1,0,0:0:0:0:
136,299,114519,1,0,0:0:0:0:
314,297,114729,1,0,0:0:0:0:
219,156,114939,5,0,0:0:0:0:
219,156,115148,5,0,0:0:0:0:
314,297,115358,1,0,0:0:0:0:
136,299,115568,5,0,0:0:0:0:
219,156,115778,1,0,0:0:0:0:
362,78,115988,5,0,0:0:0:0:
439,334,116197,1,0,0:0:0:0:
25,158,116407,1,0,0:0:0:0:
371,207,116617,1,0,0:0:0:0:
25,158,116827,1,0,0:0:0:0:
439,334,117037,1,0,0:0:0:0:
299,84,117246,1,0,0:0:0:0:
299,84,117456,1,0,0:0:0:0:
101,322,117666,5,0,0:0:0:0:
101,322,117771,5,0,0:0:0:0:
101,322,117876,5,0,0:0:0:0:
432,167,118085,1,0,0:0:0:0:
69,54,118295,1,0,0:0:0:0:
334,300,118505,5,0,0:0:0:0:
432,167,118715,1,0,0:0:0:0:
69,54,118925,1,0,0:0:0:0:
432,167,119134,1,0,0:0:0:0:
334,300,119344,1,0,0:0:0:0:
243,129,119554,5,0,0:0:0:0:
243,129,119659,5,0,0:0:0:0:
243,129,119764,5,0,0:0:0:0:
243,129,119869,5,0,0:0:0:0:
243,129,119974,6,0,P|92:122|71:156,1,203.999982330323
177,283,120603,5,0,0:0:0:0:
427,311,120813,1,0,0:0:0:0:
427,311,120918,1,0,0:0:0:0:
427,311,121023,1,0,0:0:0:0:
337,47,121232,1,0,0:0:0:0:
79,308,121442,1,0,0:0:0:0:
506,168,121652,1,0,0:0:0:0:
17,32,121862,1,0,0:0:0:0:
359,367,122071,5,0,0:0:0:0:
362,13,122281,1,0,0:0:0:0:
17,32,122491,1,0,0:0:0:0:
414,227,122701,1,0,0:0:0:0:
362,13,122911,1,0,0:0:0:0:
362,13,123120,1,0,0:0:0:0:
414,227,123330,1,0,0:0:0:0:
57,333,123540,1,0,0:0:0:0:
157,35,123750,2,0,L|300:58,1,101.999991165162
464,280,124169,5,0,0:0:0:0:
59,122,124379,5,0,0:0:0:0:
59,122,124484,1,0,0:0:0:0:
59,122,124589,5,0,0:0:0:0:
230,352,124799,1,0,0:0:0:0:
377,167,125009,5,0,0:0:0:0:
93,49,125218,1,0,0:0:0:0:
230,352,125428,5,0,0:0:0:0:
422,90,125638,1,0,0:0:0:0:
230,352,125848,5,0,0:0:0:0:
93,49,126058,1,0,0:0:0:0:
422,90,126267,1,0,0:0:0:0:
377,167,126477,1,0,0:0:0:0:
73,260,126687,5,0,0:0:0:0:
407,337,126897,1,0,0:0:0:0:
377,167,127106,6,0,P|341:121|281:103,1,101.999991165162
