osu file format v14

[General]
AudioFilename: audio.ogg
AudioLeadIn: 0
PreviewTime: 17374
Countdown: 0
SampleSet: Normal
StackLeniency: 1
Mode: 1
LetterboxInBreaks: 0
WidescreenStoryboard: 0

[Editor]
DistanceSpacing: 0.9
BeatDivisor: 4
GridSize: 32
TimelineZoom: 1

[Metadata]
Title:Adana Merkez Patliyor Herkes (Cut Ver.)
TitleUnicode:Adana Merkez Patlıyor Herkes (Cut Ver.)
Artist:Isyan Tetick
ArtistUnicode:Isyan Tetick
Creator:Vulkin
Version:zigizigiefe's Muzukashii
Source:
Tags:turkish hip-hop meme zigizigiefe nifty version
BeatmapID:1529178
BeatmapSetID:724184

[Difficulty]
HPDrainRate:6
CircleSize:7
OverallDifficulty:5
ApproachRate:10
SliderMultiplier:1.4
SliderTickRate:1

[Events]
//Background and Video events
0,0,"osman-koycu-c6qF_lYvu2I-unsplash.jpg",0,0
//Break Periods
//Storyboard Layer 0 (Background)
//Storyboard Layer 1 (Fail)
//Storyboard Layer 2 (Pass)
//Storyboard Layer 3 (Foreground)
//Storyboard Layer 4 (Overlay)
//Storyboard Sound Samples

[TimingPoints]
17375,461.538461538462,4,1,0,70,1,0
24701,-100,4,1,0,50,0,0
32086,-100,4,1,0,70,0,0
46855,-100,4,1,0,10,0,0
46913,473.186119873817,4,1,0,10,1,0
46913,-97.5384615441638,4,1,0,10,0,0
48746,-97.5384615441638,4,1,0,70,0,0
48805,461.538461538462,4,1,0,70,1,1
58958,-100,4,1,0,70,0,0
59881,-100,4,1,0,70,0,1
63574,-100,4,1,0,70,0,0
63689,-100,4,1,0,10,0,0

[HitObjects]
192,180,17374,5,0,0:0:0:0:
176,112,17490,1,0,0:0:0:0:
164,88,17605,1,0,0:0:0:0:
192,180,17836,1,8,0:0:0:0:
224,180,18067,1,8,0:0:0:0:
288,184,18298,1,0,0:0:0:0:
288,184,18528,1,8,0:0:0:0:
288,184,18759,1,8,0:0:0:0:
192,180,19221,1,0,0:0:0:0:
208,80,19336,1,0,0:0:0:0:
192,180,19451,1,0,0:0:0:0:
224,180,19683,1,8,0:0:0:0:
192,180,19914,1,0,0:0:0:0:
288,184,20145,1,8,0:0:0:0:
176,112,20259,1,8,0:0:0:0:
288,184,20375,1,8,0:0:0:0:
288,184,20606,1,0,0:0:0:0:
192,180,21067,1,0,0:0:0:0:
192,180,21298,1,8,0:0:0:0:
192,180,21528,1,8,0:0:0:0:
224,180,21759,1,0,0:0:0:0:
288,184,21991,1,8,0:0:0:0:
192,112,22105,1,8,0:0:0:0:
288,184,22221,1,8,0:0:0:0:
288,184,22452,1,0,0:0:0:0:
192,180,22914,1,0,0:0:0:0:
192,180,23144,1,8,0:0:0:0:
192,180,23259,1,8,0:0:0:0:
192,180,23374,1,8,0:0:0:0:
60,144,23605,1,8,0:0:0:0:
288,184,23836,1,0,0:0:0:0:
192,180,24759,5,0,0:0:0:0:
192,180,25221,1,8,0:0:0:0:
288,184,25683,1,0,0:0:0:0:
288,184,25913,1,8,0:0:0:0:
288,184,26144,1,8,0:0:0:0:
192,180,26606,1,0,0:0:0:0:
224,180,27068,1,8,0:0:0:0:
192,180,27299,1,0,0:0:0:0:
288,184,27528,1,0,0:0:0:0:
288,184,27760,1,0,0:0:0:0:
288,184,27990,1,8,0:0:0:0:
192,180,28452,1,0,0:0:0:0:
192,180,28683,1,8,0:0:0:0:
224,180,28915,1,8,0:0:0:0:
288,184,29376,1,8,0:0:0:0:
288,184,29837,1,8,0:0:0:0:
256,192,30298,12,0,31682,0:0:0:0:
148,136,32144,5,4,0:0:0:0:
148,136,32605,1,8,0:0:0:0:
232,144,32721,1,8,0:0:0:0:
224,144,32836,1,8,0:0:0:0:
232,144,33067,1,8,0:0:0:0:
224,136,33298,1,8,0:0:0:0:
224,136,33528,1,0,0:0:0:0:
264,240,33990,1,8,0:0:0:0:
264,240,34221,1,0,0:0:0:0:
208,200,34682,1,8,0:0:0:0:
248,104,34913,1,0,0:0:0:0:
160,80,35028,1,0,0:0:0:0:
160,72,35144,1,0,0:0:0:0:
140,156,35375,1,8,0:0:0:0:
272,224,35836,1,0,0:0:0:0:
280,224,36298,1,8,0:0:0:0:
280,208,36528,1,8,0:0:0:0:
288,208,36759,1,0,0:0:0:0:
288,208,36990,1,8,0:0:0:0:
288,208,37105,1,8,0:0:0:0:
288,208,37221,1,8,0:0:0:0:
200,184,37682,1,8,0:0:0:0:
200,184,37913,1,0,0:0:0:0:
200,184,38144,1,8,0:0:0:0:
264,240,38605,1,8,0:0:0:0:
120,120,39528,1,0,0:0:0:0:
188,208,39759,1,8,0:0:0:0:
184,196,39990,1,8,0:0:0:0:
304,200,40221,1,8,0:0:0:0:
200,200,40451,1,0,0:0:0:0:
184,116,40913,1,0,0:0:0:0:
152,184,41375,1,8,0:0:0:0:
152,184,41836,1,8,0:0:0:0:
160,164,42067,1,0,0:0:0:0:
180,104,42298,1,8,0:0:0:0:
240,240,42759,1,0,0:0:0:0:
244,216,43221,1,8,0:0:0:0:
184,184,43451,1,8,0:0:0:0:
212,184,43567,1,8,0:0:0:0:
244,216,43682,1,8,0:0:0:0:
172,104,43913,1,0,0:0:0:0:
224,104,44144,1,8,0:0:0:0:
220,104,44605,1,8,0:0:0:0:
116,148,45067,1,0,0:0:0:0:
216,148,45528,1,8,0:0:0:0:
128,144,45759,1,8,0:0:0:0:
248,240,45990,1,8,0:0:0:0:
256,192,46913,12,0,48332,0:0:0:0:
272,192,48805,5,0,0:0:0:0:
252,188,48920,1,0,0:0:0:0:
252,188,49035,1,0,0:0:0:0:
252,188,49266,1,8,0:0:0:0:
252,188,49497,1,8,0:0:0:0:
176,88,49728,1,8,0:0:0:0:
176,88,49958,1,0,0:0:0:0:
232,216,50189,1,8,0:0:0:0:
296,172,50651,1,8,0:0:0:0:
176,192,50881,1,8,0:0:0:0:
300,168,50997,1,8,0:0:0:0:
300,168,51113,1,8,0:0:0:0:
104,124,51343,1,8,0:0:0:0:
180,176,51574,1,0,0:0:0:0:
176,176,51805,1,8,0:0:0:0:
180,176,52035,1,0,0:0:0:0:
176,172,52497,1,0,0:0:0:0:
176,172,52612,1,0,0:0:0:0:
176,172,52728,1,0,0:0:0:0:
176,172,52958,1,8,0:0:0:0:
192,156,53420,1,0,0:0:0:0:
200,260,53651,1,8,0:0:0:0:
200,260,53881,1,8,0:0:0:0:
188,148,54343,1,0,0:0:0:0:
188,148,54574,1,8,0:0:0:0:
188,148,54689,1,8,0:0:0:0:
188,148,54805,1,8,0:0:0:0:
172,192,55266,1,8,0:0:0:0:
116,168,56189,1,0,0:0:0:0:
116,168,56420,1,8,0:0:0:0:
256,64,56535,1,8,0:0:0:0:
116,168,56651,1,8,0:0:0:0:
116,168,56881,1,0,0:0:0:0:
116,168,57112,1,8,0:0:0:0:
116,168,57343,1,8,0:0:0:0:
116,168,57574,1,0,0:0:0:0:
216,132,58035,1,8,0:0:0:0:
228,196,58497,1,8,0:0:0:0:
228,196,58612,1,8,0:0:0:0:
228,196,58728,1,8,0:0:0:0:
232,188,58958,1,0,0:0:0:0:
188,128,59881,1,8,0:0:0:0:
188,128,60343,1,8,0:0:0:0:
188,128,60458,1,8,0:0:0:0:
204,184,60574,1,8,0:0:0:0:
196,184,60805,1,0,0:0:0:0:
204,184,61035,1,8,0:0:0:0:
204,184,61266,1,0,0:0:0:0:
168,140,61728,1,0,0:0:0:0:
288,128,61958,1,8,0:0:0:0:
168,140,62074,1,8,0:0:0:0:
168,140,62189,1,8,0:0:0:0:
184,216,62420,1,8,0:0:0:0:
168,140,62651,1,8,0:0:0:0:
184,216,63574,1,4,0:0:0:0:
256,192,63805,12,0,67728,0:0:0:0:
