osu file format v14

[General]
AudioFilename: audio.mp3
AudioLeadIn: 0
PreviewTime: 42633
Countdown: 0
SampleSet: Soft
StackLeniency: 0.7
Mode: 3
LetterboxInBreaks: 0
SpecialStyle: 0
WidescreenStoryboard: 1

[Editor]
Bookmarks: 10459,13937,22633
DistanceSpacing: 1.3
BeatDivisor: 4
GridSize: 32
TimelineZoom: 1.5

[Metadata]
Title:Oyasumi Monochrome
TitleUnicode:おやすみモノクローム
Artist:Isui
ArtistUnicode:倚水
Creator:DenYi
Version:You in my dream
Source:Dreamin' Her - 僕は、彼女の夢を見る。-
Tags:Lami- -Ming- Nabi- VN visual novel Japanese J-pop jpop pop Dreamin' Her Boku wa Kanojo no Yume o Miru video game op opening LIFE0 Islet とむ少佐
BeatmapID:3655642
BeatmapSetID:1783863

[Difficulty]
HPDrainRate:8
CircleSize:4
OverallDifficulty:8
ApproachRate:5
SliderMultiplier:1.4
SliderTickRate:1

[Events]
//Background and Video events
0,0,"denyi.jpg",0,0
Video,-120,"opmv2.flv"
//Break Periods
//Storyboard Layer 0 (Background)
//Storyboard Layer 1 (Fail)
//Storyboard Layer 2 (Pass)
//Storyboard Layer 3 (Foreground)
//Storyboard Layer 4 (Overlay)
//Storyboard Sound Samples

[TimingPoints]
1764,434.782608695652,4,2,1,50,1,0
43503,-100,4,2,1,50,0,1
71329,-100,4,2,1,50,0,0

[HitObjects]
192,192,1546,128,0,1764:0:0:0:0:
64,192,1764,1,0,0:0:0:0:
448,192,1764,128,0,2090:0:0:0:0:
320,192,1872,1,0,0:0:0:0:
192,192,1981,1,0,0:0:0:0:
64,192,2090,128,0,2416:0:0:0:0:
448,192,2198,1,0,0:0:0:0:
192,192,2307,1,0,0:0:0:0:
320,192,2416,128,0,2850:0:0:0:0:
448,192,2524,1,0,0:0:0:0:
192,192,2850,128,0,3068:0:0:0:0:
64,192,3068,128,0,3285:0:0:0:0:
448,192,3285,128,0,3503:0:0:0:0:
192,192,3503,128,0,3829:0:0:0:0:
320,192,3503,1,0,0:0:0:0:
64,192,3611,1,0,0:0:0:0:
448,192,3720,1,0,0:0:0:0:
320,192,3829,128,0,4046:0:0:0:0:
64,192,3937,1,0,0:0:0:0:
192,192,4046,1,0,0:0:0:0:
320,192,4155,128,0,4590:0:0:0:0:
448,192,4263,1,0,0:0:0:0:
192,192,5024,128,0,5242:0:0:0:0:
64,192,5242,128,0,5677:0:0:0:0:
448,192,5242,1,0,0:0:0:0:
320,192,5350,1,0,0:0:0:0:
192,192,5459,1,0,0:0:0:0:
448,192,5568,1,0,0:0:0:0:
320,192,5677,1,0,0:0:0:0:
64,192,5785,1,0,0:0:0:0:
192,192,5894,128,0,6111:0:0:0:0:
320,192,6003,1,0,0:0:0:0:
448,192,6111,128,0,6437:0:0:0:0:
320,192,6437,128,0,6763:0:0:0:0:
64,192,6763,128,0,7198:0:0:0:0:
320,192,6981,1,0,0:0:0:0:
448,192,6981,1,0,0:0:0:0:
192,192,7090,1,0,0:0:0:0:
448,192,7198,128,0,7416:0:0:0:0:
320,192,7307,1,0,0:0:0:0:
192,192,7416,128,0,7524:0:0:0:0:
64,192,7524,1,0,0:0:0:0:
192,192,7633,128,0,7850:0:0:0:0:
448,192,7742,1,0,0:0:0:0:
320,192,7850,128,0,8068:0:0:0:0:
64,192,8068,128,0,8285:0:0:0:0:
448,192,8285,128,0,8503:0:0:0:0:
64,192,8503,128,0,8720:0:0:0:0:
320,192,8720,1,0,0:0:0:0:
448,192,8720,1,0,0:0:0:0:
192,192,8829,1,0,0:0:0:0:
320,192,8937,1,0,0:0:0:0:
64,192,9046,1,0,0:0:0:0:
448,192,9046,1,0,0:0:0:0:
192,192,9155,1,0,0:0:0:0:
320,192,9263,1,0,0:0:0:0:
64,192,9372,128,0,9590:0:0:0:0:
448,192,9372,128,0,9807:0:0:0:0:
320,192,10242,1,0,0:0:0:0:
64,192,10459,1,0,0:0:0:0:
192,192,10459,1,0,0:0:0:0:
320,192,10568,1,0,0:0:0:0:
192,192,10677,1,0,0:0:0:0:
64,192,10785,1,0,0:0:0:0:
448,192,10785,1,0,0:0:0:0:
320,192,10894,1,0,0:0:0:0:
192,192,11003,1,0,0:0:0:0:
64,192,11111,128,0,11546:0:0:0:0:
448,192,11111,128,0,11329:0:0:0:0:
64,192,12198,1,0,0:0:0:0:
448,192,12198,1,0,0:0:0:0:
320,192,12307,1,0,0:0:0:0:
192,192,12416,1,0,0:0:0:0:
64,192,12524,1,0,0:0:0:0:
448,192,12524,1,0,0:0:0:0:
320,192,12633,1,0,0:0:0:0:
192,192,12742,1,0,0:0:0:0:
320,192,12850,128,0,13285:0:0:0:0:
448,192,12850,128,0,13068:0:0:0:0:
192,192,13720,1,0,0:0:0:0:
64,192,13937,1,0,0:0:0:0:
448,192,13937,1,0,0:0:0:0:
192,192,14046,1,0,0:0:0:0:
320,192,14155,1,0,0:0:0:0:
64,192,14263,1,0,0:0:0:0:
448,192,14263,1,0,0:0:0:0:
192,192,14372,1,0,0:0:0:0:
320,192,14481,1,0,0:0:0:0:
64,192,14590,128,0,14807:0:0:0:0:
192,192,14590,128,0,15024:0:0:0:0:
448,192,15024,1,0,0:0:0:0:
64,192,15242,1,0,0:0:0:0:
320,192,15459,128,0,15677:0:0:0:0:
64,192,15677,1,0,0:0:0:0:
448,192,15677,128,0,16003:0:0:0:0:
192,192,15785,1,0,0:0:0:0:
320,192,15894,1,0,0:0:0:0:
192,192,16003,128,0,16329:0:0:0:0:
64,192,16111,1,0,0:0:0:0:
448,192,16220,1,0,0:0:0:0:
64,192,16329,128,0,16546:0:0:0:0:
320,192,16437,1,0,0:0:0:0:
448,192,16763,128,0,16981:0:0:0:0:
192,192,16981,128,0,17198:0:0:0:0:
320,192,17198,128,0,17416:0:0:0:0:
64,192,17416,128,0,17742:0:0:0:0:
448,192,17416,1,0,0:0:0:0:
192,192,17524,1,0,0:0:0:0:
320,192,17633,1,0,0:0:0:0:
448,192,17742,128,0,17959:0:0:0:0:
192,192,17850,1,0,0:0:0:0:
64,192,17959,1,0,0:0:0:0:
448,192,18068,128,0,18503:0:0:0:0:
320,192,18177,1,0,0:0:0:0:
64,192,18937,128,0,19155:0:0:0:0:
192,192,19155,1,0,0:0:0:0:
448,192,19155,128,0,19590:0:0:0:0:
64,192,19263,1,0,0:0:0:0:
320,192,19372,1,0,0:0:0:0:
192,192,19481,1,0,0:0:0:0:
64,192,19590,1,0,0:0:0:0:
448,192,19698,1,0,0:0:0:0:
192,192,19807,128,0,20024:0:0:0:0:
64,192,19916,1,0,0:0:0:0:
320,192,20024,128,0,20350:0:0:0:0:
64,192,20350,128,0,20677:0:0:0:0:
448,192,20677,128,0,21111:0:0:0:0:
64,192,20894,1,0,0:0:0:0:
320,192,20894,1,0,0:0:0:0:
192,192,21003,1,0,0:0:0:0:
320,192,21111,128,0,21546:0:0:0:0:
448,192,21220,1,0,0:0:0:0:
192,192,21329,1,0,0:0:0:0:
64,192,21437,1,0,0:0:0:0:
192,192,21546,128,0,21981:0:0:0:0:
448,192,21655,1,0,0:0:0:0:
448,192,21981,128,0,22198:0:0:0:0:
64,192,22198,128,0,22416:0:0:0:0:
448,192,22416,128,0,22633:0:0:0:0:
64,192,22633,1,2,0:0:0:0:
192,192,22633,1,0,0:0:0:0:
320,192,22742,1,0,0:0:0:0:
448,192,22850,1,0,0:0:0:0:
64,192,22959,1,0,0:0:0:0:
192,192,23068,1,2,0:0:0:0:
320,192,23068,1,0,0:0:0:0:
448,192,23177,1,0,0:0:0:0:
64,192,23285,128,0,23720:0:0:0:0:
192,192,23394,1,0,0:0:0:0:
320,192,23503,1,2,0:0:0:0:
448,192,23503,1,0,0:0:0:0:
448,192,23720,1,0,0:0:0:0:
192,192,23937,1,2,0:0:0:0:
320,192,23937,1,0,0:0:0:0:
64,192,24155,1,0,0:0:0:0:
320,192,24372,1,2,0:0:0:0:
448,192,24372,1,0,0:0:0:0:
192,192,24481,1,0,0:0:0:0:
64,192,24590,1,0,0:0:0:0:
448,192,24698,1,0,0:0:0:0:
192,192,24807,1,2,0:0:0:0:
320,192,24807,1,0,0:0:0:0:
64,192,24916,1,0,0:0:0:0:
448,192,25024,128,0,25459:0:0:0:0:
320,192,25133,1,0,0:0:0:0:
64,192,25242,1,2,0:0:0:0:
192,192,25242,1,0,0:0:0:0:
64,192,25459,1,0,0:0:0:0:
320,192,25677,1,2,0:0:0:0:
448,192,25677,1,0,0:0:0:0:
192,192,25894,1,0,0:0:0:0:
64,192,26111,1,2,0:0:0:0:
448,192,26111,1,0,0:0:0:0:
320,192,26220,1,0,0:0:0:0:
192,192,26329,1,0,0:0:0:0:
320,192,26437,1,0,0:0:0:0:
64,192,26546,1,2,0:0:0:0:
448,192,26546,1,0,0:0:0:0:
192,192,26655,1,0,0:0:0:0:
320,192,26763,128,0,27198:0:0:0:0:
192,192,26872,1,0,0:0:0:0:
64,192,26981,1,2,0:0:0:0:
448,192,26981,1,0,0:0:0:0:
64,192,27198,1,0,0:0:0:0:
192,192,27416,1,2,0:0:0:0:
320,192,27416,1,0,0:0:0:0:
448,192,27633,1,0,0:0:0:0:
64,192,27850,1,2,0:0:0:0:
448,192,27850,1,0,0:0:0:0:
192,192,27959,1,0,0:0:0:0:
320,192,28068,1,0,0:0:0:0:
192,192,28177,1,0,0:0:0:0:
64,192,28285,1,2,0:0:0:0:
448,192,28285,1,0,0:0:0:0:
320,192,28394,1,0,0:0:0:0:
192,192,28503,128,0,28937:0:0:0:0:
320,192,28611,1,0,0:0:0:0:
64,192,28720,1,2,0:0:0:0:
448,192,28720,1,0,0:0:0:0:
320,192,28937,1,0,0:0:0:0:
192,192,29155,1,2,0:0:0:0:
320,192,29155,1,0,0:0:0:0:
64,192,29372,1,0,0:0:0:0:
64,192,29590,1,2,0:0:0:0:
192,192,29590,128,4,29807:0:0:0:0:
448,192,29590,1,0,0:0:0:0:
320,192,29807,1,0,0:0:0:0:
192,192,30024,1,2,0:0:0:0:
320,192,30024,128,0,30242:0:0:0:0:
64,192,30242,1,0,0:0:0:0:
64,192,30459,128,2,30677:0:0:0:0:
448,192,30459,1,0,0:0:0:0:
448,192,30677,128,0,30894:0:0:0:0:
192,192,30894,1,2,0:0:0:0:
320,192,30894,128,0,31111:0:0:0:0:
64,192,31111,1,0,0:0:0:0:
320,192,31329,128,2,31546:0:0:0:0:
448,192,31329,1,0,0:0:0:0:
192,192,31546,1,0,0:0:0:0:
64,192,31763,1,2,0:0:0:0:
192,192,31763,128,0,31981:0:0:0:0:
448,192,31981,1,0,0:0:0:0:
64,192,32198,1,2,0:0:0:0:
448,192,32198,128,0,32416:0:0:0:0:
320,192,32416,128,0,32633:0:0:0:0:
192,192,32633,128,2,32850:0:0:0:0:
448,192,32633,1,0,0:0:0:0:
64,192,32850,1,0,0:0:0:0:
64,192,33068,128,2,33285:0:0:0:0:
320,192,33068,1,0,0:0:0:0:
448,192,33285,1,0,0:0:0:0:
192,192,33503,1,2,0:0:0:0:
448,192,33503,128,0,33720:0:0:0:0:
320,192,33720,1,0,0:0:0:0:
64,192,33937,1,2,0:0:0:0:
320,192,33937,128,0,34155:0:0:0:0:
64,192,34155,128,0,34372:0:0:0:0:
192,192,34372,128,2,34590:0:0:0:0:
448,192,34372,1,0,0:0:0:0:
320,192,34590,1,0,0:0:0:0:
64,192,34807,1,2,0:0:0:0:
448,192,34807,128,0,35024:0:0:0:0:
192,192,35024,1,0,0:0:0:0:
192,192,35242,128,2,35459:0:0:0:0:
448,192,35242,1,0,0:0:0:0:
320,192,35459,128,0,35568:0:0:0:0:
64,192,35677,1,2,0:0:0:0:
320,192,35677,128,0,36111:0:0:0:0:
192,192,35894,1,0,0:0:0:0:
192,192,36111,128,2,36546:0:0:0:0:
448,192,36111,1,0,0:0:0:0:
64,192,36546,1,4,0:0:0:0:
320,192,36546,1,2,0:0:0:0:
448,192,36546,128,0,36981:0:0:0:0:
192,192,36763,1,0,0:0:0:0:
64,192,36981,1,2,0:0:0:0:
320,192,36981,1,0,0:0:0:0:
192,192,37198,128,0,37416:0:0:0:0:
320,192,37416,128,2,37850:0:0:0:0:
448,192,37416,1,0,0:0:0:0:
64,192,37633,1,0,0:0:0:0:
192,192,37742,128,0,37850:0:0:0:0:
64,192,37850,128,2,38285:0:0:0:0:
448,192,37850,1,0,0:0:0:0:
320,192,38068,1,0,0:0:0:0:
448,192,38177,128,0,38285:0:0:0:0:
192,192,38285,1,2,0:0:0:0:
320,192,38285,128,0,38720:0:0:0:0:
192,192,38503,128,0,38720:0:0:0:0:
64,192,38720,128,2,39155:0:0:0:0:
448,192,38720,1,0,0:0:0:0:
448,192,38937,128,0,39155:0:0:0:0:
192,192,39155,1,2,0:0:0:0:
320,192,39155,1,0,0:0:0:0:
448,192,39372,1,0,0:0:0:0:
192,192,39481,128,0,39590:0:0:0:0:
64,192,39590,128,2,39807:0:0:0:0:
320,192,39590,1,0,0:0:0:0:
448,192,39807,128,0,40024:0:0:0:0:
64,192,40024,1,2,0:0:0:0:
192,192,40024,1,4,0:0:0:0:
320,192,40024,1,0,0:0:0:0:
320,192,40242,128,0,40459:0:0:0:0:
64,192,40459,1,2,0:0:0:0:
192,192,40459,1,0,0:0:0:0:
448,192,40459,1,0,0:0:0:0:
64,192,40677,128,0,40894:0:0:0:0:
192,192,40894,1,8,0:0:0:0:
320,192,40894,1,0,0:0:0:0:
448,192,40894,1,0,0:0:0:0:
64,192,41111,1,2,0:0:0:0:
192,192,41111,1,0,0:0:0:0:
64,192,41329,1,8,0:0:0:0:
320,192,41329,1,0,0:0:0:0:
448,192,41329,1,0,0:0:0:0:
192,192,41546,1,2,0:0:0:0:
320,192,41546,1,0,0:0:0:0:
64,192,41763,128,2,41981:0:0:0:0:
192,192,41763,128,0,41981:0:0:0:45:cymbal_short.wav
448,192,41763,128,0,41981:0:0:0:0:
64,192,42090,128,2,42307:0:0:0:0:
320,192,42090,128,0,42307:0:0:0:45:cymbal_short.wav
448,192,42090,128,0,42307:0:0:0:0:
64,192,42416,128,2,42633:0:0:0:0:
192,192,42416,128,0,42633:0:0:0:45:cymbal_short.wav
448,192,42416,128,0,42633:0:0:0:0:
320,192,42633,128,0,42959:0:0:0:0:
192,192,42850,128,0,43177:0:0:0:0:
320,192,43068,128,0,43394:0:0:0:0:
448,192,43285,128,0,43503:0:0:0:0:
64,192,43503,1,2,0:0:0:0:
192,192,43503,1,4,0:0:0:0:
320,192,43503,128,0,43937:0:0:0:0:
192,192,43720,128,0,43937:0:0:0:0:
64,192,43937,128,8,44046:0:0:0:0:
448,192,43937,128,0,44155:0:0:0:0:
64,192,44155,128,0,44372:0:0:0:0:
192,192,44372,1,2,0:0:0:0:
448,192,44372,128,0,45024:0:0:0:0:
320,192,44590,128,0,45024:0:0:0:0:
64,192,44807,128,8,45242:0:0:0:0:
192,192,44807,1,0,0:0:0:0:
192,192,45024,128,0,45242:0:0:0:0:
320,192,45242,1,2,0:0:0:0:
448,192,45242,1,0,0:0:0:0:
192,192,45459,128,0,45894:0:0:0:0:
64,192,45677,1,8,0:0:0:0:
320,192,45677,1,0,0:0:0:0:
448,192,45677,1,0,0:0:0:0:
320,192,45894,1,0,0:0:0:0:
64,192,46111,1,2,0:0:0:0:
448,192,46111,128,0,46546:0:0:0:0:
64,192,46329,128,0,46763:0:0:0:0:
192,192,46546,128,8,46981:0:0:0:0:
320,192,46546,1,0,0:0:0:0:
320,192,46763,128,0,47416:0:0:0:0:
64,192,46981,1,2,0:0:0:0:
448,192,46981,1,0,0:0:0:0:
192,192,47198,128,0,47416:0:0:0:0:
64,192,47416,128,8,47633:0:0:0:0:
448,192,47416,128,0,47850:0:0:0:0:
320,192,47633,128,0,47850:0:0:0:0:
64,192,47850,128,2,48068:0:0:0:0:
192,192,47850,128,0,48285:0:0:0:0:
320,192,48068,128,0,48285:0:0:0:0:
64,192,48285,1,8,0:0:0:0:
448,192,48285,128,0,48720:0:0:0:0:
192,192,48503,128,0,48720:0:0:0:0:
64,192,48720,1,2,0:0:0:0:
320,192,48720,1,0,0:0:0:0:
192,192,48937,128,0,49155:0:0:0:0:
64,192,49155,1,8,0:0:0:0:
320,192,49155,1,0,0:0:0:0:
448,192,49155,1,0,0:0:0:0:
320,192,49372,1,0,0:0:0:0:
64,192,49590,128,2,50242:0:0:0:0:
448,192,49590,1,0,0:0:0:0:
192,192,49698,1,8,0:0:0:0:
320,192,49807,1,0,0:0:0:0:
192,192,50024,1,8,0:0:0:0:
448,192,50024,128,0,50459:0:0:0:0:
320,192,50242,1,8,0:0:0:0:
192,192,50350,1,8,0:0:0:0:
64,192,50459,1,2,0:0:0:0:
320,192,50459,128,4,51111:0:0:0:0:
448,192,50677,1,0,0:0:0:0:
192,192,50785,128,0,51111:0:0:0:0:
64,192,50894,1,8,0:0:0:0:
448,192,50894,1,0,0:0:0:0:
64,192,51111,128,0,51329:0:0:0:0:
320,192,51329,1,2,0:0:0:0:
448,192,51329,1,0,0:0:0:0:
64,192,51546,128,0,51763:0:0:0:0:
192,192,51763,1,8,0:0:0:0:
320,192,51763,1,0,0:0:0:0:
448,192,51763,1,0,0:0:0:0:
448,192,51981,128,0,52524:0:0:0:0:
64,192,52198,1,2,0:0:0:0:
192,192,52198,1,4,0:0:0:0:
320,192,52198,128,0,52524:0:0:0:0:
64,192,52416,1,0,0:0:0:0:
192,192,52524,128,0,52850:0:0:0:0:
320,192,52633,1,8,0:0:0:0:
448,192,52633,1,0,0:0:0:0:
448,192,52850,128,0,53285:0:0:0:0:
64,192,53068,1,2,0:0:0:0:
192,192,53068,1,4,0:0:0:0:
320,192,53068,1,0,0:0:0:0:
64,192,53285,128,0,53720:0:0:0:0:
192,192,53503,128,8,53720:0:0:0:0:
448,192,53503,1,0,0:0:0:0:
320,192,53720,128,0,54807:0:0:0:0:
64,192,53937,1,2,0:0:0:0:
192,192,53937,1,4,0:0:0:0:
448,192,53937,1,0,0:0:0:0:
64,192,54155,1,0,0:0:0:0:
64,192,54372,1,8,0:0:0:0:
192,192,54372,1,0,0:0:0:0:
448,192,54372,1,0,0:0:0:0:
448,192,54590,1,0,0:0:0:0:
64,192,54807,1,2,0:0:0:0:
192,192,54807,1,0,0:0:0:0:
320,192,54916,1,8,0:0:0:0:
448,192,54916,1,0,0:0:0:0:
192,192,55024,1,0,0:0:0:0:
64,192,55242,1,8,0:0:0:0:
320,192,55242,1,0,0:0:0:0:
448,192,55242,1,0,0:0:0:0:
192,192,55459,1,2,0:0:0:0:
320,192,55568,1,2,0:0:0:0:
64,192,55677,1,8,0:0:0:0:
192,192,55677,1,4,0:0:0:0:
448,192,55677,1,0,0:0:0:0:
320,192,55894,1,2,0:0:0:0:
448,192,55894,1,0,0:0:0:0:
64,192,56003,1,0,0:0:0:50:Tom 2.wav
192,192,56003,1,0,0:0:0:0:
320,192,56111,1,0,0:0:0:0:
192,192,56220,1,2,0:0:0:0:
64,192,56329,1,0,0:0:0:50:Tom 1.wav
448,192,56329,1,0,0:0:0:0:
320,192,56437,1,2,0:0:0:0:
64,192,56546,1,4,0:0:0:0:
192,192,56546,1,0,0:0:0:0:
448,192,56546,1,0,0:0:0:0:
320,192,56836,1,8,0:0:0:0:
448,192,56836,1,0,0:0:0:0:
64,192,56908,1,8,0:0:0:0:
192,192,56908,1,0,0:0:0:0:
448,192,56981,1,8,0:0:0:0:
320,192,57035,1,0,0:0:0:0:
192,192,57090,1,8,0:0:0:0:
64,192,57144,1,0,0:0:0:0:
448,192,57198,1,8,0:0:0:0:
320,192,57253,1,0,0:0:0:0:
192,192,57307,1,8,0:0:0:0:
64,192,57361,1,0,0:0:0:0:
320,192,57416,128,2,57850:0:0:0:0:
448,192,57416,1,4,0:0:0:0:
192,192,57633,128,0,57850:0:0:0:0:
64,192,57850,128,8,57959:0:0:0:0:
448,192,57850,128,0,58068:0:0:0:0:
64,192,58068,128,0,58285:0:0:0:0:
192,192,58285,1,2,0:0:0:0:
448,192,58285,128,0,58937:0:0:0:0:
320,192,58503,128,0,58937:0:0:0:0:
64,192,58720,128,8,59155:0:0:0:0:
192,192,58720,1,0,0:0:0:0:
192,192,58937,128,0,59155:0:0:0:0:
320,192,59155,1,2,0:0:0:0:
448,192,59155,1,0,0:0:0:0:
192,192,59372,128,0,59590:0:0:0:0:
64,192,59590,1,8,0:0:0:0:
320,192,59590,1,0,0:0:0:0:
448,192,59590,1,0,0:0:0:0:
448,192,59807,128,0,60459:0:0:0:0:
192,192,60024,1,2,0:0:0:0:
320,192,60024,1,0,0:0:0:0:
320,192,60242,128,0,60785:0:0:0:0:
64,192,60459,1,8,0:0:0:0:
192,192,60459,128,0,60785:0:0:0:0:
448,192,60677,1,0,0:0:0:0:
64,192,60785,128,0,61763:0:0:0:0:
192,192,60894,1,2,0:0:0:0:
320,192,60894,1,0,0:0:0:0:
448,192,61111,1,0,0:0:0:0:
320,192,61329,128,8,61546:0:0:0:0:
448,192,61329,128,0,61546:0:0:0:0:
192,192,61546,1,0,0:0:0:0:
192,192,61763,1,2,0:0:0:0:
448,192,61763,1,0,0:0:0:0:
320,192,61981,128,0,62416:0:0:0:0:
64,192,62198,1,8,0:0:0:0:
192,192,62198,128,0,62416:0:0:0:0:
448,192,62198,1,0,0:0:0:0:
448,192,62416,128,0,62633:0:0:0:0:
64,192,62633,1,2,0:0:0:0:
192,192,62633,1,0,0:0:0:0:
448,192,62850,128,0,63068:0:0:0:0:
64,192,63068,1,8,0:0:0:0:
192,192,63068,1,0,0:0:0:0:
320,192,63068,1,0,0:0:0:0:
320,192,63285,1,0,0:0:0:0:
64,192,63503,128,2,63937:0:0:0:0:
192,192,63503,1,0,0:0:0:0:
448,192,63611,1,8,0:0:0:0:
320,192,63720,1,0,0:0:0:0:
192,192,63937,1,8,0:0:0:0:
320,192,63937,1,0,0:0:0:0:
448,192,63937,128,0,64372:0:0:0:0:
64,192,64155,1,8,0:0:0:0:
192,192,64155,1,0,0:0:0:0:
320,192,64263,1,8,0:0:0:0:
64,192,64372,1,2,0:0:0:0:
192,192,64372,128,4,64807:0:0:0:0:
320,192,64590,1,0,0:0:0:0:
64,192,64807,1,8,0:0:0:0:
320,192,64807,1,0,0:0:0:0:
448,192,64807,1,0,0:0:0:0:
448,192,65024,128,0,65677:0:0:0:0:
64,192,65242,1,2,0:0:0:0:
320,192,65242,128,4,65677:0:0:0:0:
192,192,65350,1,8,0:0:0:0:
64,192,65677,128,8,65785:0:0:0:0:
192,192,65677,1,0,0:0:0:0:
64,192,65894,128,0,66111:0:0:0:0:
192,192,66111,128,2,66329:0:0:0:0:
320,192,66111,128,4,66763:0:0:0:0:
448,192,66111,128,0,66329:0:0:0:0:
64,192,66546,128,2,66763:0:0:0:0:
192,192,66546,128,4,67198:0:0:0:0:
448,192,66546,128,0,66763:0:0:0:0:
64,192,66981,128,4,67198:0:0:0:0:
320,192,66981,128,2,67198:0:0:0:0:
448,192,66981,128,0,67198:0:0:0:0:
448,192,67271,1,8,0:0:0:0:
320,192,67343,1,8,0:0:0:0:
64,192,67416,1,8,0:0:0:0:
192,192,67416,1,0,0:0:0:0:
320,192,67524,1,8,0:0:0:0:
448,192,67524,1,0,0:0:0:0:
64,192,67633,1,0,0:0:0:50:Tom 3.wav
192,192,67633,1,0,0:0:0:0:
320,192,67742,1,0,0:0:0:0:
64,192,67850,128,2,68068:0:0:0:0:
192,192,67850,1,4,0:0:0:0:
448,192,67850,128,0,68285:0:0:0:0:
64,192,68285,1,8,0:0:0:0:
192,192,68285,1,2,0:0:0:0:
320,192,68285,1,0,0:0:0:0:
320,192,68503,1,8,0:0:0:0:
448,192,68503,1,2,0:0:0:0:
64,192,68720,1,8,0:0:0:0:
192,192,68720,1,2,0:0:0:0:
448,192,68720,1,0,0:0:0:0:
192,192,68937,1,8,0:0:0:0:
320,192,68937,1,2,0:0:0:0:
448,192,68937,1,0,0:0:0:0:
64,192,69155,1,8,0:0:0:0:
192,192,69155,1,2,0:0:0:0:
320,192,69263,1,0,0:0:0:50:Tom 2.wav
64,192,69372,1,0,0:0:0:50:Tom 2.wav
448,192,69372,1,0,0:0:0:0:
192,192,69481,1,0,0:0:0:50:Tom 3.wav
64,192,69590,1,2,0:0:0:0:
320,192,69590,1,4,0:0:0:0:
448,192,69590,1,0,0:0:0:0:
192,192,70894,128,0,71003:0:0:0:0:
320,192,71003,128,0,71111:0:0:0:0:
448,192,71111,128,0,71329:0:0:0:0:
64,192,71329,128,2,71655:0:0:0:0:
192,192,71329,1,4,0:0:0:0:
320,192,71329,1,0,0:0:0:0:
448,192,71655,128,0,72416:0:0:0:0:
64,192,71763,1,8,0:0:0:0:
192,192,71763,1,0,0:0:0:0:
320,192,71981,128,0,72416:0:0:0:0:
64,192,72198,1,2,0:0:0:0:
192,192,72198,1,0,0:0:0:0:
192,192,72416,128,0,72524:0:0:0:0:
64,192,72633,1,8,0:0:0:0:
192,192,72633,128,0,73068:0:0:0:0:
448,192,72633,1,0,0:0:0:0:
320,192,72850,128,0,73068:0:0:0:0:
64,192,73068,1,2,0:0:0:0:
448,192,73068,128,0,73394:0:0:0:0:
192,192,73285,1,0,0:0:0:0:
64,192,73394,128,0,74155:0:0:0:0:
320,192,73503,1,8,0:0:0:0:
448,192,73503,1,0,0:0:0:0:
192,192,73720,128,0,74155:0:0:0:0:
320,192,73937,1,2,0:0:0:0:
448,192,73937,1,0,0:0:0:0:
320,192,74155,128,0,74372:0:0:0:0:
64,192,74372,1,8,0:0:0:0:
192,192,74372,128,0,74807:0:0:0:0:
448,192,74372,1,0,0:0:0:0:
320,192,74590,128,0,74807:0:0:0:0:
64,192,74807,1,2,0:0:0:0:
448,192,74807,128,0,75133:0:0:0:0:
192,192,75024,1,0,0:0:0:0:
64,192,75133,128,0,75894:0:0:0:0:
320,192,75242,1,8,0:0:0:0:
448,192,75242,1,0,0:0:0:0:
192,192,75459,128,0,75894:0:0:0:0:
320,192,75677,1,2,0:0:0:0:
448,192,75677,1,0,0:0:0:0:
320,192,75894,128,0,76003:0:0:0:0:
64,192,76111,1,8,0:0:0:0:
320,192,76111,128,0,76329:0:0:0:0:
448,192,76111,1,0,0:0:0:0:
192,192,76329,128,0,76437:0:0:0:0:
64,192,76437,128,0,76546:0:0:0:0:
320,192,76546,1,2,0:0:0:0:
448,192,76546,128,0,76872:0:0:0:0:
192,192,76763,1,0,0:0:0:0:
64,192,76872,128,0,77198:0:0:0:0:
192,192,76981,1,8,0:0:0:0:
320,192,76981,1,0,0:0:0:0:
448,192,77198,128,0,78068:0:0:0:0:
64,192,77307,1,8,0:0:0:0:
192,192,77307,1,0,0:0:0:0:
320,192,77416,1,2,0:0:0:0:
192,192,77633,1,0,0:0:0:0:
64,192,77850,1,8,0:0:0:0:
320,192,77850,128,0,78068:0:0:0:0:
64,192,78068,1,8,0:0:0:0:
192,192,78068,1,0,0:0:0:0:
320,192,78177,1,8,0:0:0:0:
64,192,78285,128,2,78611:0:0:0:0:
192,192,78285,1,0,0:0:0:0:
448,192,78285,1,0,0:0:0:0:
320,192,78503,1,0,0:0:0:0:
448,192,78611,128,0,79372:0:0:0:0:
64,192,78720,1,8,0:0:0:0:
192,192,78720,1,0,0:0:0:0:
320,192,78937,128,0,79372:0:0:0:0:
64,192,79155,1,2,0:0:0:0:
192,192,79155,1,0,0:0:0:0:
192,192,79372,128,0,79481:0:0:0:0:
64,192,79590,1,8,0:0:0:0:
192,192,79590,128,0,80024:0:0:0:0:
448,192,79590,1,0,0:0:0:0:
320,192,79807,128,0,80024:0:0:0:0:
64,192,80024,1,2,0:0:0:0:
448,192,80024,128,0,80350:0:0:0:0:
192,192,80242,1,0,0:0:0:0:
64,192,80350,128,0,81329:0:0:0:0:
320,192,80459,1,8,0:0:0:0:
448,192,80459,1,0,0:0:0:0:
192,192,80677,128,0,81329:0:0:0:0:
320,192,80894,1,2,0:0:0:0:
448,192,80894,1,0,0:0:0:0:
448,192,81111,1,0,0:0:0:0:
320,192,81329,128,8,81763:0:0:0:0:
448,192,81329,1,0,0:0:0:0:
192,192,81546,1,0,0:0:0:0:
64,192,81763,1,2,0:0:0:0:
192,192,81763,128,4,82198:0:0:0:0:
448,192,81763,1,0,0:0:0:0:
64,192,82198,1,8,0:0:0:0:
320,192,82198,1,2,0:0:0:0:
448,192,82198,1,0,0:0:0:0:
64,192,82416,1,8,0:0:0:0:
192,192,82416,1,2,0:0:0:0:
320,192,82416,1,0,0:0:0:0:
192,192,82633,1,8,0:0:0:0:
320,192,82633,1,2,0:0:0:0:
448,192,82633,1,0,0:0:0:0:
64,192,82850,1,8,0:0:0:0:
320,192,82850,1,2,0:0:0:0:
448,192,82850,1,0,0:0:0:0:
64,192,83068,1,8,0:0:0:0:
192,192,83068,1,2,0:0:0:0:
320,192,83068,1,0,0:0:0:0:
64,192,83285,1,8,0:0:0:0:
320,192,83285,1,2,0:0:0:0:
448,192,83285,1,0,0:0:0:0:
192,192,83503,1,2,0:0:0:0:
320,192,83503,1,0,0:0:0:0:
64,192,83720,1,8,0:0:0:0:
192,192,83720,1,4,0:0:0:0:
448,192,83720,1,0,0:0:0:0:
64,192,83937,1,8,0:0:0:0:
320,192,83937,1,4,0:0:0:0:
448,192,83937,1,0,0:0:0:0:
192,192,84046,1,0,0:0:0:50:Tom 1.wav
64,192,84155,1,0,0:0:0:50:Tom 2.wav
448,192,84155,1,0,0:0:0:0:
320,192,84263,1,0,0:0:0:50:Tom 3.wav
64,192,84372,128,2,84590:0:0:0:0:
192,192,84372,128,4,84590:0:0:0:0:
448,192,84372,128,0,84590:0:0:0:0:
64,192,84807,128,2,85024:0:0:0:0:
320,192,84807,128,4,85024:0:0:0:0:
448,192,84807,128,0,85024:0:0:0:0:
64,192,85242,1,4,0:0:0:0:
320,192,85242,1,2,0:0:0:0:
448,192,85242,1,0,0:0:0:0:
192,192,85459,1,0,0:0:0:0:
192,192,85677,1,0,0:0:0:0:
320,192,85677,1,0,0:0:0:0:
320,192,85894,1,0,0:0:0:0:
64,192,86111,1,0,0:0:0:0:
448,192,86329,1,0,0:0:0:0:
192,192,86546,1,0,0:0:0:0:
448,192,86546,1,0,0:0:0:0:
192,192,86763,1,0,0:0:0:0:
320,192,86981,1,0,0:0:0:0:
64,192,87198,1,0,0:0:0:0:
64,192,87416,1,0,0:0:0:0:
320,192,87416,1,0,0:0:0:0:
320,192,87633,1,0,0:0:0:0:
64,192,87850,1,0,0:0:0:0:
192,192,87850,1,0,0:0:0:0:
192,192,88068,1,0,0:0:0:0:
320,192,88285,1,0,0:0:0:0:
448,192,88285,1,0,0:0:0:0:
320,192,88503,128,0,88720:0:0:0:0:
