osu file format v14

[General]
AudioFilename: audio.mp3
AudioLeadIn: 0
PreviewTime: 42633
Countdown: 0
SampleSet: Soft
StackLeniency: 0.7
Mode: 3
LetterboxInBreaks: 0
SpecialStyle: 0
WidescreenStoryboard: 0

[Editor]
DistanceSpacing: 1.3
BeatDivisor: 4
GridSize: 32
TimelineZoom: 1.5

[Metadata]
Title:Oyasumi Monochrome
TitleUnicode:おやすみモノクローム
Artist:Isui
ArtistUnicode:倚水
Creator:DenYi
Version:Nabi's Hard
Source:Dreamin' Her - 僕は、彼女の夢を見る。-
Tags:Lami- -Ming- Nabi- VN visual novel Japanese J-pop jpop pop Dreamin' Her Boku wa Kanojo no Yume o Miru video game op opening LIFE0 Islet とむ少佐
BeatmapID:3653281
BeatmapSetID:1783863

[Difficulty]
HPDrainRate:7.5
CircleSize:4
OverallDifficulty:7.5
ApproachRate:5
SliderMultiplier:1.4
SliderTickRate:1

[Events]
//Background and Video events
0,0,"nabi.jpg",0,0
Video,-120,"opmv2.flv"
//Break Periods
//Storyboard Layer 0 (Background)
//Storyboard Layer 1 (Fail)
//Storyboard Layer 2 (Pass)
//Storyboard Layer 3 (Foreground)
//Storyboard Layer 4 (Overlay)
//Storyboard Sound Samples

[TimingPoints]
1764,434.782608695652,4,2,1,50,1,0
43503,-100,4,2,1,50,0,1
71329,-100,4,2,1,50,0,0

[HitObjects]
64,192,1764,128,0,1981:0:0:0:0:
448,192,1764,1,0,0:0:0:0:
192,192,1981,128,0,2198:0:0:0:0:
320,192,2198,128,0,2416:0:0:0:0:
448,192,2416,128,0,2633:0:0:0:0:
64,192,3503,1,0,0:0:0:0:
192,192,3503,128,0,3720:0:0:0:0:
320,192,3720,128,0,3937:0:0:0:0:
448,192,3937,128,0,4155:0:0:0:0:
320,192,4155,128,0,4372:0:0:0:0:
64,192,5242,128,0,5459:0:0:0:0:
448,192,5242,1,0,0:0:0:0:
192,192,5459,128,0,5677:0:0:0:0:
320,192,5677,128,0,5894:0:0:0:0:
448,192,5894,128,0,6111:0:0:0:0:
64,192,6981,1,0,0:0:0:0:
192,192,6981,128,0,7198:0:0:0:0:
320,192,7198,128,0,7416:0:0:0:0:
448,192,7416,128,0,7850:0:0:0:0:
192,192,7633,128,0,7850:0:0:0:0:
64,192,8720,128,0,8937:0:0:0:0:
192,192,8720,1,0,0:0:0:0:
192,192,9046,128,0,9263:0:0:0:0:
320,192,9046,1,0,0:0:0:0:
320,192,9372,1,0,0:0:0:0:
448,192,9372,128,0,9590:0:0:0:0:
448,192,10242,1,0,0:0:0:0:
64,192,10459,128,0,10677:0:0:0:0:
192,192,10459,1,0,0:0:0:0:
192,192,10785,128,0,11003:0:0:0:0:
320,192,10785,1,0,0:0:0:0:
320,192,11111,1,0,0:0:0:0:
448,192,11111,128,0,11329:0:0:0:0:
64,192,12198,128,0,12416:0:0:0:0:
192,192,12198,1,0,0:0:0:0:
192,192,12524,128,0,12742:0:0:0:0:
320,192,12524,1,0,0:0:0:0:
320,192,12850,1,0,0:0:0:0:
448,192,12850,128,0,13068:0:0:0:0:
320,192,13720,1,0,0:0:0:0:
64,192,13937,128,0,14155:0:0:0:0:
192,192,13937,1,0,0:0:0:0:
192,192,14263,128,0,14481:0:0:0:0:
320,192,14263,1,0,0:0:0:0:
320,192,14590,1,0,0:0:0:0:
448,192,14590,128,0,14807:0:0:0:0:
192,192,15024,1,0,0:0:0:0:
320,192,15242,1,0,0:0:0:0:
64,192,15677,128,0,15894:0:0:0:0:
448,192,15677,1,0,0:0:0:0:
192,192,15894,128,0,16111:0:0:0:0:
320,192,16111,128,0,16329:0:0:0:0:
448,192,16329,128,0,16546:0:0:0:0:
64,192,17416,1,0,0:0:0:0:
192,192,17416,128,0,17633:0:0:0:0:
320,192,17633,128,0,17850:0:0:0:0:
448,192,17850,128,0,18068:0:0:0:0:
320,192,18068,128,0,18285:0:0:0:0:
64,192,19155,128,0,19372:0:0:0:0:
448,192,19155,1,0,0:0:0:0:
192,192,19372,128,0,19590:0:0:0:0:
320,192,19590,128,0,19807:0:0:0:0:
448,192,19807,128,0,20024:0:0:0:0:
64,192,20894,1,0,0:0:0:0:
192,192,20894,128,0,21111:0:0:0:0:
320,192,21111,128,0,21329:0:0:0:0:
448,192,21329,128,0,21763:0:0:0:0:
192,192,21546,128,0,21763:0:0:0:0:
64,192,22633,128,2,22850:0:0:0:0:
192,192,22633,1,0,0:0:0:0:
448,192,22850,1,0,0:0:0:0:
192,192,22959,128,0,23177:0:0:0:0:
320,192,23068,1,2,0:0:0:0:
448,192,23285,128,0,23503:0:0:0:0:
64,192,23503,1,2,0:0:0:0:
192,192,23503,1,0,0:0:0:0:
192,192,23937,1,2,0:0:0:0:
320,192,23937,1,0,0:0:0:0:
64,192,24155,1,0,0:0:0:0:
320,192,24372,1,2,0:0:0:0:
448,192,24372,128,0,24590:0:0:0:0:
320,192,24698,128,0,24916:0:0:0:0:
192,192,24807,1,2,0:0:0:0:
64,192,25024,128,0,25242:0:0:0:0:
320,192,25242,1,2,0:0:0:0:
448,192,25242,1,0,0:0:0:0:
192,192,25459,1,0,0:0:0:0:
64,192,25677,1,2,0:0:0:0:
448,192,25677,1,0,0:0:0:0:
320,192,25894,1,0,0:0:0:0:
64,192,26111,128,2,26329:0:0:0:0:
192,192,26111,1,0,0:0:0:0:
192,192,26437,128,0,26655:0:0:0:0:
320,192,26546,1,2,0:0:0:0:
448,192,26763,128,0,26981:0:0:0:0:
64,192,26981,1,2,0:0:0:0:
192,192,26981,1,0,0:0:0:0:
192,192,27416,1,2,0:0:0:0:
320,192,27416,1,0,0:0:0:0:
64,192,27633,1,0,0:0:0:0:
320,192,27850,1,2,0:0:0:0:
448,192,27850,128,0,28068:0:0:0:0:
320,192,28177,128,0,28394:0:0:0:0:
192,192,28285,1,2,0:0:0:0:
64,192,28503,128,0,28720:0:0:0:0:
320,192,28720,1,2,0:0:0:0:
448,192,28720,1,0,0:0:0:0:
192,192,29155,1,2,0:0:0:0:
320,192,29155,1,0,0:0:0:0:
448,192,29372,1,0,0:0:0:0:
64,192,29590,128,2,29807:0:0:0:0:
192,192,29590,1,4,0:0:0:0:
320,192,29590,1,0,0:0:0:0:
192,192,30024,128,2,30242:0:0:0:0:
320,192,30024,1,0,0:0:0:0:
320,192,30459,128,2,30677:0:0:0:0:
448,192,30459,1,0,0:0:0:0:
192,192,30677,128,0,30894:0:0:0:0:
64,192,30894,1,2,0:0:0:0:
448,192,30894,1,0,0:0:0:0:
320,192,31329,1,2,0:0:0:0:
448,192,31329,128,0,31546:0:0:0:0:
192,192,31763,1,2,0:0:0:0:
320,192,31763,128,0,31981:0:0:0:0:
64,192,32198,128,2,32416:0:0:0:0:
192,192,32198,1,0,0:0:0:0:
448,192,32416,128,0,32633:0:0:0:0:
192,192,32633,1,2,0:0:0:0:
320,192,32633,128,0,32850:0:0:0:0:
64,192,33068,128,2,33285:0:0:0:0:
192,192,33068,1,0,0:0:0:0:
192,192,33503,128,2,33720:0:0:0:0:
320,192,33503,1,0,0:0:0:0:
320,192,33937,128,2,34155:0:0:0:0:
448,192,33937,1,0,0:0:0:0:
192,192,34155,128,0,34372:0:0:0:0:
64,192,34372,1,2,0:0:0:0:
448,192,34372,1,0,0:0:0:0:
320,192,34807,1,2,0:0:0:0:
448,192,34807,128,0,35024:0:0:0:0:
192,192,35242,1,2,0:0:0:0:
320,192,35242,128,0,35459:0:0:0:0:
64,192,35677,1,2,0:0:0:0:
192,192,35677,128,0,36111:0:0:0:0:
320,192,36111,128,2,36546:0:0:0:0:
448,192,36111,1,0,0:0:0:0:
64,192,36546,1,4,0:0:0:0:
192,192,36546,1,2,0:0:0:0:
448,192,36546,1,0,0:0:0:0:
192,192,36763,1,0,0:0:0:0:
320,192,36981,1,2,0:0:0:0:
448,192,36981,1,0,0:0:0:0:
320,192,37198,1,0,0:0:0:0:
64,192,37416,1,2,0:0:0:0:
192,192,37416,1,0,0:0:0:0:
448,192,37524,1,0,0:0:0:0:
64,192,37633,128,0,37850:0:0:0:0:
192,192,37850,1,2,0:0:0:0:
320,192,37850,1,0,0:0:0:0:
192,192,38068,1,0,0:0:0:0:
320,192,38285,1,2,0:0:0:0:
448,192,38285,1,0,0:0:0:0:
448,192,38503,1,0,0:0:0:0:
64,192,38720,1,2,0:0:0:0:
320,192,38720,1,0,0:0:0:0:
64,192,38937,1,0,0:0:0:0:
192,192,39155,1,2,0:0:0:0:
448,192,39155,1,0,0:0:0:0:
448,192,39372,128,0,39590:0:0:0:0:
64,192,39590,1,2,0:0:0:0:
192,192,39590,1,0,0:0:0:0:
192,192,39807,128,0,40024:0:0:0:0:
64,192,40024,1,2,0:0:0:0:
320,192,40024,1,4,0:0:0:0:
448,192,40024,1,0,0:0:0:0:
320,192,40242,1,0,0:0:0:0:
64,192,40459,1,2,0:0:0:0:
448,192,40459,1,0,0:0:0:0:
64,192,40677,1,0,0:0:0:0:
192,192,40894,1,8,0:0:0:0:
448,192,40894,1,0,0:0:0:0:
192,192,41111,1,2,0:0:0:0:
320,192,41329,1,8,0:0:0:0:
448,192,41329,1,0,0:0:0:0:
320,192,41546,1,2,0:0:0:0:
64,192,41763,128,2,41981:0:0:0:0:
192,192,41763,1,0,0:0:0:45:cymbal_short.wav
448,192,41763,128,0,41981:0:0:0:0:
64,192,42090,128,2,42307:0:0:0:0:
448,192,42090,128,0,42307:0:0:0:45:cymbal_short.wav
192,192,42416,128,2,42633:0:0:0:0:
320,192,42416,128,0,42633:0:0:0:45:cymbal_short.wav
448,192,42633,128,0,42850:0:0:0:0:
64,192,42850,128,0,43068:0:0:0:0:
192,192,43068,128,0,43285:0:0:0:0:
320,192,43285,128,0,43503:0:0:0:0:
64,192,43503,1,2,0:0:0:0:
192,192,43503,1,4,0:0:0:0:
448,192,43503,1,0,0:0:0:0:
448,192,43720,128,0,43937:0:0:0:0:
64,192,43937,128,8,44046:0:0:0:0:
320,192,43937,1,0,0:0:0:0:
64,192,44155,128,0,44372:0:0:0:0:
192,192,44372,1,2,0:0:0:0:
448,192,44372,128,0,44807:0:0:0:0:
320,192,44590,128,0,44807:0:0:0:0:
64,192,44807,1,8,0:0:0:0:
192,192,44807,128,0,45242:0:0:0:0:
448,192,45024,128,0,45242:0:0:0:0:
64,192,45242,1,2,0:0:0:0:
320,192,45242,1,0,0:0:0:0:
320,192,45459,128,0,45677:0:0:0:0:
64,192,45677,1,8,0:0:0:0:
448,192,45677,1,0,0:0:0:0:
192,192,45894,1,0,0:0:0:0:
320,192,46111,1,2,0:0:0:0:
448,192,46111,128,0,46329:0:0:0:0:
64,192,46329,128,0,46546:0:0:0:0:
192,192,46546,128,8,46763:0:0:0:0:
448,192,46546,1,0,0:0:0:0:
320,192,46763,128,0,47198:0:0:0:0:
64,192,46981,1,2,0:0:0:0:
448,192,46981,1,0,0:0:0:0:
448,192,47198,128,0,47416:0:0:0:0:
64,192,47416,1,8,0:0:0:0:
192,192,47416,128,0,47524:0:0:0:0:
192,192,47633,128,0,47850:0:0:0:0:
64,192,47850,1,2,0:0:0:0:
448,192,47850,128,0,48285:0:0:0:0:
320,192,48068,128,0,48285:0:0:0:0:
64,192,48285,128,8,48720:0:0:0:0:
192,192,48285,1,0,0:0:0:0:
448,192,48503,128,0,48720:0:0:0:0:
192,192,48720,1,2,0:0:0:0:
320,192,48720,1,0,0:0:0:0:
320,192,48937,128,0,49155:0:0:0:0:
64,192,49155,1,8,0:0:0:0:
192,192,49155,1,0,0:0:0:0:
448,192,49372,1,0,0:0:0:0:
192,192,49590,128,2,49807:0:0:0:0:
64,192,49698,1,8,0:0:0:0:
320,192,49698,1,0,0:0:0:0:
448,192,49807,1,0,0:0:0:0:
64,192,50024,128,8,50242:0:0:0:0:
192,192,50024,1,0,0:0:0:0:
448,192,50242,1,8,0:0:0:0:
320,192,50350,1,8,0:0:0:0:
64,192,50459,1,2,0:0:0:0:
192,192,50459,128,4,50677:0:0:0:0:
320,192,50785,128,0,51003:0:0:0:0:
64,192,50894,1,8,0:0:0:0:
448,192,50894,1,0,0:0:0:0:
448,192,51111,128,0,51329:0:0:0:0:
64,192,51329,1,2,0:0:0:0:
192,192,51329,1,0,0:0:0:0:
192,192,51546,128,0,51763:0:0:0:0:
320,192,51763,1,8,0:0:0:0:
448,192,51763,1,0,0:0:0:0:
64,192,51981,128,0,52198:0:0:0:0:
192,192,52198,1,2,0:0:0:0:
320,192,52198,128,4,52416:0:0:0:0:
192,192,52524,128,0,52742:0:0:0:0:
64,192,52633,1,8,0:0:0:0:
448,192,52633,1,0,0:0:0:0:
64,192,52850,128,0,53068:0:0:0:0:
320,192,53068,1,2,0:0:0:0:
448,192,53068,1,4,0:0:0:0:
320,192,53285,128,0,53503:0:0:0:0:
64,192,53503,1,8,0:0:0:0:
192,192,53503,128,0,53720:0:0:0:0:
448,192,53720,128,0,54372:0:0:0:0:
64,192,53937,1,2,0:0:0:0:
320,192,53937,1,4,0:0:0:0:
192,192,54372,1,8,0:0:0:0:
320,192,54372,1,0,0:0:0:0:
64,192,54590,1,0,0:0:0:0:
320,192,54807,1,2,0:0:0:0:
448,192,54807,1,0,0:0:0:0:
64,192,54916,1,8,0:0:0:0:
192,192,54916,1,0,0:0:0:0:
320,192,55024,1,0,0:0:0:0:
64,192,55242,1,8,0:0:0:0:
448,192,55242,1,0,0:0:0:0:
192,192,55459,1,2,0:0:0:0:
320,192,55568,1,2,0:0:0:0:
64,192,55677,1,8,0:0:0:0:
448,192,55677,128,4,56003:0:0:0:0:
192,192,55894,1,2,0:0:0:0:
320,192,56003,128,0,56329:0:0:0:50:Tom 2.wav
64,192,56220,1,2,0:0:0:0:
192,192,56329,128,0,56546:0:0:0:50:Tom 1.wav
64,192,56546,1,4,0:0:0:0:
320,192,56546,1,0,0:0:0:0:
448,192,56546,1,0,0:0:0:0:
192,192,56763,1,0,0:0:0:0:
320,192,56981,1,8,0:0:0:0:
448,192,56981,1,0,0:0:0:0:
64,192,57090,1,8,0:0:0:0:
192,192,57198,1,8,0:0:0:0:
320,192,57307,1,8,0:0:0:0:
64,192,57416,1,2,0:0:0:0:
192,192,57416,1,4,0:0:0:0:
448,192,57416,1,0,0:0:0:0:
64,192,57633,128,0,57850:0:0:0:0:
192,192,57850,1,8,0:0:0:0:
448,192,57850,128,0,57959:0:0:0:0:
448,192,58068,128,0,58285:0:0:0:0:
64,192,58285,128,2,58720:0:0:0:0:
320,192,58285,1,0,0:0:0:0:
192,192,58503,128,0,58720:0:0:0:0:
320,192,58720,128,8,59155:0:0:0:0:
448,192,58720,1,0,0:0:0:0:
64,192,58937,128,0,59155:0:0:0:0:
192,192,59155,1,2,0:0:0:0:
448,192,59155,1,0,0:0:0:0:
192,192,59372,128,0,59590:0:0:0:0:
64,192,59590,1,8,0:0:0:0:
448,192,59590,1,0,0:0:0:0:
320,192,59807,128,0,60242:0:0:0:0:
64,192,60024,1,2,0:0:0:0:
192,192,60024,1,0,0:0:0:0:
448,192,60242,128,0,60459:0:0:0:0:
320,192,60459,1,8,0:0:0:0:
64,192,60459,128,0,60785:0:0:0:0:
192,192,60785,128,0,61329:0:0:0:0:
320,192,60894,1,2,0:0:0:0:
448,192,60894,1,0,0:0:0:0:
64,192,61111,1,0,0:0:0:0:
320,192,61329,1,8,0:0:0:0:
448,192,61329,1,0,0:0:0:0:
192,192,61546,1,0,0:0:0:0:
64,192,61763,1,2,0:0:0:0:
448,192,61763,1,0,0:0:0:0:
320,192,61981,128,0,62198:0:0:0:0:
192,192,62198,1,8,0:0:0:0:
448,192,62198,128,0,62633:0:0:0:0:
64,192,62416,128,0,62633:0:0:0:0:
192,192,62633,1,2,0:0:0:0:
320,192,62633,1,0,0:0:0:0:
192,192,62850,128,0,63068:0:0:0:0:
320,192,63068,1,8,0:0:0:0:
448,192,63068,1,0,0:0:0:0:
64,192,63285,1,0,0:0:0:0:
320,192,63503,128,2,63720:0:0:0:0:
192,192,63611,1,8,0:0:0:0:
448,192,63611,1,0,0:0:0:0:
64,192,63720,1,0,0:0:0:0:
320,192,63937,1,8,0:0:0:0:
448,192,63937,128,0,64155:0:0:0:0:
64,192,64155,1,8,0:0:0:0:
192,192,64263,1,8,0:0:0:0:
320,192,64372,128,2,64590:0:0:0:0:
448,192,64372,1,4,0:0:0:0:
64,192,64590,1,0,0:0:0:0:
192,192,64807,1,8,0:0:0:0:
320,192,64807,1,0,0:0:0:0:
448,192,65024,128,0,65242:0:0:0:0:
64,192,65242,1,2,0:0:0:0:
192,192,65242,128,4,65677:0:0:0:0:
320,192,65350,1,8,0:0:0:0:
64,192,65677,1,8,0:0:0:0:
448,192,65677,128,0,65894:0:0:0:0:
320,192,65894,128,0,66111:0:0:0:0:
64,192,66111,128,2,66329:0:0:0:0:
192,192,66111,128,4,66329:0:0:0:0:
448,192,66329,1,0,0:0:0:0:
320,192,66437,128,0,66981:0:0:0:0:
192,192,66546,128,6,66763:0:0:0:0:
448,192,66763,128,0,66981:0:0:0:0:
64,192,66981,128,4,67198:0:0:0:0:
192,192,66981,128,2,67198:0:0:0:0:
448,192,67198,1,0,0:0:0:0:
320,192,67307,1,0,0:0:0:0:
64,192,67416,1,8,0:0:0:0:
192,192,67416,1,0,0:0:0:0:
320,192,67524,1,8,0:0:0:0:
448,192,67524,1,0,0:0:0:0:
64,192,67633,1,0,0:0:0:50:Tom 3.wav
192,192,67742,1,0,0:0:0:0:
64,192,67850,128,2,68068:0:0:0:0:
320,192,67850,1,4,0:0:0:0:
448,192,67850,128,0,68285:0:0:0:0:
192,192,68285,1,8,0:0:0:0:
320,192,68285,1,2,0:0:0:0:
64,192,68503,128,10,68720:0:0:0:0:
320,192,68720,128,8,69155:0:0:0:0:
448,192,68720,1,2,0:0:0:0:
192,192,68937,1,10,0:0:0:0:
64,192,69155,1,8,0:0:0:0:
448,192,69155,1,2,0:0:0:0:
192,192,69263,1,0,0:0:0:50:Tom 2.wav
320,192,69372,1,0,0:0:0:50:Tom 2.wav
448,192,69481,1,0,0:0:0:50:Tom 3.wav
64,192,69590,1,2,0:0:0:0:
192,192,69590,1,4,0:0:0:0:
320,192,69590,1,0,0:0:0:0:
64,192,70894,128,0,71003:0:0:0:0:
192,192,71003,128,0,71111:0:0:0:0:
320,192,71111,128,0,71220:0:0:0:0:
64,192,71329,1,2,0:0:0:0:
320,192,71329,128,4,71655:0:0:0:0:
448,192,71329,1,0,0:0:0:0:
192,192,71655,128,0,71981:0:0:0:0:
64,192,71763,1,8,0:0:0:0:
448,192,71763,1,0,0:0:0:0:
64,192,71981,128,0,72416:0:0:0:0:
320,192,72198,1,2,0:0:0:0:
448,192,72416,128,0,72850:0:0:0:0:
64,192,72633,1,8,0:0:0:0:
192,192,72633,1,0,0:0:0:0:
320,192,72850,128,0,73068:0:0:0:0:
64,192,73068,128,2,73394:0:0:0:0:
448,192,73068,1,0,0:0:0:0:
192,192,73394,128,0,73720:0:0:0:0:
320,192,73503,1,8,0:0:0:0:
448,192,73503,1,0,0:0:0:0:
448,192,73720,128,0,74155:0:0:0:0:
64,192,73937,1,2,0:0:0:0:
192,192,74155,1,0,0:0:0:0:
320,192,74372,128,8,74481:0:0:0:0:
448,192,74372,1,0,0:0:0:0:
192,192,74481,128,0,74590:0:0:0:0:
64,192,74590,128,0,74698:0:0:0:0:
64,192,74807,128,2,75133:0:0:0:0:
448,192,74807,1,0,0:0:0:0:
320,192,75024,1,0,0:0:0:0:
192,192,75133,128,0,75459:0:0:0:0:
64,192,75242,1,8,0:0:0:0:
448,192,75242,1,0,0:0:0:0:
448,192,75459,128,0,75894:0:0:0:0:
320,192,75677,1,2,0:0:0:0:
64,192,75894,128,0,76329:0:0:0:0:
320,192,76111,1,8,0:0:0:0:
448,192,76111,1,0,0:0:0:0:
192,192,76329,128,0,76437:0:0:0:0:
448,192,76437,128,0,76546:0:0:0:0:
192,192,76546,128,2,76872:0:0:0:0:
320,192,76546,1,0,0:0:0:0:
320,192,76872,128,0,77198:0:0:0:0:
64,192,76981,1,8,0:0:0:0:
448,192,76981,1,0,0:0:0:0:
192,192,77198,128,0,77850:0:0:0:0:
320,192,77307,1,8,0:0:0:0:
448,192,77307,1,0,0:0:0:0:
64,192,77416,1,2,0:0:0:0:
320,192,77850,128,8,78068:0:0:0:0:
448,192,77850,1,0,0:0:0:0:
64,192,78068,1,8,0:0:0:0:
192,192,78068,1,0,0:0:0:0:
448,192,78177,1,8,0:0:0:0:
192,192,78285,128,2,78611:0:0:0:0:
320,192,78285,1,0,0:0:0:0:
320,192,78611,128,0,78937:0:0:0:0:
64,192,78720,1,8,0:0:0:0:
448,192,78720,1,0,0:0:0:0:
448,192,78937,128,0,79372:0:0:0:0:
192,192,79155,1,2,0:0:0:0:
64,192,79372,128,0,79807:0:0:0:0:
320,192,79590,1,8,0:0:0:0:
448,192,79590,1,0,0:0:0:0:
192,192,79807,128,0,80024:0:0:0:0:
64,192,80024,1,2,0:0:0:0:
448,192,80024,128,0,80350:0:0:0:0:
320,192,80350,128,0,80677:0:0:0:0:
64,192,80459,1,8,0:0:0:0:
192,192,80459,1,0,0:0:0:0:
64,192,80677,128,0,81111:0:0:0:0:
448,192,80894,1,2,0:0:0:0:
320,192,81111,1,0,0:0:0:0:
64,192,81329,1,8,0:0:0:0:
192,192,81329,128,0,81763:0:0:0:0:
320,192,81546,1,0,0:0:0:0:
64,192,81763,128,2,82198:0:0:0:0:
448,192,81763,1,4,0:0:0:0:
320,192,82198,1,8,0:0:0:0:
448,192,82198,1,2,0:0:0:0:
64,192,82416,1,8,0:0:0:0:
192,192,82416,1,2,0:0:0:0:
64,192,82633,1,8,0:0:0:0:
448,192,82633,1,2,0:0:0:0:
192,192,82850,1,8,0:0:0:0:
320,192,82850,1,2,0:0:0:0:
320,192,83068,1,8,0:0:0:0:
448,192,83068,1,2,0:0:0:0:
64,192,83285,1,8,0:0:0:0:
448,192,83285,1,2,0:0:0:0:
320,192,83503,1,2,0:0:0:0:
64,192,83720,1,8,0:0:0:0:
192,192,83720,1,4,0:0:0:0:
64,192,83937,1,8,0:0:0:0:
448,192,83937,1,4,0:0:0:0:
320,192,84046,1,0,0:0:0:50:Tom 1.wav
192,192,84155,1,0,0:0:0:50:Tom 2.wav
64,192,84263,1,0,0:0:0:50:Tom 3.wav
320,192,84372,128,2,84590:0:0:0:0:
448,192,84372,128,4,85024:0:0:0:0:
192,192,84807,128,2,85024:0:0:0:0:
320,192,84807,128,4,85024:0:0:0:0:
64,192,85242,128,4,85459:0:0:0:0:
448,192,85242,1,2,0:0:0:0:
192,192,85459,128,0,85677:0:0:0:0:
320,192,85677,128,0,85894:0:0:0:0:
448,192,85894,128,0,86111:0:0:0:0:
64,192,86329,128,0,86546:0:0:0:0:
192,192,86546,128,0,86763:0:0:0:0:
448,192,86763,128,0,86981:0:0:0:0:
64,192,87198,128,0,87416:0:0:0:0:
192,192,87416,128,0,87633:0:0:0:0:
448,192,87633,128,0,87850:0:0:0:0:
64,192,87850,128,0,88068:0:0:0:0:
320,192,88068,128,0,88285:0:0:0:0:
192,192,88285,128,0,88503:0:0:0:0:
448,192,88503,128,0,88720:0:0:0:0:
