osu file format v14

[General]
AudioFilename: audio.mp3
AudioLeadIn: 0
PreviewTime: 42633
Countdown: 0
SampleSet: Soft
StackLeniency: 0.7
Mode: 3
LetterboxInBreaks: 0
SpecialStyle: 0
WidescreenStoryboard: 1

[Editor]
DistanceSpacing: 1.3
BeatDivisor: 4
GridSize: 32
TimelineZoom: 1

[Metadata]
Title:Oyasumi Monochrome
TitleUnicode:おやすみモノクローム
Artist:Isui
ArtistUnicode:倚水
Creator:DenYi
Version:Lami's Easy
Source:Dreamin' Her - 僕は、彼女の夢を見る。-
Tags:Lami- -Ming- Nabi- VN visual novel Japanese J-pop jpop pop Dreamin' Her Boku wa Kanojo no Yume o Miru video game op opening LIFE0 Islet とむ少佐
BeatmapID:3653280
BeatmapSetID:1783863

[Difficulty]
HPDrainRate:6.5
CircleSize:4
OverallDifficulty:6.5
ApproachRate:5
SliderMultiplier:1.4
SliderTickRate:1

[Events]
//Background and Video events
0,0,"lami.jpg",0,0
Video,-120,"opmv2.flv"
//Break Periods
//Storyboard Layer 0 (Background)
//Storyboard Layer 1 (Fail)
//Storyboard Layer 2 (Pass)
//Storyboard Layer 3 (Foreground)
//Storyboard Layer 4 (Overlay)
//Storyboard Sound Samples
Sample,41763,0,"cymbal_short.wav",45
Sample,42090,0,"cymbal_short.wav",45
Sample,42416,0,"cymbal_short.wav",45

[TimingPoints]
1764,434.782608695652,4,2,1,50,1,0
43503,-100,4,2,1,50,0,1
71329,-100,4,2,1,50,0,0

[HitObjects]
64,192,1764,128,0,2416:0:0:0:0:
448,192,2416,1,0,0:0:0:0:
448,192,3503,128,0,4155:0:0:0:0:
192,192,4155,1,0,0:0:0:0:
192,192,5242,128,0,5894:0:0:0:0:
320,192,5894,1,0,0:0:0:0:
320,192,6981,128,0,7633:0:0:0:0:
448,192,7633,1,0,0:0:0:0:
448,192,8720,128,0,9372:0:0:0:0:
64,192,9372,1,0,0:0:0:0:
64,192,10459,128,0,11111:0:0:0:0:
320,192,11111,1,0,0:0:0:0:
320,192,12198,128,0,12850:0:0:0:0:
192,192,12850,1,0,0:0:0:0:
192,192,13937,128,0,14590:0:0:0:0:
448,192,14590,1,0,0:0:0:0:
320,192,15024,1,0,0:0:0:0:
192,192,15242,1,0,0:0:0:0:
448,192,15677,128,0,16329:0:0:0:0:
64,192,16329,1,0,0:0:0:0:
64,192,17416,128,0,18068:0:0:0:0:
320,192,18068,1,0,0:0:0:0:
320,192,19155,128,0,19807:0:0:0:0:
192,192,19807,1,0,0:0:0:0:
192,192,20894,128,0,21546:0:0:0:0:
448,192,21546,1,0,0:0:0:0:
448,192,22633,128,2,23503:0:0:0:0:
192,192,23068,1,2,0:0:0:0:
64,192,23503,1,2,0:0:0:0:
320,192,23937,1,2,0:0:0:0:
64,192,24372,128,2,25242:0:0:0:0:
448,192,24807,1,2,0:0:0:0:
320,192,25242,1,2,0:0:0:0:
192,192,25677,1,2,0:0:0:0:
320,192,26111,128,2,26981:0:0:0:0:
64,192,26546,1,2,0:0:0:0:
192,192,26981,1,2,0:0:0:0:
448,192,27416,1,2,0:0:0:0:
192,192,27850,128,2,28720:0:0:0:0:
320,192,28285,1,2,0:0:0:0:
64,192,28720,128,2,29155:0:0:0:0:
448,192,29155,128,2,29590:0:0:0:0:
64,192,29590,1,2,0:0:0:0:
320,192,29590,1,4,0:0:0:0:
192,192,30024,1,2,0:0:0:0:
448,192,30459,1,2,0:0:0:0:
64,192,30677,1,0,0:0:0:0:
192,192,30894,1,2,0:0:0:0:
320,192,31329,1,2,0:0:0:0:
64,192,31763,1,2,0:0:0:0:
448,192,32198,1,2,0:0:0:0:
192,192,32416,1,0,0:0:0:0:
320,192,32633,1,2,0:0:0:0:
448,192,33068,1,2,0:0:0:0:
64,192,33503,1,2,0:0:0:0:
320,192,33937,1,2,0:0:0:0:
64,192,34155,1,0,0:0:0:0:
192,192,34372,1,2,0:0:0:0:
448,192,34807,1,2,0:0:0:0:
64,192,35242,1,2,0:0:0:0:
448,192,35459,1,0,0:0:0:0:
320,192,35677,1,2,0:0:0:0:
192,192,36111,1,2,0:0:0:0:
64,192,36546,1,4,0:0:0:0:
448,192,36546,1,2,0:0:0:0:
320,192,36981,1,2,0:0:0:0:
64,192,37416,1,2,0:0:0:0:
448,192,37633,1,0,0:0:0:0:
192,192,37850,1,2,0:0:0:0:
320,192,38285,1,2,0:0:0:0:
448,192,38720,1,2,0:0:0:0:
192,192,39155,1,2,0:0:0:0:
64,192,39372,1,0,0:0:0:0:
320,192,39590,1,2,0:0:0:0:
64,192,40024,1,2,0:0:0:0:
192,192,40024,1,4,0:0:0:0:
448,192,40459,1,2,0:0:0:0:
192,192,40894,1,8,0:0:0:0:
320,192,40894,1,0,0:0:0:0:
64,192,41329,1,8,0:0:0:0:
448,192,41329,1,0,0:0:0:0:
192,192,41763,1,2,0:0:0:0:
320,192,42090,1,2,0:0:0:0:
448,192,42416,1,2,0:0:0:0:
64,192,42633,1,0,0:0:0:0:
320,192,43068,128,0,43503:0:0:0:0:
64,192,43503,1,2,0:0:0:0:
192,192,43503,1,4,0:0:0:0:
320,192,43937,1,8,0:0:0:0:
448,192,43937,1,0,0:0:0:0:
192,192,44372,1,2,0:0:0:0:
64,192,44807,1,8,0:0:0:0:
448,192,44807,1,0,0:0:0:0:
320,192,45242,1,2,0:0:0:0:
64,192,45677,1,8,0:0:0:0:
192,192,45677,1,0,0:0:0:0:
320,192,46111,1,2,0:0:0:0:
64,192,46546,1,8,0:0:0:0:
448,192,46546,1,0,0:0:0:0:
192,192,46981,1,2,0:0:0:0:
320,192,47416,1,8,0:0:0:0:
448,192,47416,1,0,0:0:0:0:
64,192,47850,1,2,0:0:0:0:
192,192,48285,1,8,0:0:0:0:
448,192,48285,1,0,0:0:0:0:
320,192,48720,1,2,0:0:0:0:
64,192,49155,1,8,0:0:0:0:
192,192,49155,1,0,0:0:0:0:
448,192,49590,128,2,50024:0:0:0:0:
320,192,50024,128,8,50459:0:0:0:0:
64,192,50459,1,2,0:0:0:0:
192,192,50459,1,4,0:0:0:0:
320,192,50894,1,8,0:0:0:0:
448,192,50894,1,0,0:0:0:0:
192,192,51329,1,2,0:0:0:0:
64,192,51763,1,8,0:0:0:0:
448,192,51763,1,0,0:0:0:0:
192,192,52198,1,2,0:0:0:0:
320,192,52198,1,4,0:0:0:0:
64,192,52633,1,8,0:0:0:0:
320,192,52633,1,0,0:0:0:0:
192,192,53068,1,2,0:0:0:0:
448,192,53068,1,4,0:0:0:0:
192,192,53503,1,8,0:0:0:0:
320,192,53503,1,0,0:0:0:0:
64,192,53937,1,2,0:0:0:0:
448,192,53937,1,4,0:0:0:0:
192,192,54372,1,8,0:0:0:0:
320,192,54372,1,0,0:0:0:0:
448,192,54807,1,2,0:0:0:0:
64,192,55242,1,8,0:0:0:0:
192,192,55459,1,2,0:0:0:0:
320,192,55677,1,8,0:0:0:0:
448,192,55677,1,4,0:0:0:0:
192,192,56111,1,0,0:0:0:0:
64,192,56546,128,4,56981:0:0:0:0:
320,192,56546,1,0,0:0:0:0:
448,192,56981,128,8,57416:0:0:0:0:
64,192,57416,1,2,0:0:0:0:
192,192,57416,1,4,0:0:0:0:
320,192,57850,1,8,0:0:0:0:
448,192,57850,1,0,0:0:0:0:
192,192,58285,1,2,0:0:0:0:
64,192,58720,1,8,0:0:0:0:
448,192,58720,1,0,0:0:0:0:
320,192,59155,1,2,0:0:0:0:
64,192,59590,1,8,0:0:0:0:
192,192,59590,1,0,0:0:0:0:
320,192,60024,1,2,0:0:0:0:
64,192,60459,1,8,0:0:0:0:
448,192,60459,1,0,0:0:0:0:
192,192,60894,1,2,0:0:0:0:
320,192,61329,1,8,0:0:0:0:
448,192,61329,1,0,0:0:0:0:
192,192,61763,1,2,0:0:0:0:
64,192,62198,1,8,0:0:0:0:
320,192,62198,1,0,0:0:0:0:
448,192,62633,1,2,0:0:0:0:
192,192,63068,1,8,0:0:0:0:
320,192,63068,1,0,0:0:0:0:
64,192,63503,128,2,63937:0:0:0:0:
448,192,63937,1,8,0:0:0:0:
192,192,64155,1,8,0:0:0:0:
320,192,64372,128,2,64807:0:0:0:0:
448,192,64372,1,4,0:0:0:0:
64,192,64807,1,8,0:0:0:0:
192,192,64807,1,0,0:0:0:0:
192,192,65242,128,2,65677:0:0:0:0:
448,192,65242,1,4,0:0:0:0:
64,192,65677,1,8,0:0:0:0:
320,192,65677,1,0,0:0:0:0:
320,192,66111,128,2,66546:0:0:0:0:
448,192,66111,1,4,0:0:0:0:
192,192,66546,128,6,66981:0:0:0:0:
64,192,66981,128,6,67416:0:0:0:0:
448,192,67416,128,8,67850:0:0:0:0:
64,192,67850,1,2,0:0:0:0:
192,192,67850,1,4,0:0:0:0:
320,192,68285,1,8,0:0:0:0:
448,192,68285,1,2,0:0:0:0:
64,192,68720,128,8,69155:0:0:0:0:
192,192,68720,1,2,0:0:0:0:
448,192,69155,1,10,0:0:0:0:
320,192,69372,1,0,0:0:0:50:Tom 2.wav
64,192,69590,1,2,0:0:0:0:
192,192,69590,1,4,0:0:0:0:
448,192,70894,128,0,71329:0:0:0:0:
64,192,71329,1,2,0:0:0:0:
192,192,71329,1,4,0:0:0:0:
320,192,71763,1,8,0:0:0:0:
448,192,71763,1,0,0:0:0:0:
64,192,72198,1,2,0:0:0:0:
192,192,72633,1,8,0:0:0:0:
448,192,72633,1,0,0:0:0:0:
320,192,73068,1,2,0:0:0:0:
64,192,73503,1,8,0:0:0:0:
192,192,73503,1,0,0:0:0:0:
448,192,73937,1,2,0:0:0:0:
192,192,74372,1,8,0:0:0:0:
320,192,74372,1,0,0:0:0:0:
64,192,74807,1,2,0:0:0:0:
320,192,75242,1,8,0:0:0:0:
448,192,75242,1,0,0:0:0:0:
64,192,75677,1,2,0:0:0:0:
192,192,76111,1,8,0:0:0:0:
448,192,76111,1,0,0:0:0:0:
320,192,76546,1,2,0:0:0:0:
64,192,76981,1,8,0:0:0:0:
192,192,76981,1,0,0:0:0:0:
320,192,77416,1,2,0:0:0:0:
448,192,77850,1,8,0:0:0:0:
64,192,78068,1,8,0:0:0:0:
192,192,78285,1,2,0:0:0:0:
320,192,78720,1,8,0:0:0:0:
448,192,78720,1,0,0:0:0:0:
64,192,79155,1,2,0:0:0:0:
192,192,79590,1,8,0:0:0:0:
448,192,79590,1,0,0:0:0:0:
320,192,80024,1,2,0:0:0:0:
64,192,80459,1,8,0:0:0:0:
192,192,80459,1,0,0:0:0:0:
448,192,80894,1,2,0:0:0:0:
64,192,81329,1,8,0:0:0:0:
320,192,81329,1,0,0:0:0:0:
192,192,81763,1,2,0:0:0:0:
448,192,81763,1,4,0:0:0:0:
64,192,82198,1,10,0:0:0:0:
320,192,82416,1,10,0:0:0:0:
448,192,82633,1,10,0:0:0:0:
192,192,83068,1,10,0:0:0:0:
64,192,83285,1,10,0:0:0:0:
448,192,83720,1,12,0:0:0:0:
320,192,83937,1,12,0:0:0:0:
192,192,84372,1,2,0:0:0:0:
448,192,84372,128,4,84807:0:0:0:0:
64,192,84807,128,2,85242:0:0:0:0:
320,192,84807,1,4,0:0:0:0:
448,192,85242,128,6,85894:0:0:0:0:
320,192,85894,1,0,0:0:0:0:
192,192,86329,128,0,86763:0:0:0:0:
448,192,86763,1,0,0:0:0:0:
64,192,87198,128,0,87633:0:0:0:0:
192,192,87633,1,0,0:0:0:0:
320,192,87850,128,0,88503:0:0:0:0:
64,192,88503,1,0,0:0:0:0:
