osu file format v14

[General]
AudioFilename: audio.ogg
AudioLeadIn: 0
PreviewTime: 9154
Countdown: 0
SampleSet: Soft
StackLeniency: 0.7
Mode: 3
LetterboxInBreaks: 0
SpecialStyle: 0
WidescreenStoryboard: 1

[Editor]
DistanceSpacing: 1.5
BeatDivisor: 4
GridSize: 32
TimelineZoom: 1

[Metadata]
Title:Craiova
TitleUnicode:Craiova
Artist:Israel Delgado
ArtistUnicode:Israel Delgado
Creator:Carpihat
Version:Hard
Source:El Hormiguero
Tags:pablo motos trancas y barrancas antena 3 españa comedia television instrumental cabecera bso atresmedia marionetas orquesta verbena 7yacción el hormiguero 3.0 -ryu- ost intro spain comedy talk show tv other puppet
BeatmapID:4451553
BeatmapSetID:2118582

[Difficulty]
HPDrainRate:7.5
CircleSize:7
OverallDifficulty:7.5
ApproachRate:5
SliderMultiplier:1.4
SliderTickRate:1

[Events]
//Background and Video events
0,0,"bg.jpg",0,0
//Break Periods
//Storyboard Layer 0 (Background)
//Storyboard Layer 1 (Fail)
//Storyboard Layer 2 (Pass)
//Storyboard Layer 3 (Foreground)
//Storyboard Layer 4 (Overlay)
//Storyboard Sound Samples

[TimingPoints]
2,338.983050847458,4,2,1,50,1,0

[HitObjects]
256,192,9154,128,0,9324:0:0:0:0:
109,192,9493,1,2,0:0:0:0:
182,192,9493,1,4,0:0:0:0:
402,192,9493,128,0,9832:0:0:0:0:
329,192,9663,1,0,0:0:0:60:cymbaltap.wav
36,192,9832,1,2,0:0:0:0:
182,192,9832,128,0,10002:0:0:0:60:tambourine.wav
402,192,10002,128,0,10171:0:0:0:60:cymbaltap.wav
109,192,10171,128,2,10340:0:0:0:0:
256,192,10171,1,0,0:0:0:60:tambourine.wav
475,192,10340,1,0,0:0:0:60:cymbaltap.wav
402,192,10425,1,0,0:0:0:0:
182,192,10510,1,2,0:0:0:0:
329,192,10510,128,0,10679:0:0:0:60:tambourine.wav
36,192,10679,128,0,10849:0:0:0:60:cymbaltap.wav
109,192,10849,1,2,0:0:0:0:
256,192,10849,128,0,11188:0:0:0:60:tambourine.wav
402,192,11018,1,0,0:0:0:60:cymbaltap.wav
329,192,11188,1,2,0:0:0:0:
475,192,11188,128,0,11527:0:0:0:60:tambourine.wav
109,192,11357,1,0,0:0:0:60:cymbaltap.wav
36,192,11527,1,2,0:0:0:0:
182,192,11527,1,0,0:0:0:60:tambourine.wav
402,192,11696,1,0,0:0:0:60:cymbaltap.wav
329,192,11781,1,0,0:0:0:0:
109,192,11866,128,2,12035:0:0:0:0:
182,192,11866,1,0,0:0:0:60:tambourine.wav
256,192,12035,128,0,12205:0:0:0:60:cymbaltap.wav
36,192,12205,1,2,0:0:0:0:
475,192,12205,128,0,12374:0:0:0:60:tambourine.wav
329,192,12374,128,0,12544:0:0:0:60:cymbaltap.wav
109,192,12544,1,2,0:0:0:0:
182,192,12544,128,0,12883:0:0:0:60:tambourine.wav
256,192,12713,1,0,0:0:0:60:cymbaltap.wav
36,192,12883,1,2,0:0:0:0:
475,192,12883,1,0,0:0:0:60:tambourine.wav
329,192,13052,1,0,0:0:0:60:cymbaltap.wav
256,192,13137,1,0,0:0:0:0:
109,192,13222,1,2,0:0:0:0:
182,192,13222,128,0,13391:0:0:0:60:tambourine.wav
36,192,13391,128,0,13561:0:0:0:60:cymbaltap.wav
402,192,13561,128,2,13730:0:0:0:0:
475,192,13561,1,0,0:0:0:60:tambourine.wav
256,192,13730,128,0,13900:0:0:0:60:cymbaltap.wav
36,192,13900,1,2,0:0:0:0:
109,192,13900,128,0,14239:0:0:0:60:tambourine.wav
182,192,14069,1,0,0:0:0:60:cymbaltap.wav
329,192,14239,1,2,0:0:0:0:
402,192,14239,1,0,0:0:0:60:tambourine.wav
256,192,14408,1,0,0:0:0:60:cymbaltap.wav
36,192,14578,128,8,14917:0:0:0:0:
475,192,14578,1,0,0:0:0:60:tambourine.wav
182,192,14747,1,0,0:0:0:60:cymbaltap.wav
109,192,14917,1,2,0:0:0:0:
256,192,14917,1,4,0:0:0:0:
402,192,14917,128,0,15256:0:0:0:0:
329,192,15086,1,0,0:0:0:60:cymbaltap.wav
36,192,15256,1,2,0:0:0:0:
182,192,15256,128,0,15425:0:0:0:60:tambourine.wav
402,192,15425,128,0,15595:0:0:0:60:cymbaltap.wav
109,192,15595,128,2,15764:0:0:0:0:
256,192,15595,1,0,0:0:0:60:tambourine.wav
475,192,15764,1,0,0:0:0:60:cymbaltap.wav
402,192,15849,1,0,0:0:0:0:
182,192,15934,1,2,0:0:0:0:
329,192,15934,128,0,16103:0:0:0:60:tambourine.wav
36,192,16103,128,0,16273:0:0:0:60:cymbaltap.wav
109,192,16273,1,2,0:0:0:0:
256,192,16273,128,0,16612:0:0:0:60:tambourine.wav
182,192,16442,1,0,0:0:0:60:cymbaltap.wav
329,192,16612,1,2,0:0:0:0:
475,192,16612,128,0,16951:0:0:0:60:tambourine.wav
402,192,16781,1,0,0:0:0:60:cymbaltap.wav
182,192,16951,1,2,0:0:0:0:
256,192,16951,1,0,0:0:0:60:tambourine.wav
109,192,17120,128,0,17290:0:0:0:60:cymbaltap.wav
402,192,17290,128,2,17459:0:0:0:0:
475,192,17290,1,0,0:0:0:60:tambourine.wav
109,192,17459,128,0,17629:0:0:0:60:cymbaltap.wav
36,192,17629,1,2,0:0:0:0:
329,192,17629,128,0,17798:0:0:0:60:tambourine.wav
402,192,17798,128,0,17968:0:0:0:60:cymbaltap.wav
182,192,17968,1,2,0:0:0:0:
475,192,17968,128,0,18307:0:0:0:60:tambourine.wav
256,192,18137,1,0,0:0:0:60:cymbaltap.wav
36,192,18307,1,2,0:0:0:0:
329,192,18307,1,0,0:0:0:60:tambourine.wav
109,192,18476,1,0,0:0:0:60:cymbaltap.wav
256,192,18561,1,0,0:0:0:0:
402,192,18646,128,2,18815:0:0:0:0:
475,192,18646,1,0,0:0:0:60:tambourine.wav
329,192,18815,128,0,18985:0:0:0:60:cymbaltap.wav
36,192,18985,1,2,0:0:0:0:
182,192,18985,128,0,19154:0:0:0:60:tambourine.wav
402,192,19154,1,0,0:0:0:60:Tom1.wav
329,192,19239,1,0,0:0:0:60:Tom2.wav
402,192,19324,1,0,0:0:0:60:tambourine.wav
475,192,19324,1,0,0:0:0:60:Tom3.wav
36,192,19493,1,0,0:0:0:60:Tom3.wav
109,192,19578,1,0,0:0:0:0:
182,192,19663,128,0,20002:0:0:0:60:tambourine.wav
402,192,19663,1,0,0:0:0:60:Tom3.wav
256,192,19832,1,0,0:0:0:0:
329,192,20002,128,0,20340:0:0:0:60:tambourine.wav
475,192,20002,1,0,0:0:0:0:
109,192,20340,128,2,20510:0:0:0:0:
182,192,20340,1,4,0:0:0:0:
402,192,20340,1,0,0:0:0:60:tambourine.wav
475,192,20510,1,0,0:0:0:60:cymbaltap.wav
109,192,20595,1,0,0:0:0:0:
36,192,20679,128,2,20849:0:0:0:0:
402,192,20679,1,0,0:0:0:0:
256,192,20849,128,0,21018:0:0:0:60:cymbaltap.wav
329,192,21018,1,2,0:0:0:0:
475,192,21018,128,0,21357:0:0:0:0:
182,192,21188,1,0,0:0:0:60:cymbaltap.wav
109,192,21357,1,2,0:0:0:0:
329,192,21357,128,0,21527:0:0:0:0:
402,192,21527,128,0,21696:0:0:0:60:cymbaltap.wav
36,192,21696,1,2,0:0:0:0:
329,192,21696,128,0,22035:0:0:0:0:
109,192,21866,1,0,0:0:0:60:cymbaltap.wav
182,192,22035,128,2,22374:0:0:0:0:
475,192,22035,1,0,0:0:0:0:
402,192,22205,1,0,0:0:0:60:cymbaltap.wav
36,192,22374,128,2,22544:0:0:0:0:
109,192,22374,1,0,0:0:0:0:
256,192,22544,128,0,22713:0:0:0:60:cymbaltap.wav
402,192,22713,1,2,0:0:0:0:
475,192,22713,128,0,22883:0:0:0:0:
329,192,22883,128,0,23052:0:0:0:60:cymbaltap.wav
182,192,23052,128,2,23391:0:0:0:0:
256,192,23052,1,0,0:0:0:0:
109,192,23222,1,0,0:0:0:60:cymbaltap.wav
36,192,23391,128,2,23561:0:0:0:0:
475,192,23391,1,0,0:0:0:0:
402,192,23561,1,0,0:0:0:60:cymbaltap.wav
329,192,23646,1,0,0:0:0:0:
109,192,23730,1,2,0:0:0:0:
182,192,23730,128,0,23900:0:0:0:0:
256,192,23900,128,0,24069:0:0:0:60:cymbaltap.wav
36,192,24069,1,2,0:0:0:0:
329,192,24069,128,0,24239:0:0:0:0:
402,192,24239,128,0,24408:0:0:0:60:cymbaltap.wav
109,192,24408,1,2,0:0:0:0:
182,192,24408,1,0,0:0:0:0:
475,192,24493,1,0,0:0:0:0:
182,192,24578,1,8,0:0:0:0:
475,192,24663,1,0,0:0:0:0:
329,192,24747,1,2,0:0:0:0:
402,192,24747,1,0,0:0:0:0:
36,192,24832,1,0,0:0:0:0:
329,192,24917,1,8,0:0:0:0:
36,192,25002,1,0,0:0:0:0:
182,192,25086,128,2,25425:0:0:0:0:
475,192,25086,1,0,0:0:0:0:
402,192,25171,1,8,0:0:0:0:
329,192,25256,1,8,0:0:0:0:
256,192,25340,1,8,0:0:0:0:
36,192,25425,1,8,0:0:0:0:
329,192,25425,128,0,25764:0:0:0:60:tambourine.wav
109,192,25510,1,8,0:0:0:0:
182,192,25595,1,8,0:0:0:0:
256,192,25679,1,8,0:0:0:0:
109,192,25764,128,2,26103:0:0:0:0:
475,192,25764,1,0,0:0:0:0:
402,192,25934,1,0,0:0:0:60:cymbaltap.wav
182,192,26103,128,2,26273:0:0:0:0:
329,192,26103,1,0,0:0:0:0:
109,192,26273,128,0,26442:0:0:0:60:cymbaltap.wav
36,192,26442,1,2,0:0:0:0:
402,192,26442,128,0,26781:0:0:0:0:
256,192,26612,1,0,0:0:0:60:cymbaltap.wav
182,192,26781,1,2,0:0:0:0:
329,192,26781,128,0,26951:0:0:0:0:
256,192,26951,128,0,27120:0:0:0:60:cymbaltap.wav
36,192,27120,128,2,27459:0:0:0:0:
109,192,27120,1,0,0:0:0:0:
182,192,27290,1,0,0:0:0:60:cymbaltap.wav
402,192,27459,1,2,0:0:0:0:
475,192,27459,128,0,27798:0:0:0:0:
329,192,27629,1,0,0:0:0:60:cymbaltap.wav
109,192,27798,1,2,0:0:0:0:
256,192,27798,1,0,0:0:0:0:
329,192,27968,128,0,28137:0:0:0:60:cymbaltap.wav
182,192,28137,128,2,28307:0:0:0:0:
475,192,28137,1,0,0:0:0:0:
329,192,28307,128,0,28476:0:0:0:60:cymbaltap.wav
36,192,28476,1,2,0:0:0:0:
109,192,28476,128,0,28815:0:0:0:0:
182,192,28646,1,0,0:0:0:60:cymbaltap.wav
402,192,28815,128,2,29154:0:0:0:0:
475,192,28815,1,0,0:0:0:0:
329,192,28985,1,0,0:0:0:60:cymbaltap.wav
36,192,29154,1,2,0:0:0:0:
109,192,29154,1,0,0:0:0:0:
475,192,29324,128,0,29493:0:0:0:60:cymbaltap.wav
182,192,29493,1,2,0:0:0:0:
256,192,29493,128,0,29663:0:0:0:0:
475,192,29663,128,0,29832:0:0:0:0:
36,192,29832,128,0,30510:0:0:0:0:
256,192,30171,1,0,0:0:0:0:
475,192,30510,1,8,0:0:0:0:
402,192,30595,1,8,0:0:0:0:
256,192,30679,1,8,0:0:0:0:
109,192,30764,1,8,0:0:0:0:
36,192,30849,128,8,31188:0:0:0:0:
475,192,30849,1,0,0:0:0:0:
402,192,30934,1,8,0:0:0:0:
329,192,31018,1,8,0:0:0:0:
256,192,31103,1,8,0:0:0:0:
109,192,31188,1,2,0:0:0:0:
182,192,31188,1,4,0:0:0:0:
402,192,31188,128,0,31527:0:0:0:0:
329,192,31357,1,0,0:0:0:60:cymbaltap.wav
36,192,31527,1,2,0:0:0:0:
182,192,31527,128,0,31696:0:0:0:60:tambourine.wav
402,192,31696,128,0,31866:0:0:0:60:cymbaltap.wav
109,192,31866,128,2,32035:0:0:0:0:
256,192,31866,1,0,0:0:0:60:tambourine.wav
475,192,32035,1,0,0:0:0:60:cymbaltap.wav
402,192,32120,1,0,0:0:0:0:
182,192,32205,1,2,0:0:0:0:
329,192,32205,128,0,32374:0:0:0:60:tambourine.wav
36,192,32374,128,0,32544:0:0:0:60:cymbaltap.wav
109,192,32544,1,2,0:0:0:0:
256,192,32544,128,0,32883:0:0:0:60:tambourine.wav
182,192,32713,1,0,0:0:0:60:cymbaltap.wav
329,192,32883,1,2,0:0:0:0:
475,192,32883,128,0,33222:0:0:0:60:tambourine.wav
402,192,33052,1,0,0:0:0:60:cymbaltap.wav
36,192,33222,1,2,0:0:0:0:
109,192,33222,1,0,0:0:0:60:tambourine.wav
402,192,33391,1,0,0:0:0:60:cymbaltap.wav
329,192,33476,1,0,0:0:0:0:
182,192,33561,1,2,0:0:0:0:
256,192,33561,128,0,33730:0:0:0:60:tambourine.wav
109,192,33730,128,0,33900:0:0:0:60:cymbaltap.wav
329,192,33900,1,2,0:0:0:0:
475,192,33900,128,0,34069:0:0:0:60:tambourine.wav
256,192,34069,128,0,34239:0:0:0:60:cymbaltap.wav
36,192,34239,1,2,0:0:0:0:
182,192,34239,128,0,34578:0:0:0:60:tambourine.wav
109,192,34408,1,0,0:0:0:60:cymbaltap.wav
402,192,34578,1,2,0:0:0:0:
475,192,34578,1,0,0:0:0:60:tambourine.wav
329,192,34747,1,0,0:0:0:60:cymbaltap.wav
256,192,34832,1,0,0:0:0:0:
109,192,34917,1,2,0:0:0:0:
182,192,34917,128,0,35086:0:0:0:60:tambourine.wav
36,192,35086,128,0,35256:0:0:0:60:cymbaltap.wav
329,192,35256,1,2,0:0:0:0:
402,192,35256,128,0,35425:0:0:0:60:tambourine.wav
256,192,35425,128,0,35595:0:0:0:60:cymbaltap.wav
36,192,35595,1,2,0:0:0:0:
109,192,35595,128,0,35934:0:0:0:60:tambourine.wav
182,192,35764,1,0,0:0:0:60:cymbaltap.wav
329,192,35934,1,2,0:0:0:0:
402,192,35934,1,0,0:0:0:60:tambourine.wav
256,192,36103,1,0,0:0:0:60:cymbaltap.wav
36,192,36273,128,10,36612:0:0:0:0:
475,192,36273,1,0,0:0:0:60:tambourine.wav
109,192,36612,1,2,0:0:0:0:
256,192,36612,1,4,0:0:0:0:
402,192,36612,128,0,36951:0:0:0:0:
329,192,36781,1,0,0:0:0:60:cymbaltap.wav
36,192,36951,1,2,0:0:0:0:
182,192,36951,128,0,37120:0:0:0:60:tambourine.wav
402,192,37120,128,0,37290:0:0:0:60:cymbaltap.wav
109,192,37290,128,2,37459:0:0:0:0:
256,192,37290,1,0,0:0:0:60:tambourine.wav
475,192,37459,1,0,0:0:0:60:cymbaltap.wav
402,192,37544,1,0,0:0:0:0:
182,192,37629,1,2,0:0:0:0:
329,192,37629,128,0,37798:0:0:0:60:tambourine.wav
36,192,37798,128,0,37968:0:0:0:60:cymbaltap.wav
109,192,37968,1,2,0:0:0:0:
256,192,37968,128,0,38307:0:0:0:60:tambourine.wav
182,192,38137,1,0,0:0:0:60:cymbaltap.wav
329,192,38307,1,2,0:0:0:0:
475,192,38307,128,0,38646:0:0:0:60:tambourine.wav
402,192,38476,1,0,0:0:0:60:cymbaltap.wav
182,192,38646,1,2,0:0:0:0:
256,192,38646,1,0,0:0:0:60:tambourine.wav
109,192,38815,128,0,38985:0:0:0:60:cymbaltap.wav
402,192,38985,128,2,39154:0:0:0:0:
475,192,38985,1,0,0:0:0:60:tambourine.wav
109,192,39154,128,0,39324:0:0:0:60:cymbaltap.wav
36,192,39324,1,2,0:0:0:0:
329,192,39324,128,0,39493:0:0:0:60:tambourine.wav
402,192,39493,128,0,39663:0:0:0:60:cymbaltap.wav
182,192,39663,1,2,0:0:0:0:
475,192,39663,128,0,40002:0:0:0:60:tambourine.wav
256,192,39832,1,0,0:0:0:60:cymbaltap.wav
36,192,40002,1,2,0:0:0:0:
329,192,40002,1,0,0:0:0:60:tambourine.wav
182,192,40171,1,0,0:0:0:60:cymbaltap.wav
256,192,40256,1,0,0:0:0:0:
402,192,40340,128,2,40510:0:0:0:0:
475,192,40340,1,0,0:0:0:60:tambourine.wav
329,192,40510,128,0,40679:0:0:0:60:cymbaltap.wav
36,192,40679,1,2,0:0:0:0:
256,192,40679,128,0,40849:0:0:0:60:tambourine.wav
182,192,40849,1,0,0:0:0:60:Tom1.wav
402,192,40934,1,0,0:0:0:60:Tom2.wav
36,192,41018,1,0,0:0:0:60:tambourine.wav
109,192,41018,1,0,0:0:0:60:Tom3.wav
329,192,41188,1,0,0:0:0:60:Tom3.wav
402,192,41357,1,0,0:0:0:60:tambourine.wav
475,192,41357,1,0,0:0:0:60:Tom3.wav
182,192,41527,1,0,0:0:0:0:
36,192,41696,1,0,0:0:0:60:tambourine.wav
109,192,41696,1,0,0:0:0:0:
329,192,41866,1,0,0:0:0:0:
109,192,42035,1,2,0:0:0:0:
182,192,42035,1,4,0:0:0:0:
256,192,42035,1,0,0:0:0:0:
475,192,42205,1,0,0:0:0:60:cymbaltap.wav
329,192,42374,1,2,0:0:0:0:
402,192,42374,1,0,0:0:0:60:tambourine.wav
36,192,42544,1,0,0:0:0:60:cymbaltap.wav
109,192,42713,1,2,0:0:0:0:
182,192,42713,1,0,0:0:0:60:tambourine.wav
475,192,42883,1,0,0:0:0:60:cymbaltap.wav
329,192,43052,1,2,0:0:0:0:
402,192,43052,1,0,0:0:0:60:tambourine.wav
36,192,43222,1,0,0:0:0:60:cymbaltap.wav
109,192,43391,1,2,0:0:0:0:
182,192,43391,1,0,0:0:0:60:tambourine.wav
256,192,43561,1,0,0:0:0:60:cymbaltap.wav
329,192,43730,1,2,0:0:0:0:
475,192,43730,1,0,0:0:0:60:tambourine.wav
256,192,43900,1,0,0:0:0:60:cymbaltap.wav
36,192,44069,1,2,0:0:0:0:
182,192,44069,1,0,0:0:0:60:tambourine.wav
329,192,44239,1,0,0:0:0:60:cymbaltap.wav
402,192,44408,128,2,44747:0:0:0:0:
475,192,44408,1,0,0:0:0:60:tambourine.wav
182,192,44578,128,0,44747:0:0:0:60:cymbaltap.wav
36,192,44747,1,2,0:0:0:0:
109,192,44747,1,0,0:0:0:60:tambourine.wav
329,192,44917,1,0,0:0:0:60:cymbaltap.wav
402,192,45086,1,2,0:0:0:0:
475,192,45086,1,0,0:0:0:60:tambourine.wav
36,192,45256,1,0,0:0:0:60:cymbaltap.wav
256,192,45425,1,2,0:0:0:0:
475,192,45425,1,0,0:0:0:60:tambourine.wav
182,192,45595,1,0,0:0:0:60:cymbaltap.wav
402,192,45595,1,0,0:0:0:0:
109,192,45764,1,2,0:0:0:0:
329,192,45764,1,0,0:0:0:60:tambourine.wav
36,192,45934,1,0,0:0:0:60:cymbaltap.wav
256,192,45934,1,0,0:0:0:0:
402,192,46103,1,2,0:0:0:0:
475,192,46103,1,0,0:0:0:60:tambourine.wav
182,192,46273,1,0,0:0:0:60:cymbaltap.wav
36,192,46442,1,2,0:0:0:0:
109,192,46442,1,0,0:0:0:60:tambourine.wav
329,192,46612,1,0,0:0:0:60:cymbaltap.wav
402,192,46781,1,2,0:0:0:0:
475,192,46781,1,0,0:0:0:60:tambourine.wav
182,192,46951,1,0,0:0:0:60:cymbaltap.wav
36,192,47120,1,10,0:0:0:0:
109,192,47120,1,0,0:0:0:60:tambourine.wav
402,192,47290,1,0,0:0:0:60:cymbaltap.wav
256,192,47459,1,2,0:0:0:0:
329,192,47459,1,4,0:0:0:0:
475,192,47459,1,0,0:0:0:0:
109,192,47629,1,0,0:0:0:60:cymbaltap.wav
36,192,47798,1,2,0:0:0:0:
182,192,47798,1,0,0:0:0:60:tambourine.wav
402,192,47968,1,0,0:0:0:60:cymbaltap.wav
329,192,48137,1,2,0:0:0:0:
475,192,48137,1,0,0:0:0:60:tambourine.wav
109,192,48307,1,0,0:0:0:60:cymbaltap.wav
36,192,48476,1,2,0:0:0:0:
182,192,48476,1,0,0:0:0:60:tambourine.wav
402,192,48646,1,0,0:0:0:60:cymbaltap.wav
329,192,48815,1,2,0:0:0:0:
475,192,48815,1,0,0:0:0:60:tambourine.wav
256,192,48985,1,0,0:0:0:60:cymbaltap.wav
109,192,49154,1,2,0:0:0:0:
182,192,49154,1,0,0:0:0:60:tambourine.wav
256,192,49324,1,0,0:0:0:60:cymbaltap.wav
329,192,49493,1,2,0:0:0:0:
402,192,49493,1,0,0:0:0:60:tambourine.wav
182,192,49663,1,0,0:0:0:60:cymbaltap.wav
36,192,49832,1,2,0:0:0:0:
109,192,49832,128,0,50171:0:0:0:60:tambourine.wav
256,192,50002,128,0,50171:0:0:0:60:cymbaltap.wav
329,192,50171,1,2,0:0:0:0:
475,192,50171,1,0,0:0:0:60:tambourine.wav
402,192,50340,1,0,0:0:0:60:cymbaltap.wav
36,192,50510,1,2,0:0:0:0:
182,192,50510,1,0,0:0:0:60:tambourine.wav
109,192,50679,1,0,0:0:0:60:cymbaltap.wav
256,192,50849,1,2,0:0:0:0:
475,192,50849,1,0,0:0:0:60:tambourine.wav
182,192,51018,1,0,0:0:0:60:cymbaltap.wav
402,192,51018,1,0,0:0:0:0:
109,192,51188,1,2,0:0:0:0:
329,192,51188,1,0,0:0:0:60:tambourine.wav
36,192,51357,1,0,0:0:0:60:cymbaltap.wav
256,192,51357,1,0,0:0:0:0:
402,192,51527,1,2,0:0:0:0:
475,192,51527,1,0,0:0:0:60:tambourine.wav
329,192,51696,1,0,0:0:0:60:Tom1.wav
256,192,51781,1,0,0:0:0:60:Tom2.wav
36,192,51866,1,0,0:0:0:60:tambourine.wav
182,192,51866,1,0,0:0:0:60:Tom3.wav
109,192,52035,1,0,0:0:0:60:Tom3.wav
329,192,52205,1,0,0:0:0:60:tambourine.wav
475,192,52205,1,0,0:0:0:60:Tom3.wav
402,192,52374,1,0,0:0:0:0:
36,192,52544,1,0,0:0:0:60:tambourine.wav
182,192,52544,1,0,0:0:0:0:
182,192,52883,1,2,0:0:0:0:
256,192,52883,1,4,0:0:0:0:
329,192,52883,1,0,0:0:0:0:
475,192,53052,128,0,53222:0:0:0:60:cymbaltap.wav
329,192,53222,1,2,0:0:0:0:
402,192,53222,1,0,0:0:0:60:tambourine.wav
36,192,53391,128,0,53561:0:0:0:60:cymbaltap.wav
109,192,53561,1,2,0:0:0:0:
182,192,53561,1,0,0:0:0:60:tambourine.wav
475,192,53730,128,0,53900:0:0:0:60:cymbaltap.wav
329,192,53900,1,2,0:0:0:0:
402,192,53900,1,0,0:0:0:60:tambourine.wav
36,192,54069,128,0,54239:0:0:0:60:cymbaltap.wav
109,192,54239,1,2,0:0:0:0:
182,192,54239,1,0,0:0:0:60:tambourine.wav
256,192,54408,128,0,54578:0:0:0:60:cymbaltap.wav
329,192,54578,1,2,0:0:0:0:
475,192,54578,1,0,0:0:0:60:tambourine.wav
256,192,54747,128,0,54917:0:0:0:60:cymbaltap.wav
36,192,54917,1,2,0:0:0:0:
182,192,54917,1,0,0:0:0:60:tambourine.wav
329,192,55086,128,0,55256:0:0:0:60:cymbaltap.wav
402,192,55256,128,2,55595:0:0:0:0:
475,192,55256,1,0,0:0:0:60:tambourine.wav
182,192,55425,128,0,55595:0:0:0:60:cymbaltap.wav
36,192,55595,1,2,0:0:0:0:
109,192,55595,1,0,0:0:0:60:tambourine.wav
329,192,55764,128,0,55934:0:0:0:60:cymbaltap.wav
402,192,55934,1,2,0:0:0:0:
475,192,55934,1,0,0:0:0:60:tambourine.wav
109,192,56103,128,0,56273:0:0:0:60:cymbaltap.wav
256,192,56273,1,2,0:0:0:0:
475,192,56273,1,0,0:0:0:60:tambourine.wav
182,192,56442,1,0,0:0:0:60:cymbaltap.wav
402,192,56442,128,0,56612:0:0:0:0:
109,192,56612,1,2,0:0:0:0:
329,192,56612,1,0,0:0:0:60:tambourine.wav
36,192,56781,128,0,56951:0:0:0:60:cymbaltap.wav
256,192,56781,1,0,0:0:0:0:
402,192,56951,1,2,0:0:0:0:
475,192,56951,1,0,0:0:0:60:tambourine.wav
182,192,57120,128,0,57290:0:0:0:60:cymbaltap.wav
36,192,57290,1,2,0:0:0:0:
109,192,57290,1,0,0:0:0:60:tambourine.wav
329,192,57459,128,0,57629:0:0:0:60:cymbaltap.wav
402,192,57629,1,2,0:0:0:0:
475,192,57629,1,0,0:0:0:60:tambourine.wav
182,192,57798,128,0,57968:0:0:0:60:cymbaltap.wav
36,192,57968,128,10,58307:0:0:0:0:
109,192,57968,1,0,0:0:0:60:tambourine.wav
256,192,58137,128,0,58307:0:0:0:60:cymbaltap.wav
329,192,58307,1,2,0:0:0:0:
402,192,58307,1,4,0:0:0:0:
475,192,58307,1,0,0:0:0:0:
182,192,58476,128,0,58646:0:0:0:60:cymbaltap.wav
36,192,58646,1,2,0:0:0:0:
109,192,58646,1,0,0:0:0:60:tambourine.wav
329,192,58815,128,0,58985:0:0:0:60:cymbaltap.wav
402,192,58985,1,2,0:0:0:0:
475,192,58985,1,0,0:0:0:60:tambourine.wav
182,192,59154,128,0,59324:0:0:0:60:cymbaltap.wav
36,192,59324,1,2,0:0:0:0:
109,192,59324,1,0,0:0:0:60:tambourine.wav
329,192,59493,128,0,59663:0:0:0:60:cymbaltap.wav
402,192,59663,1,2,0:0:0:0:
475,192,59663,1,0,0:0:0:60:tambourine.wav
256,192,59832,128,0,60002:0:0:0:60:cymbaltap.wav
109,192,60002,1,2,0:0:0:0:
182,192,60002,1,0,0:0:0:60:tambourine.wav
256,192,60171,128,0,60340:0:0:0:60:cymbaltap.wav
329,192,60340,1,2,0:0:0:0:
402,192,60340,1,0,0:0:0:60:tambourine.wav
182,192,60510,128,0,60679:0:0:0:60:cymbaltap.wav
36,192,60679,1,2,0:0:0:0:
109,192,60679,128,0,61018:0:0:0:60:tambourine.wav
256,192,60849,128,0,61018:0:0:0:60:cymbaltap.wav
329,192,61018,1,2,0:0:0:0:
475,192,61018,1,0,0:0:0:60:tambourine.wav
402,192,61188,128,0,61357:0:0:0:60:cymbaltap.wav
36,192,61357,1,2,0:0:0:0:
182,192,61357,1,0,0:0:0:60:tambourine.wav
109,192,61527,128,0,61696:0:0:0:60:cymbaltap.wav
256,192,61696,1,2,0:0:0:0:
475,192,61696,1,0,0:0:0:60:tambourine.wav
182,192,61866,1,0,0:0:0:60:cymbaltap.wav
402,192,61866,128,0,62035:0:0:0:0:
109,192,62035,128,2,62374:0:0:0:0:
329,192,62035,1,0,0:0:0:60:tambourine.wav
36,192,62205,1,0,0:0:0:60:cymbaltap.wav
256,192,62205,128,0,62374:0:0:0:0:
402,192,62374,1,2,0:0:0:0:
475,192,62374,1,0,0:0:0:60:tambourine.wav
329,192,62544,1,0,0:0:0:60:Tom1.wav
256,192,62629,1,0,0:0:0:60:Tom2.wav
36,192,62713,1,0,0:0:0:60:tambourine.wav
182,192,62713,1,0,0:0:0:60:Tom3.wav
109,192,62883,1,0,0:0:0:60:Tom3.wav
329,192,63052,1,0,0:0:0:60:tambourine.wav
475,192,63052,1,0,0:0:0:60:Tom3.wav
402,192,63222,1,0,0:0:0:0:
36,192,63391,128,0,63730:0:0:0:60:tambourine.wav
182,192,63391,1,0,0:0:0:0:
109,192,63730,1,4,0:0:0:0:
256,192,63730,1,2,0:0:0:0:
402,192,63730,128,0,64069:0:0:0:0:
329,192,63900,1,0,0:0:0:60:cymbaltap.wav
36,192,64069,1,2,0:0:0:0:
182,192,64069,128,0,64239:0:0:0:60:tambourine.wav
402,192,64239,128,0,64408:0:0:0:60:cymbaltap.wav
109,192,64408,128,2,64578:0:0:0:0:
256,192,64408,1,0,0:0:0:60:tambourine.wav
475,192,64578,1,0,0:0:0:60:cymbaltap.wav
402,192,64663,1,0,0:0:0:0:
182,192,64747,1,2,0:0:0:0:
329,192,64747,128,0,64917:0:0:0:60:tambourine.wav
36,192,64917,128,0,65086:0:0:0:60:cymbaltap.wav
109,192,65086,1,2,0:0:0:0:
256,192,65086,128,0,65425:0:0:0:60:tambourine.wav
182,192,65256,1,0,0:0:0:60:cymbaltap.wav
329,192,65425,1,2,0:0:0:0:
475,192,65425,128,0,65764:0:0:0:60:tambourine.wav
402,192,65595,1,0,0:0:0:60:cymbaltap.wav
36,192,65764,1,2,0:0:0:0:
109,192,65764,1,0,0:0:0:60:tambourine.wav
402,192,65934,1,0,0:0:0:60:cymbaltap.wav
329,192,66018,1,0,0:0:0:0:
182,192,66103,1,2,0:0:0:0:
256,192,66103,128,0,66273:0:0:0:60:tambourine.wav
109,192,66273,128,0,66442:0:0:0:60:cymbaltap.wav
329,192,66442,128,2,66612:0:0:0:0:
475,192,66442,1,0,0:0:0:60:tambourine.wav
256,192,66612,128,0,66781:0:0:0:60:cymbaltap.wav
36,192,66781,1,2,0:0:0:0:
182,192,66781,128,0,67120:0:0:0:60:tambourine.wav
109,192,66951,1,0,0:0:0:60:cymbaltap.wav
402,192,67120,1,2,0:0:0:0:
475,192,67120,1,0,0:0:0:60:tambourine.wav
329,192,67290,1,0,0:0:0:60:cymbaltap.wav
256,192,67374,1,0,0:0:0:0:
109,192,67459,1,2,0:0:0:0:
182,192,67459,128,0,67629:0:0:0:60:tambourine.wav
36,192,67629,128,0,67798:0:0:0:60:cymbaltap.wav
329,192,67798,1,2,0:0:0:0:
402,192,67798,128,0,67968:0:0:0:60:tambourine.wav
256,192,67968,128,0,68137:0:0:0:60:cymbaltap.wav
36,192,68137,1,2,0:0:0:0:
109,192,68137,128,0,68476:0:0:0:60:tambourine.wav
182,192,68307,1,0,0:0:0:60:cymbaltap.wav
329,192,68476,1,2,0:0:0:0:
402,192,68476,1,0,0:0:0:60:tambourine.wav
256,192,68646,1,0,0:0:0:60:cymbaltap.wav
36,192,68815,128,8,69154:0:0:0:0:
475,192,68815,1,0,0:0:0:60:tambourine.wav
182,192,68985,1,0,0:0:0:60:cymbaltap.wav
109,192,69154,1,2,0:0:0:0:
256,192,69154,1,4,0:0:0:0:
402,192,69154,128,0,69493:0:0:0:0:
329,192,69324,1,0,0:0:0:60:cymbaltap.wav
36,192,69493,1,2,0:0:0:0:
182,192,69493,128,0,69663:0:0:0:60:tambourine.wav
402,192,69663,128,0,69832:0:0:0:60:cymbaltap.wav
109,192,69832,128,2,70002:0:0:0:0:
256,192,69832,1,0,0:0:0:60:tambourine.wav
475,192,70002,1,0,0:0:0:60:cymbaltap.wav
402,192,70086,1,0,0:0:0:0:
182,192,70171,1,2,0:0:0:0:
329,192,70171,128,0,70340:0:0:0:60:tambourine.wav
36,192,70340,128,0,70510:0:0:0:60:cymbaltap.wav
109,192,70510,1,2,0:0:0:0:
256,192,70510,128,0,70849:0:0:0:60:tambourine.wav
182,192,70679,1,0,0:0:0:60:cymbaltap.wav
329,192,70849,1,2,0:0:0:0:
475,192,70849,128,0,71188:0:0:0:60:tambourine.wav
402,192,71018,1,0,0:0:0:60:cymbaltap.wav
182,192,71188,1,2,0:0:0:0:
256,192,71188,1,0,0:0:0:60:tambourine.wav
109,192,71357,128,0,71527:0:0:0:60:cymbaltap.wav
402,192,71527,128,2,71696:0:0:0:0:
475,192,71527,1,0,0:0:0:60:tambourine.wav
109,192,71696,128,0,71866:0:0:0:60:cymbaltap.wav
36,192,71866,1,2,0:0:0:0:
329,192,71866,128,0,72035:0:0:0:60:tambourine.wav
402,192,72035,128,0,72205:0:0:0:60:cymbaltap.wav
182,192,72205,1,2,0:0:0:0:
475,192,72205,128,0,72544:0:0:0:60:tambourine.wav
256,192,72374,1,0,0:0:0:60:cymbaltap.wav
36,192,72544,1,2,0:0:0:0:
329,192,72544,1,0,0:0:0:60:tambourine.wav
109,192,72713,1,0,0:0:0:60:cymbaltap.wav
256,192,72798,1,0,0:0:0:0:
402,192,72883,128,2,73052:0:0:0:0:
475,192,72883,1,0,0:0:0:60:tambourine.wav
329,192,73052,128,0,73222:0:0:0:60:cymbaltap.wav
36,192,73222,1,2,0:0:0:0:
182,192,73222,128,0,73391:0:0:0:60:tambourine.wav
402,192,73391,1,0,0:0:0:60:Tom1.wav
329,192,73476,1,0,0:0:0:60:Tom2.wav
402,192,73561,1,0,0:0:0:60:tambourine.wav
475,192,73561,1,0,0:0:0:60:Tom3.wav
36,192,73730,1,0,0:0:0:60:Tom3.wav
109,192,73815,1,0,0:0:0:0:
182,192,73900,128,0,74239:0:0:0:60:tambourine.wav
402,192,73900,1,0,0:0:0:60:Tom3.wav
256,192,74069,1,0,0:0:0:0:
329,192,74239,128,0,74578:0:0:0:60:tambourine.wav
475,192,74239,1,0,0:0:0:0:
109,192,74578,128,2,74747:0:0:0:0:
182,192,74578,1,4,0:0:0:0:
402,192,74578,1,0,0:0:0:0:
475,192,74747,1,0,0:0:0:60:cymbaltap.wav
109,192,74832,1,0,0:0:0:0:
36,192,74917,128,2,75086:0:0:0:0:
402,192,74917,1,0,0:0:0:0:
256,192,75086,128,0,75256:0:0:0:60:cymbaltap.wav
329,192,75256,1,2,0:0:0:0:
475,192,75256,128,0,75595:0:0:0:0:
182,192,75425,1,0,0:0:0:60:cymbaltap.wav
109,192,75595,1,2,0:0:0:0:
329,192,75595,128,0,75764:0:0:0:0:
402,192,75764,128,0,75934:0:0:0:60:cymbaltap.wav
36,192,75934,1,2,0:0:0:0:
329,192,75934,128,0,76273:0:0:0:0:
109,192,76103,1,0,0:0:0:60:cymbaltap.wav
182,192,76273,128,2,76612:0:0:0:0:
475,192,76273,1,0,0:0:0:0:
402,192,76442,1,0,0:0:0:60:cymbaltap.wav
36,192,76612,128,2,76781:0:0:0:0:
109,192,76612,1,0,0:0:0:0:
256,192,76781,128,0,76951:0:0:0:60:cymbaltap.wav
402,192,76951,1,2,0:0:0:0:
475,192,76951,128,0,77120:0:0:0:0:
329,192,77120,128,0,77290:0:0:0:60:cymbaltap.wav
182,192,77290,128,2,77629:0:0:0:0:
256,192,77290,1,0,0:0:0:0:
109,192,77459,1,0,0:0:0:60:cymbaltap.wav
36,192,77629,128,2,77798:0:0:0:0:
475,192,77629,1,0,0:0:0:0:
402,192,77798,1,0,0:0:0:60:cymbaltap.wav
329,192,77883,1,0,0:0:0:0:
109,192,77968,1,2,0:0:0:0:
182,192,77968,128,0,78137:0:0:0:0:
256,192,78137,128,0,78307:0:0:0:60:cymbaltap.wav
36,192,78307,1,2,0:0:0:0:
329,192,78307,128,0,78476:0:0:0:0:
402,192,78476,128,0,78646:0:0:0:60:cymbaltap.wav
109,192,78646,1,2,0:0:0:0:
182,192,78646,1,0,0:0:0:0:
475,192,78730,1,0,0:0:0:0:
182,192,78815,1,8,0:0:0:0:
475,192,78900,1,0,0:0:0:0:
329,192,78985,1,2,0:0:0:0:
402,192,78985,1,0,0:0:0:0:
36,192,79069,1,0,0:0:0:0:
329,192,79154,1,8,0:0:0:0:
36,192,79239,1,0,0:0:0:0:
182,192,79324,128,2,79663:0:0:0:0:
475,192,79324,1,0,0:0:0:0:
402,192,79408,1,8,0:0:0:0:
329,192,79493,1,8,0:0:0:0:
256,192,79578,1,8,0:0:0:0:
36,192,79663,1,8,0:0:0:0:
329,192,79663,128,0,80002:0:0:0:60:tambourine.wav
109,192,79747,1,8,0:0:0:0:
182,192,79832,1,8,0:0:0:0:
256,192,79917,1,8,0:0:0:0:
109,192,80002,128,4,80340:0:0:0:0:
475,192,80002,1,2,0:0:0:0:
402,192,80171,1,0,0:0:0:60:cymbaltap.wav
182,192,80340,128,2,80510:0:0:0:0:
329,192,80340,1,0,0:0:0:60:tambourine.wav
109,192,80510,128,0,80679:0:0:0:60:cymbaltap.wav
36,192,80679,128,2,81018:0:0:0:0:
256,192,80679,1,0,0:0:0:60:tambourine.wav
475,192,80849,1,0,0:0:0:60:cymbaltap.wav
402,192,80934,1,0,0:0:0:0:
182,192,81018,1,2,0:0:0:0:
329,192,81018,128,0,81188:0:0:0:60:tambourine.wav
256,192,81188,128,0,81357:0:0:0:60:cymbaltap.wav
36,192,81357,128,2,81696:0:0:0:0:
109,192,81357,1,0,0:0:0:60:tambourine.wav
182,192,81527,1,0,0:0:0:60:cymbaltap.wav
402,192,81696,1,2,0:0:0:0:
475,192,81696,128,0,82035:0:0:0:60:tambourine.wav
329,192,81866,1,0,0:0:0:60:cymbaltap.wav
109,192,82035,1,2,0:0:0:0:
256,192,82035,1,0,0:0:0:60:tambourine.wav
329,192,82205,128,0,82374:0:0:0:60:cymbaltap.wav
182,192,82374,128,2,82544:0:0:0:0:
475,192,82374,1,0,0:0:0:60:tambourine.wav
329,192,82544,128,0,82713:0:0:0:60:cymbaltap.wav
36,192,82713,1,2,0:0:0:0:
109,192,82713,128,0,82883:0:0:0:60:tambourine.wav
182,192,82883,128,0,83052:0:0:0:60:cymbaltap.wav
256,192,83052,128,2,84747:0:0:0:0:
402,192,83052,1,0,0:0:0:60:tambourine.wav
329,192,83222,1,0,0:0:0:60:cymbaltap.wav
36,192,83391,1,2,0:0:0:0:
109,192,83391,1,0,0:0:0:60:tambourine.wav
182,192,83561,1,0,0:0:0:60:cymbaltap.wav
402,192,83730,1,2,0:0:0:0:
475,192,83730,1,0,0:0:0:60:tambourine.wav
329,192,83900,1,0,0:0:0:60:cymbaltap.wav
36,192,84069,128,2,84239:0:0:0:0:
109,192,84069,128,0,84239:0:0:0:60:tambourine.wav
475,192,84239,1,8,0:0:0:0:
402,192,84324,1,8,0:0:0:0:
182,192,84408,128,2,84578:0:0:0:0:
329,192,84408,128,0,84578:0:0:0:60:tambourine.wav
109,192,84578,128,8,84747:0:0:0:0:
402,192,84747,1,2,0:0:0:0:
475,192,84747,128,0,85764:0:0:0:0:
36,192,85086,128,0,85764:0:0:0:0:
402,192,85425,1,0,0:0:0:0:
329,192,85595,1,0,0:0:0:0:
256,192,85679,1,0,0:0:0:0:
109,192,85764,1,2,0:0:0:0:
182,192,85764,128,0,85934:0:0:0:60:tambourine.wav
329,192,85934,128,0,86103:0:0:0:0:
36,192,86103,1,4,0:0:0:0:
256,192,86103,1,0,0:0:0:0:
475,192,86103,1,0,0:0:0:0:
