osu file format v14

[General]
AudioFilename: audio.ogg
AudioLeadIn: 0
PreviewTime: 184866
Countdown: 0
SampleSet: Soft
StackLeniency: 0.4
Mode: 0
LetterboxInBreaks: 0
WidescreenStoryboard: 1

[Editor]
Bookmarks: 19442,35913,54736,73533,90030,99442,106501,108854,118266,137089,153560,219442,221795,224148,233560,240913
DistanceSpacing: 0.3
BeatDivisor: 8
GridSize: 4
TimelineZoom: 1.1

[Metadata]
Title:Yukidoke
TitleUnicode:雪解け
Artist:Islet feat. isui
ArtistUnicode:Islet feat. 倚水
Creator:Shijie
Version:Snowmelt
Source:
Tags:jpop J-pop full version Aster Tazuneru 樂 Tansa ajimita tayori setu shiratamamywife japanese pop
BeatmapID:4493707
BeatmapSetID:2135598

[Difficulty]
HPDrainRate:5
CircleSize:5
OverallDifficulty:8
ApproachRate:9
SliderMultiplier:2
SliderTickRate:1

[Events]
//Background and Video events
0,0,"0.jpg",0,0
//Break Periods
2,19683,33507
2,90271,97036
//Storyboard Layer 0 (Background)
//Storyboard Layer 1 (Fail)
//Storyboard Layer 2 (Pass)
//Storyboard Layer 3 (Foreground)
//Storyboard Layer 4 (Overlay)
//Storyboard Sound Samples

[TimingPoints]
566,588.235294117647,4,2,0,25,1,0
566,-166.666666666667,4,2,0,25,0,0
19389,-125,4,2,0,40,0,0
35271,-250,4,2,0,40,0,0
35860,-100,4,2,0,40,0,0
39242,-125,4,2,0,40,0,0
39683,-100,4,2,0,40,0,0
45271,-166.666666666667,4,2,0,40,0,0
45713,-100,4,2,0,40,0,0
54683,-100,4,2,0,45,0,0
73507,-66.6666666666667,4,2,0,60,0,1
73948,-83.3333333333333,4,2,0,60,0,1
74977,-76.9230769230769,4,2,0,60,0,1
89389,-76.9230769230769,4,2,0,60,0,1
89977,-125,4,2,0,50,0,0
106448,-83.3333333333333,4,2,0,50,0,0
107918,-100,4,2,0,50,0,0
108801,-86.9565217391304,4,2,0,50,0,0
118213,-100,4,2,0,50,0,0
135860,-100,4,2,2,60,0,0
136154,-83.3333333333333,4,2,0,60,0,0
137036,-66.6666666666667,4,2,2,70,0,1
153507,-83.3333333333333,4,2,2,50,0,0
162624,-83.3333333333333,4,2,2,40,0,0
162918,-83.3333333333333,4,2,2,55,0,0
170124,-66.6666666666667,4,2,2,60,0,0
170565,-62.5,4,2,2,60,0,0
171007,-58.8235294117647,4,2,2,60,0,0
171448,-58.8235294117647,4,2,2,60,0,0
171889,-62.5,4,2,2,60,0,0
172330,-83.3333333333333,4,2,2,55,0,0
184095,-125,4,1,0,55,0,0
185271,-83.3333333333333,4,2,0,55,0,0
194683,-125,4,2,2,55,0,0
195860,-100,4,2,2,45,0,0
196742,-166.666666666667,4,2,2,45,0,0
198213,-100,4,2,2,45,0,0
198654,-125,4,2,2,45,0,0
202918,-66.6666666666667,4,2,2,60,0,0
203801,-66.6666666666667,4,2,2,70,0,1
204389,-100,4,2,2,70,0,1
205271,-66.6666666666667,4,2,2,70,0,1
220860,-100,4,2,2,70,0,1
221154,-66.6666666666667,4,2,2,70,0,1
221742,-66.6666666666667,4,2,2,40,0,0
224095,-83.3333333333333,4,2,2,60,0,0
233507,-125,4,2,2,30,0,0
242624,-200,4,2,2,27,0,0
242918,-200,4,2,2,5,0,0

[Colours]
Combo1 : 128,255,159
Combo2 : 255,49,49
Combo3 : 244,152,138

[HitObjects]
64,32,566,6,0,P|99:63|152:63,1,89.9999972534181,0|0,3:0|3:0,0:0:0:0:
159,58,1154,1,2,0:0:0:0:
144,236,1742,2,0,P|188:221|214:175,1,89.9999972534181,0|0,3:0|3:0,0:0:0:0:
214,166,2330,1,2,0:0:0:0:
320,121,2918,2,0,P|329:75|302:29,1,89.9999972534181,0|0,3:0|3:0,0:0:0:0:
294,25,3506,1,2,0:0:0:0:
294,25,4389,6,0,L|299:63,1,29.9999990844727,0|0,3:0|3:0,3:0:0:0:
227,50,4683,2,0,P|192:56|169:72,1,59.9999981689454,2|2,0:0|0:0,0:0:0:0:
2,130,5271,6,0,P|31:128|64:141,1,59.9999981689454,0|0,3:0|0:0,0:0:0:0:
74,150,5713,2,0,L|82:186,1,29.9999990844727,0|2,3:0|0:0,0:0:0:0:
226,195,6448,2,0,P|197:193|164:206,1,59.9999981689454,0|0,3:0|0:0,0:0:0:0:
154,215,6889,2,0,L|146:251,1,29.9999990844727,0|2,3:0|0:0,0:0:0:0:
30,288,7624,2,0,P|59:286|92:299,1,59.9999981689454,0|0,3:0|0:0,0:0:0:0:
102,308,8065,2,0,L|110:344,1,29.9999990844727,0|2,3:0|0:0,0:0:0:0:
108,337,9095,6,0,L|102:308,1,29.9999990844727,0|0,3:0|3:0,0:0:0:0:
174,309,9389,2,0,P|204:314|231:344,1,59.9999981689454,2|0,0:0|0:0,0:0:0:0:
421,247,9977,6,0,L|412:314,1,59.9999981689454,0|0,3:0|0:0,0:0:0:0:
374,361,10418,1,0,3:0:0:0:
353,338,10565,1,2,0:0:0:0:
280,156,11154,2,0,L|289:223,1,59.9999981689454,0|0,3:0|0:0,0:0:0:0:
327,270,11595,1,0,3:0:0:0:
348,247,11742,1,2,0:0:0:0:
417,69,12330,2,0,L|408:136,1,59.9999981689454,0|0,3:0|0:0,0:0:0:0:
370,183,12771,1,0,3:0:0:0:
349,160,12918,1,2,0:0:0:0:
349,160,13801,6,0,L|309:148,1,29.9999990844727,0|0,3:0|3:0,0:0:0:0:
287,91,14095,2,0,P|256:92|225:109,1,59.9999981689454,2|2,0:0|0:0,0:0:0:0:
72,144,14683,6,0,P|40:120|32:96,1,59.9999981689454,0|0,3:0|0:0,0:0:0:0:
32,84,15124,1,0,3:0:0:0:
100,80,15271,2,0,P|104:44|92:12,1,59.9999981689454,2|2,0:0|0:0,0:0:0:0:
172,152,15860,6,0,P|204:176|212:200,1,59.9999981689454,0|0,3:0|0:0,0:0:0:0:
212,212,16301,1,0,3:0:0:0:
144,212,16448,2,0,L|140:252,1,29.9999990844727,2|0,0:0|0:0,0:0:0:0:
88,320,16742,6,0,L|216:300,1,119.999996337891,2|0,0:0|3:0,0:0:0:0:
264,340,17624,1,0,3:0:0:0:
264,340,17918,2,0,P|288:320|284:228,1,119.999996337891,2|0,0:0|3:0,0:0:0:0:
290,237,18801,2,0,L|298:201,1,29.9999990844727,2|0,0:0|0:0,0:0:0:0:
264,116,19095,6,0,L|261:95,3,14.9999995422363,0|0|0|0,0:2|0:0|0:2|0:0,0:0:0:0:
256,132,19389,1,4,2:1:0:0:
256,192,34683,12,0,35860,0:0:0:0:
166,158,36301,5,0,3:2:0:0:
122,53,36448,2,0,L|112:19,3,25,2|0|0|0,3:2|3:0|3:0|3:0,3:0:0:0:
128,16,36742,2,0,L|120:60,1,25,0|0,3:2|3:2,3:2:0:0:
104,120,36889,2,0,P|81:141|7:160,1,100,2|0,3:2|0:0,0:0:0:0:
160,168,37330,5,0,3:2:0:0:
160,168,37624,2,0,P|203:207|252:213,1,100,2|0,2:0|3:2,0:0:0:0:
312,200,38065,1,2,0:0:0:0:
366,304,38213,6,0,B|422:317|422:317|441:335|441:335|516:353,1,150,4|4,3:3|0:3,0:0:0:0:
436,312,38801,1,0,0:0:0:0:
452,308,38948,1,0,0:0:0:0:
505,350,39095,1,0,0:0:0:0:
439,296,39242,2,0,L|431:248,1,40,0|2,0:0|3:2,0:0:0:0:
491,73,39683,6,0,B|500:47|500:47|490:18,2,50,4|0|0,0:3|0:0|0:0,0:0:0:0:
431,115,40124,1,2,0:0:0:0:
426,46,40271,1,0,0:0:0:0:
491,73,40418,1,2,0:0:0:0:
372,156,40565,6,0,L|260:172,1,100,4|0,3:3|0:0,0:0:0:0:
208,200,41007,1,0,3:2:0:0:
273,170,41154,1,2,0:0:0:0:
224,272,41448,1,0,3:2:0:0:
280,104,41595,2,0,P|272:72|256:48,1,50,2|0,0:0|0:0,0:0:0:0:
208,200,42036,1,0,3:2:0:0:
263,57,42330,1,2,0:0:0:0:
144,132,42624,5,0,3:2:0:0:
136,16,42771,1,2,0:0:0:0:
4,96,42918,2,0,P|68:96|112:64,1,100,4|0,0:3|3:2,0:0:0:0:
97,78,43360,2,0,P|68:52|60:32,1,50,2|0,0:0|0:0,0:0:0:0:
16,228,43801,6,0,P|20:260|48:288,1,50,0|0,3:2|0:0,0:0:0:0:
88,232,44095,2,0,L|96:172,1,50,2|0,0:0|0:0,0:0:0:0:
16,368,44389,6,0,P|64:336|120:332,1,100,0|0,3:0|0:0,0:0:0:0:
148,272,44830,2,0,P|196:304|252:308,1,100,0|0,3:0|0:0,0:0:0:0:
372,336,45271,6,0,L|379:274,1,59.9999981689454,4|0,0:3|0:0,0:0:0:0:
378,276,45713,1,2,0:0:0:0:
300,344,45860,2,0,L|308:380,3,25,0|0|0|0,3:2|0:0|0:0|0:0,0:0:0:0:
304,327,46154,1,0,0:0:0:0:
380,376,46301,1,2,0:0:0:0:
455,334,46448,2,0,P|479:318|507:310,1,50,0|0,3:0|0:0,0:0:0:0:
372,256,46742,6,0,P|400:268|428:268,1,50,2|0,0:0|0:0,0:0:0:0:
501,167,47036,2,0,P|452:169|414:200,1,100,2|0,3:2|0:0,0:0:0:0:
414,200,47477,2,0,P|400:160|404:136,1,50,2|0,0:0|3:0,0:0:0:0:
480,236,47771,1,2,0:0:0:0:
480,236,47918,2,0,P|488:204|504:180,1,50,0|0,3:2|0:0,0:0:0:0:
468,96,48213,5,0,3:0:0:0:
500,12,48433,1,0,3:0:0:0:
412,28,48654,1,0,3:0:0:0:
216,128,49095,6,0,L|208:65,1,50,2|0,0:0|0:0,0:0:0:0:
168,176,49389,1,0,3:0:0:0:
216,128,49536,1,2,0:0:0:0:
184,68,49683,2,0,L|176:40,2,25,0|2|0,3:0|0:0|0:0,0:0:0:0:
168,176,49977,6,0,P|136:208|72:216,1,100,0|0,3:0|0:0,0:0:0:0:
76,212,50369,1,0,0:0:0:0:
68,208,50467,1,0,0:0:0:0:
60,208,50565,1,2,3:2:0:0:
216,128,50860,1,0,0:0:0:0:
304,276,51154,1,4,0:3:0:0:
304,276,51448,1,4,0:3:0:0:
240,232,51595,1,2,0:0:0:0:
196,288,51742,1,0,0:0:0:0:
292,356,52036,5,0,3:0:0:0:
408,320,52330,1,0,3:0:0:0:
308,260,52624,1,0,3:0:0:0:
408,188,52918,6,0,L|417:237,1,50,0|0,3:0|0:0,0:0:0:0:
464,372,53213,2,0,P|484:336|472:276,1,100,2|0,0:0|0:0,0:0:0:0:
464,144,53801,2,0,L|473:94,1,50,0|0,3:0|0:0,0:0:0:0:
496,24,54095,2,0,P|464:52|400:60,1,100,2|0,0:0|0:0,0:0:0:0:
320,16,54536,5,0,0:0:0:0:
320,16,54610,1,0,0:0:0:0:
320,16,54683,2,0,B|320:64|288:92|288:92|248:80|244:24,1,150,4|4,0:3|0:3,0:0:0:0:
247,45,55565,2,0,P|215:137|279:205,1,200,4|0,0:3|0:0,0:0:0:0:
330,333,56448,2,0,P|355:291|344:244,1,100,2|0,0:0|0:0,0:0:0:0:
288,280,56889,5,0,0:0:0:0:
288,280,56963,1,0,0:0:0:0:
288,280,57036,2,0,L|128:304,1,150,4|4,0:3|0:3,0:0:0:0:
139,302,57918,2,0,P|192:308|227:350,1,100,4|0,0:3|0:0,0:0:0:0:
164,232,58360,5,2,0:0:0:0:
139,302,58507,2,0,P|116:312|80:312,1,50,0|0,3:0|0:0,0:0:0:0:
0,244,58801,2,0,P|32:248|64:268,1,50,2|0,3:2|0:0,0:0:0:0:
132,380,59095,1,2,0:0:0:0:
208,356,59242,5,0,0:0:0:0:
208,356,59315,1,0,0:0:0:0:
208,356,59389,2,0,L|316:340,1,100,4|2,3:3|0:0,0:0:0:0:
376,368,59830,1,4,3:3:0:0:
306,341,59977,2,0,P|292:308|296:280,1,50
332,236,60271,1,4,3:3:0:0:
376,368,60565,1,0,0:0:0:0:
452,268,60860,2,0,P|468:240|468:204,1,50,2|0,0:0|0:0,0:0:0:0:
400,220,61154,1,0,3:2:0:0:
364,300,61448,1,2,0:0:0:0:
328,192,61595,5,0,0:2:0:0:
328,192,61668,1,0,0:2:0:0:
328,192,61742,2,0,P|304:128|260:104,1,100,4|2,3:2|0:0,0:0:0:0:
360,72,62183,2,0,P|394:13|442:-2,1,100,4|0,0:3|3:0,0:0:0:0:
360,72,62624,2,0,P|336:64|316:32,1,50,4|0,3:3|0:0,0:0:0:0:
279,110,62918,6,0,P|259:142|263:170,1,50,2|0,3:2|0:0,0:0:0:0:
208,80,63213,2,2,L|180:84,3,25
216,72,63507,2,0,L|112:56,1,100,2|0,0:0|0:0,0:0:0:0:
28,232,64095,6,0,P|85:250|100:301,1,100,2|0,3:2|0:0,0:0:0:0:
100,282,64536,1,0,3:0:0:0:
28,232,64683,2,0,P|32:208|52:187,1,50,2|0,3:2|0:0,0:0:0:0:
32,304,64977,6,0,P|61:345|152:340,1,150,2|0,3:2|3:0,0:0:0:0:
176,272,65565,1,2,0:0:0:0:
176,272,65860,2,0,L|196:384,1,100,2|0,3:2|0:0,0:0:0:0:
284,264,66448,5,4,0:3:0:0:
400,344,66889,1,4,0:3:0:0:
488,240,67330,1,4,0:3:0:0:
488,240,67918,5,4,0:3:0:0:
464,104,68213,1,2,0:0:0:0:
476,172,68507,1,0,3:2:0:0:
384,216,68654,5,0,0:2:0:0:
384,216,68727,1,0,0:2:0:0:
384,216,68801,2,0,P|340:192|272:192,1,100,0|2,3:2|0:0,0:0:0:0:
216,228,69242,1,0,3:2:0:0:
160,156,69389,6,0,P|208:148|260:116,1,100,2|2,3:2|3:2,0:0:0:0:
0,88,69977,2,0,P|48:96|100:128,1,100,2|2,3:2|0:0,0:0:0:0:
160,156,70565,2,0,P|172:96|168:36,1,100,2|2,3:2|0:0,0:0:0:0:
256,200,71154,5,0,3:0:0:0:
256,200,71742,1,0,3:0:0:0:
256,200,72330,1,0,3:0:0:0:
256,292,72624,5,2,0:0:0:0:
216,168,72918,1,2,1:2:0:0:
296,168,73213,1,2,0:0:0:0:
180,353,73507,6,0,P|145:290|73:283,1,150.000005722046,6|0,1:2|0:0,0:0:0:0:
28,188,73948,2,0,P|12:228|24:260,1,59.9999981689454,2|8,1:2|1:2,0:0:0:0:
104,352,74242,1,4,0:3:0:0:
73,283,74389,2,0,L|209:263,1,119.999996337891,2|0,1:2|0:0,0:0:0:0:
404,116,74977,6,0,P|418:160|412:187,1,64.9999970245363,2|0,1:2|0:0,0:0:0:0:
296,196,75271,2,0,P|320:168|356:160,1,64.9999970245363,10|0,1:2|0:0,0:0:0:0:
346,159,75565,2,0,L|364:236,1,64.9999970245363,2|0,0:0|0:0,0:0:0:0:
447,305,75860,6,0,P|384:299|340:344,1,129.999994049073,6|2,1:2|0:0,0:0:0:0:
447,305,76301,2,0,P|484:288|504:244,1,64.9999970245363,2|8,1:2|1:2,0:0:0:0:
408,364,76595,1,4,0:3:0:0:
496,200,76742,2,0,P|504:144|448:88,1,129.999994049073,6|0,1:2|0:0,0:0:0:0:
232,77,77330,5,2,1:2:0:0:
300,104,77477,1,2,2:0:0:0:
232,77,77624,2,0,P|251:52|280:36,1,64.9999970245363,8|0,1:2|0:0,0:0:0:0:
356,156,77918,1,2,0:0:0:0:
312,220,78065,5,2,3:2:0:0:
312,220,78139,1,0,3:2:0:0:
312,220,78213,2,0,L|300:292,1,64.9999970245363,6|0,1:2|0:0,0:0:0:0:
252,368,78507,1,2,0:0:0:0:
232,300,78654,1,2,1:2:0:0:
376,264,78801,2,0,P|392:224|376:168,1,97.4999955368044,10|0,1:2|2:0,0:0:0:0:
368,176,79095,6,0,L|296:196,1,64.9999970245363,2|0,1:2|0:0,0:0:0:0:
240,232,79389,1,2,2:2:0:0:
240,160,79536,1,4,0:3:0:0:
188,280,79683,2,0,P|132:312|56:300,1,129.999994049073,2|10,1:2|1:2,0:0:0:0:
16,116,80198,5,2,0:0:0:0:
16,116,80271,2,0,P|72:124|92:184,1,97.4999955368044,2|0,0:0|0:0,0:0:0:0:
88,160,80565,2,0,L|96:84,1,64.9999970245363,6|0,1:2|0:0,0:0:0:0:
148,208,80860,1,2,0:0:0:0:
96,76,81007,1,2,1:2:0:0:
84,168,81154,1,10,1:2:0:0:
172,136,81301,1,2,0:0:0:0:
152,220,81448,2,0,P|140:276|160:376,1,129.999994049073,2|0,1:2|0:0,0:0:0:0:
440,352,82036,5,2,1:2:0:0:
440,352,82110,1,8,0:3:0:0:
440,352,82183,1,4,0:3:0:0:
332,280,82330,1,10,1:2:0:0:
368,340,82477,1,8,0:3:0:0:
492,304,82624,2,0,P|472:340|436:352,1,64.9999970245363,2|0,1:2|0:0,0:0:0:0:
512,236,82918,6,0,P|480:176|408:160,1,129.999994049073,6|0,1:2|0:0,0:0:0:0:
472,36,83360,2,0,P|488:72|484:112,1,64.9999970245363,2|8,1:2|1:2,0:0:0:0:
396,28,83654,1,4,3:3:0:0:
424,157,83801,2,0,P|364:189|288:193,1,129.999994049073,2|0,1:2|0:0,0:0:0:0:
64,84,84389,6,0,P|45:52|50:3,1,64.9999970245363,2|0,1:2|0:0,0:0:0:0:
133,100,84683,1,10,1:2:0:0:
16,132,84830,1,8,0:3:0:0:
113,32,84977,1,2,0:0:0:0:
152,164,85124,1,4,0:3:0:0:
65,268,85271,6,0,P|32:288|-12:284,1,64.9999970245363,6|0,1:2|0:0,0:0:0:0:
76,192,85565,1,2,0:0:0:0:
120,324,85713,2,0,P|146:351|190:359,1,64.9999970245363,2|8,1:2|1:2,0:0:0:0:
60,368,86007,1,2,0:0:0:0:
120,324,86154,2,0,P|168:296|260:308,1,129.999994049073,2|0,1:2|0:0,0:0:0:0:
376,364,86595,5,8,0:3:0:0:
392,296,86742,1,0,1:2:0:0:
324,316,86889,1,4,0:3:0:0:
444,344,87036,2,0,L|516:332,1,64.9999970245363,8|0,1:2|0:0,0:0:0:0:
408,224,87330,5,2,0:0:0:0:
392,156,87477,1,2,0:0:0:0:
448,111,87624,2,0,P|476:131|524:131,1,64.9999970245363,6|0,1:2|0:0,0:0:0:0:
408,224,87918,1,10,1:2:0:0:
392,156,88065,2,0,P|320:152|268:192,1,129.999994049073,0|0,1:2|1:2,0:0:0:0:
274,183,88507,6,0,L|352:208,1,64.9999970245363,10|0,1:2|0:0,0:0:0:0:
212,216,88801,1,2,1:2:0:0:
160,168,88948,1,8,0:3:0:0:
96,200,89095,2,0,P|56:188|36:136,1,97.4999955368044,4|0,0:3|0:0,0:0:0:0:
44,124,89389,5,10,1:2:0:0:
116,112,89536,1,8,0:3:0:0:
126,39,89683,1,2,1:2:0:0:
96,72,89830,1,4,0:3:0:0:
116,112,89977,5,4,2:1:0:0:
256,196,98727,5,2,0:2:0:0:
256,196,98801,2,0,L|345:180,1,80,2|0,0:2|2:0,0:0:0:0:
496,219,99389,5,4,0:3:0:0:
440,176,99683,1,0,0:0:0:0:
504,208,99977,2,0,P|488:248|488:296,1,80,4|0,0:3|0:0,0:0:0:0:
376,352,100565,1,4,0:3:0:0:
440,376,100860,2,0,P|444:348|440:332,1,40,0|0,3:2|0:0,0:0:0:0:
440,328,101154,2,0,L|456:248,1,80,4|0,0:3|0:0,0:0:0:0:
496,136,101742,6,0,P|463:162|411:159,1,80,4|0,0:3|0:0,0:0:0:0:
437,92,102330,1,4,0:3:0:0:
314,8,102624,2,0,P|347:34|399:31,1,80,2|4,0:0|0:3,0:0:0:0:
314,8,103213,2,0,L|305:56,1,40,0|0,3:2|0:0,0:0:0:0:
349,107,103507,1,4,0:3:0:0:
268,168,103801,1,0,0:0:0:0:
203,92,104095,6,0,P|164:69|122:66,1,80,4|0,3:3|0:0,0:0:0:0:
20,68,104683,1,4,0:3:0:0:
4,144,104977,2,0,P|48:144|76:117,1,80,2|4,0:0|0:3,0:0:0:0:
216,164,105565,2,0,L|208:216,1,40,2|0,3:2|0:0,0:0:0:0:
209,203,105860,2,0,P|169:197|136:176,1,80,4|2,0:3|0:0,0:0:0:0:
9,281,106448,6,0,L|137:262,1,119.999996337891,0|0,3:2|0:0,0:0:0:0:
127,263,106889,2,0,L|144:306,1,29.9999990844727,2|0,0:0|0:0,0:0:0:0:
123,371,107036,5,0,3:2:0:0:
145,305,107183,1,2,0:0:0:0:
87,253,107330,1,0,3:2:0:0:
136,176,107477,1,2,0:0:0:0:
110,155,107624,1,2,0:0:0:0:
110,155,107918,6,0,L|50:170,1,50,2|0,3:2|0:0,0:0:0:0:
0,131,108213,1,4,0:3:0:0:
128,24,108507,2,0,P|180:20|232:52,1,100,2|0,0:0|3:0,0:0:0:0:
184,172,109095,5,2,3:2:0:0:
164,100,109242,1,2,0:3:0:0:
260,188,109389,2,0,P|296:168|316:140,1,57.5000010967255,10|0,0:2|0:0,0:0:0:0:
208,248,109683,2,0,P|196:296|204:384,1,115.000002193451,2|4,3:2|0:3,0:0:0:0:
184,172,110271,1,2,3:2:0:0:
284,260,110565,2,0,P|320:276|360:276,1,57.5000010967255,10|0,3:2|0:0,0:0:0:0:
404,248,110860,1,2,0:0:0:0:
404,248,111154,6,0,L|424:376,1,115.000002193451,4|0,3:3|0:0,0:0:0:0:
488,328,111595,1,0,3:3:0:0:
421,361,111742,2,0,P|389:357|361:329,1,57.5000010967255,8|0,3:2|0:0,0:0:0:0:
404,248,112036,2,0,P|460:232|484:172,2,115.000002193451,0|4|0,3:2|3:3|3:0,0:0:0:0:
496,8,112918,6,0,L|480:72,1,57.5000010967255,10|0,3:2|0:0,0:0:0:0:
420,28,113213,1,2,0:0:0:0:
416,176,113507,2,0,P|404:140|380:120,1,57.5000010967255,4|0,3:3|0:0,0:0:0:0:
356,64,113801,1,2,0:0:0:0:
284,64,113948,1,0,3:3:0:0:
284,64,114095,2,0,P|264:28|272:-4,1,57.5000010967255,10|0,3:2|0:0,0:0:0:0:
244,124,114389,2,0,L|224:248,1,115.000002193451,2|4,3:2|3:3,0:0:0:0:
244,124,114977,1,0,3:2:0:0:
212,308,115271,6,0,P|180:336|148:340,1,57.5000010967255,10|0,3:2|0:0,0:0:0:0:
225,237,115565,1,2,3:2:0:0:
288,292,115713,1,4,0:3:0:0:
288,292,115786,1,0,3:2:0:0:
288,292,115860,2,0,L|416:312,1,115.000002193451,0|4,3:2|0:3,0:0:0:0:
464,344,116301,1,0,3:2:0:0:
484,204,116448,6,0,L|472:128,1,57.5000010967255,8|0,3:2|0:0,0:0:0:0:
475,147,116742,1,0,3:2:0:0:
499,280,117036,6,0,P|443:273|401:309,1,115.000002193451,4|0,3:3|3:0,0:0:0:0:
316,208,117477,1,0,0:0:0:0:
316,208,117551,1,0,0:0:0:0:
316,208,117624,2,0,P|348:232|372:236,1,57.5000010967255,8|0,3:2|0:0,0:0:0:0:
408,176,117918,2,0,L|420:80,1,86.2500016450882,0|0,3:0|0:0,0:0:0:0:
420,80,118213,5,2,3:2:0:0:
304,16,118507,1,0,0:0:0:0:
304,16,118654,2,0,L|356:8,1,50,4|0,3:3|3:0,0:0:0:0:
348,80,118948,1,0,0:0:0:0:
348,80,119095,2,0,L|232:96,1,100,0|0,3:0|0:0,0:0:0:0:
232,24,119536,1,4,0:3:0:0:
180,76,119683,1,0,3:0:0:0:
180,76,119977,6,0,P|168:128|160:188,1,100,0|0,3:0|3:0,0:0:0:0:
96,120,120418,1,0,3:2:0:0:
96,120,120492,1,0,3:2:0:0:
96,120,120565,2,0,P|88:70|77:21,1,100,0|0,3:2|0:0,0:0:0:0:
32,144,121007,5,4,0:3:0:0:
32,144,121154,2,0,P|52:132|96:128,1,50,0|0,3:0|0:0,0:0:0:0:
80,200,121448,2,0,P|104:216|120:240,1,50,0|0,3:3|0:0,0:0:0:0:
56,272,121742,1,2,0:0:0:0:
20,332,121889,1,0,3:0:0:0:
76,372,122036,1,0,3:0:0:0:
76,372,122330,6,0,P|128:352|180:344,1,100,0|0,3:2|0:0,0:0:0:0:
220,292,122771,1,0,3:2:0:0:
220,292,122845,1,0,3:2:0:0:
220,292,122918,2,0,P|272:312|324:320,1,100,0|0,3:2|0:0,0:0:0:0:
384,348,123360,1,4,0:3:0:0:
368,276,123507,6,0,P|332:292|320:308,1,50,0|0,3:0|0:0,0:0:0:0:
325,299,123801,2,0,L|340:188,1,100,0|0,3:0|0:0,0:0:0:0:
340,128,124242,1,4,0:3:0:0:
390,58,124389,6,0,P|402:94|406:122,1,50,0|0,3:0|0:0,0:0:0:0:
468,56,124683,2,0,P|476:24|480:4,1,50,0|0,3:0|0:0,0:0:0:0:
331,106,124977,1,0,3:0:0:0:
324,102,125051,1,0,3:0:0:0:
318,97,125124,1,0,3:0:0:0:
311,92,125198,1,0,3:0:0:0:
302,86,125271,2,0,L|186:105,1,100,4|0,3:3|0:0,0:0:0:0:
165,41,125713,1,4,0:3:0:0:
165,41,125860,2,0,L|224:30,1,50,0|0,3:0|0:0,0:0:0:0:
264,140,126154,6,0,L|259:168,1,25,2|0,0:0|3:0,0:0:0:0:
243,185,126301,2,0,L|248:213,1,25,2|0,0:0|3:0,0:0:0:0:
267,226,126448,2,0,L|257:294,1,50,2|0,3:2|0:0,0:0:0:0:
215,357,126742,6,2,L|208:323,3,25
195,313,127036,2,0,P|148:346|96:344,1,100,2|0,0:0|0:0,0:0:0:0:
44,304,127477,5,2,0:0:0:0:
44,304,127551,1,0,3:0:0:0:
44,304,127624,2,0,L|64:184,1,100,2|0,3:2|0:0,0:0:0:0:
92,100,128065,2,0,L|80:40,2,50,2|4|0,3:2|0:3|0:3,3:0:0:0:
138,158,128507,2,0,P|98:202|50:202,1,100,2|4,0:0|3:3,0:0:0:0:
60,204,129095,6,0,L|120:224,1,50,2|0,0:0|0:0,0:0:0:0:
116,288,129389,2,0,P|140:320|256:324,1,150,4|2,3:3|0:0,0:0:0:0:
344,368,129977,6,0,L|352:304,1,50,0|0,3:0|0:0,0:0:0:0:
324,252,130271,1,2,0:0:0:0:
392,260,130418,1,4,0:3:0:0:
350,318,130565,1,0,3:0:0:0:
488,144,130860,6,0,L|420:156,1,50,0|0,3:0|0:0,0:0:0:0:
424,84,131154,2,0,L|473:75,1,50,4|0,0:3|0:0,0:0:0:0:
504,12,131448,5,4,0:3:0:0:
438,152,131742,2,0,P|408:116|344:108,1,100,2|2,3:2|0:0,0:0:0:0:
292,140,132183,1,0,3:2:0:0:
292,140,132257,1,0,3:2:0:0:
292,140,132330,2,0,L|276:32,1,100
336,0,132771,1,0,0:0:0:0:
276,40,132918,6,0,L|216:28,1,50,2|0,3:2|0:0,0:0:0:0:
168,68,133213,1,2,0:0:0:0:
272,208,133507,1,2,3:2:0:0:
292,140,133654,1,0,3:0:0:0:
224,152,133801,1,2,3:2:0:0:
224,152,134095,6,0,P|196:160|168:188,1,50,0|0,3:2|0:0,0:0:0:0:
128,228,134389,1,0,3:0:0:0:
129,235,134463,1,0,3:0:0:0:
130,242,134536,1,0,3:0:0:0:
131,249,134610,1,0,3:0:0:0:
132,256,134683,5,4,1:2:0:0:
256,352,134977,1,0,1:0:0:0:
380,256,135271,1,0,1:0:0:0:
256,352,135565,5,0,1:0:0:0:
220,284,135713,1,2,1:2:0:0:
292,284,135860,1,8,1:2:0:0:
392,336,136154,6,0,P|421:312|455:312,1,59.9999981689454,0|8,1:2|0:3,0:0:0:0:
452,311,136374,1,4,0:3:0:0:
459,313,136448,1,0,1:2:0:0:
443,380,136595,1,4,0:3:0:0:
500,256,136742,2,0,P|508:220|496:182,1,59.9999981689454,8|0,0:3|0:0,0:0:0:0:
360,144,137036,6,0,L|524:120,1,150.000005722046,6|2,1:2|3:2,0:0:0:0:
512,8,137477,1,2,3:2:0:0:
512,8,137551,1,2,3:2:0:0:
512,8,137624,2,0,P|472:32|464:76,1,75.0000028610231,10|0,1:2|0:0,0:0:0:0:
440,160,137918,2,0,P|392:216|308:208,1,150.000005722046,2|4,1:2|0:1,0:0:0:0:
128,68,138507,6,0,P|148:28|200:12,1,75.0000028610231,2|0,1:2|0:0,0:0:0:0:
152,136,138801,1,10,1:2:0:0:
56,52,138948,1,8,0:3:0:0:
128,68,139095,1,2,1:2:0:0:
112,140,139242,1,4,0:3:0:0:
28,236,139389,6,0,P|64:216|128:220,1,75.0000028610231,6|0,1:2|0:0,0:0:0:0:
112,140,139683,1,2,3:2:0:0:
152,264,139830,2,0,P|183:289|247:297,1,75.0000028610231,2|8,1:2|1:2,0:0:0:0:
120,336,140124,1,2,3:2:0:0:
280,268,140271,2,0,P|296:216|260:124,1,150.000005722046,2|4,1:2|0:1,0:0:0:0:
460,16,140860,5,2,1:2:0:0:
404,56,141007,2,0,L|424:144,1,75.0000028610231,2|8,0:0|1:2,0:0:0:0:
488,144,141301,1,8,0:3:0:0:
420,129,141448,1,0,1:3:0:0:
368,176,141595,1,4,0:3:0:0:
484,244,141742,5,6,1:2:0:0:
416,260,141889,1,2,0:2:0:0:
464,312,142036,2,0,P|452:352|416:380,1,75.0000028610231,2|0,1:2|0:0,0:0:0:0:
368,208,142330,2,0,P|340:176|304:168,1,75.0000028610231,14|0,1:2|0:0,0:0:0:0:
244,200,142624,5,2,1:2:0:0:
248,128,142771,1,2,0:0:0:0:
240,268,142918,2,0,P|200:296|160:292,1,75.0000028610231,6|0,1:2|0:0,0:0:0:0:
292,316,143213,2,0,P|332:340|376:336,1,75.0000028610231,2|0,0:0|0:0,0:0:0:0:
244,200,143507,5,14,1:2:0:0:
236,356,143654,1,2,0:0:0:0:
128,244,143801,1,2,1:2:0:0:
128,244,143874,1,8,3:3:0:0:
128,244,143948,1,4,3:3:0:0:
36,364,144095,6,0,P|88:324|184:328,1,150.000005722046,4|2,1:2|0:0,0:0:0:0:
176,188,144536,1,2,3:2:0:0:
176,188,144610,1,0,3:2:0:0:
176,188,144683,1,10,1:2:0:0:
241,216,144830,1,0,0:0:0:0:
245,359,144977,2,0,P|250:307|290:274,1,75.0000028610231,4|0,1:2|0:0,0:0:0:0:
325,342,145271,1,2,3:3:0:0:
404,324,145418,1,4,3:3:0:0:
360,200,145565,6,0,P|340:152|344:104,1,75.0000028610231,2|0,0:2|1:2,0:0:0:0:
344,120,145786,1,8,0:3:0:0:
352,112,145860,1,4,0:3:0:0:
380,196,146007,1,8,0:3:0:0:
344,273,146154,2,0,P|324:320|336:368,1,75.0000028610231,0|0,1:2|0:0,0:0:0:0:
511,375,146448,6,0,P|483:331|391:327,1,150.000005722046,6|0,1:2|3:2,0:0:0:0:
460,188,146889,1,0,3:2:0:0:
460,188,146963,1,0,3:2:0:0:
460,188,147036,2,0,P|484:220|476:268,1,75.0000028610231,10|0,1:2|0:0,0:0:0:0:
392,326,147330,2,0,L|224:346,1,150.000005722046,6|4,1:2|0:1,0:0:0:0:
28,176,147918,6,0,P|16:140|32:84,1,75.0000028610231,2|0,1:2|0:0,0:0:0:0:
132,124,148213,1,10,1:2:0:0:
28,176,148360,1,8,0:3:0:0:
84,72,148507,1,2,1:2:0:0:
100,188,148654,1,4,0:3:0:0:
168,296,148801,6,0,P|204:320|256:320,1,75.0000028610231,6|0,1:2|0:0,0:0:0:0:
176,228,149095,1,2,3:2:0:0:
108,332,149242,2,0,P|52:352|12:348,1,75.0000028610231,2|8,1:2|1:2,0:0:0:0:
160,380,149536,1,2,3:2:0:0:
234,323,149683,2,0,P|264:304|298:181,1,150.000005722046,6|4,1:2|3:1,0:0:0:0:
233,77,150271,5,0,1:2:0:0:
272,14,150418,1,4,0:3:0:0:
291,127,150565,2,0,L|305:220,1,75.0000028610231,8|0,1:2|0:0,0:0:0:0:
339,340,150860,5,2,1:2:0:0:
375,280,151007,1,2,0:0:0:0:
395,384,151154,2,0,P|351:328|363:224,1,150.000005722046,6|2,1:2|3:2,0:0:0:0:
415,216,151595,1,2,1:2:0:0:
455,344,151742,2,0,P|495:296|479:224,1,112.500004291535,8|0,1:2|0:0,0:0:0:0:
487,236,152036,1,2,1:2:0:0:
415,216,152183,1,2,3:2:0:0:
349,251,152330,2,0,P|393:211|385:43,1,225.000008583069,6|0,1:2|0:0,0:0:0:0:
456,20,152918,5,10,1:2:0:0:
456,92,153065,1,0,1:2:0:0:
392,128,153213,1,8,0:3:0:0:
332,92,153360,1,4,0:3:0:0:
284,208,153507,6,0,L|260:352,1,119.999996337891,6|2,1:2|0:0,0:0:0:0:
241,269,153948,2,0,P|254:296|262:325,1,59.9999981689454,2|4,3:2|3:3,0:0:0:0:
188,328,154242,1,2,3:2:0:0:
284,208,154389,2,0,P|292:168|300:144,2,59.9999981689454,2|0|0,3:2|0:0|3:2,0:0:0:0:
241,269,154830,5,2,0:0:0:0:
212,200,154977,1,2,0:0:0:0:
212,200,155271,2,0,P|180:196|140:212,1,59.9999981689454,2|0,3:2|0:0,0:0:0:0:
136,276,155565,2,0,P|104:284|60:272,1,59.9999981689454,2|0,0:0|0:0,0:0:0:0:
40,148,155860,5,2,3:2:0:0:
136,56,156154,1,2,0:0:0:0:
72,28,156301,2,0,P|68:68|84:100,1,59.9999981689454,2|4,3:2|3:3,0:0:0:0:
112,144,156595,1,2,3:2:0:0:
176,116,156742,2,0,P|200:88|208:52,1,59.9999981689454,2|0,3:2|0:0,0:0:0:0:
272,36,157036,5,4,3:3:0:0:
332,76,157183,1,2,3:2:0:0:
320,144,157330,1,2,3:2:0:0:
320,144,157624,2,0,L|328:220,1,59.9999981689454,0|0,3:2|0:0,0:0:0:0:
372,256,157918,2,2,P|384:268|424:272,2,39.9999987792969
340,272,158213,6,0,P|280:280|248:344,1,119.999996337891,2|2,3:2|0:0,0:0:0:0:
249,326,158654,2,0,P|236:292|200:268,1,59.9999981689454,2|4,3:2|3:3,0:0:0:0:
256,216,158948,1,2,3:2:0:0:
180,336,159095,2,0,P|132:356|48:340,1,119.999996337891,2|4,3:2|3:3,0:0:0:0:
28,236,159536,5,2,3:2:0:0:
80,284,159683,1,2,3:2:0:0:
12,304,159830,1,0,3:3:0:0:
28,236,159977,2,0,L|16:168,1,59.9999981689454,2|0,3:2|0:0,0:0:0:0:
88,156,160271,2,0,L|100:232,1,59.9999981689454,2|0,0:0|0:0,0:0:0:0:
176,120,160565,6,0,P|140:104|120:72,1,59.9999981689454,2|0,3:2|0:0,0:0:0:0:
120,20,160860,1,2,0:0:0:0:
176,120,161007,2,0,P|200:160|200:184,1,59.9999981689454,2|0,3:2|0:0,0:0:0:0:
168,236,161301,1,2,3:2:0:0:
256,104,161448,2,0,P|296:80|384:88,1,119.999996337891,2|4,3:2|3:3,0:0:0:0:
424,128,161889,5,2,0:0:0:0:
472,12,162036,2,0,P|452:48|416:68,1,59.9999981689454,2|0,3:2|0:0,0:0:0:0:
356,152,162330,5,2,1:2:0:0:
342,189,162428,1,8,0:3:0:0:
346,228,162526,1,4,0:3:0:0:
375,255,162624,5,8,0:3:0:0:
382,273,162722,1,4,0:3:0:0:
378,292,162820,1,4,0:3:0:0:
359,355,162918,6,0,B|338:303|374:256|392:282|424:246|412:196,1,179.999994506836,4|2,1:2|0:0,0:0:0:0:
431,331,163507,1,8,1:2:0:0:
254,218,163801,6,0,P|207:254|137:257,1,119.999996337891,6|4,1:2|3:1,0:0:0:0:
80,244,164242,1,2,0:0:0:0:
128,192,164389,1,2,0:0:0:0:
128,192,164683,6,0,P|120:156|104:124,1,59.9999981689454,2|0,1:2|0:0,0:0:0:0:
56,52,164977,2,0,P|48:88|32:120,1,59.9999981689454,0|0,3:0|3:0,3:0:0:0:
12,224,165271,6,0,P|24:292|88:316,1,119.999996337891,6|0,1:2|3:0,0:0:0:0:
136,328,165713,1,2,0:0:0:0:
19,353,165860,2,0,P|51:321|71:313,1,59.9999981689454,8|0,1:2|0:0,0:0:0:0:
200,364,166154,6,0,P|240:360|304:304,1,119.999996337891,6|4,1:2|3:1,0:0:0:0:
328,244,166595,1,2,0:0:0:0:
256,252,166742,1,2,0:0:0:0:
256,252,167036,6,0,P|264:184|276:116,1,119.999996337891,10|0,1:2|3:0,0:0:0:0:
480,20,167624,6,0,P|468:64|388:100,1,119.999996337891,6|0,1:2|3:2,0:0:0:0:
336,96,168065,1,2,0:0:0:0:
480,184,168213,1,8,1:2:0:0:
512,124,168360,1,2,0:0:0:0:
480,184,168507,1,4,3:3:0:0:
460,316,168801,5,0,3:0:0:0:
444,249,168948,1,2,0:0:0:0:
460,316,169095,1,4,3:3:0:0:
268,360,169389,5,10,1:2:0:0:
376,264,169536,1,2,0:0:0:0:
256,288,169683,1,8,1:2:0:0:
388,336,169830,1,2,0:0:0:0:
322,314,169977,1,0,1:2:0:0:
392,196,170124,6,0,P|400:144|341:55,1,150.000005722046,14|0,1:2|0:0,0:0:0:0:
496,4,170565,6,0,P|490:80|423:118,1,160,14|0,1:2|0:0,0:0:0:0:
322,314,171007,6,0,P|315:245|400:196,1,170.000003242493,14|0,1:2|0:0,0:0:0:0:
391,195,171448,6,0,L|288:180,1,85.0000016212464,14|0,1:2|0:0,0:0:0:0:
303,175,171668,1,0,1:0:0:0:
298,167,171742,1,0,1:0:0:0:
275,44,171889,6,0,P|243:111|157:133,1,160,14|0,1:2|0:0,0:0:0:0:
118,72,172330,6,0,L|-1:92,2,119.999996337891,2|2|8,3:2|0:0|1:2,0:0:0:0:
228,200,173213,5,2,0:0:0:0:
76,152,173507,1,2,3:3:0:0:
116,308,173801,1,2,0:0:0:0:
116,308,174095,6,0,P|80:348|-4:356,1,119.999996337891,10|0,1:2|3:0,0:0:0:0:
92,232,174536,1,2,0:0:0:0:
116,308,174683,2,0,L|244:324,2,119.999996337891,2|2|2,3:2|0:0|1:2,0:0:0:0:
272,260,175565,5,2,3:2:0:0:
308,376,175713,1,2,0:0:0:0:
308,376,175786,1,8,0:3:0:0:
308,376,175860,1,4,0:3:0:0:
335,304,176007,1,2,0:0:0:0:
272,260,176154,1,0,3:2:0:0:
312,192,176301,2,0,P|310:153|289:129,1,59.9999981689454,2|8,0:0|1:2,0:0:0:0:
272,260,176595,6,0,P|327:272|360:333,1,119.999996337891,4|0,3:2|0:0,0:0:0:0:
384,364,176963,1,4,0:3:0:0:
384,364,177036,2,0,P|440:356|468:280,1,119.999996337891,2|2,3:2|3:2,0:0:0:0:
460,232,177477,1,2,0:0:0:0:
480,364,177624,2,0,L|468:292,1,59.9999981689454,6|0,1:2|0:0,0:0:0:0:
460,232,177918,5,2,0:0:0:0:
300,138,178213,1,2,3:3:0:0:
456,40,178507,1,2,0:0:0:0:
456,40,178801,6,0,P|460:92|412:140,1,119.999996337891,10|0,1:2|3:2,0:0:0:0:
348,128,179242,1,2,3:2:0:0:
392,72,179389,1,0,1:2:0:0:
364,248,179683,5,0,3:0:0:0:
304,208,179830,1,2,0:0:0:0:
300,280,179977,1,0,1:2:0:0:
220,172,180271,5,2,0:0:0:0:
162,216,180418,1,0,0:0:0:0:
92,196,180565,1,2,3:3:0:0:
162,216,180713,1,8,0:3:0:0:
148,144,180860,5,4,0:3:0:0:
148,144,181154,5,10,1:2:0:0:
92,196,181301,1,4,0:3:0:0:
136,72,181448,1,8,0:3:0:0:
220,172,181595,1,0,0:0:0:0:
176,288,181742,6,0,P|140:324|64:328,1,119.999996337891,0|0,1:2|3:0,0:0:0:0:
276,216,182330,2,0,P|289:265|254:332,1,119.999996337891,0|0,1:2|3:0,0:0:0:0:
256,88,182918,2,0,P|305:101|346:164,1,119.999996337891,0|2,1:2|3:3,0:0:0:0:
392,68,183360,5,8,0:3:0:0:
392,68,183433,1,4,0:3:0:0:
392,68,183507,1,0,1:2:0:0:
456,100,183654,1,4,0:3:0:0:
452,24,183801,1,8,0:3:0:0:
452,24,184095,6,0,B|492:72|448:144|424:120|398:187|428:248,1,240,6|2,1:2|2:2,0:0:0:0:
464,308,185271,6,0,L|461:329,1,14.9999995422363,2|2,2:2|2:2,2:2:0:0:
324,316,186448,5,0,0:0:0:0:
324,316,187330,1,0,0:0:0:0:
188,316,188801,5,0,0:0:0:0:
188,316,189683,1,0,0:0:0:0:
188,180,191154,5,0,0:0:0:0:
188,180,192036,1,0,0:0:0:0:
324,180,193507,5,0,0:0:0:0:
324,180,194389,1,0,0:0:0:0:
392,144,194683,6,0,P|424:108|424:68,1,80,2|0,0:0|0:0,0:0:0:0:
360,40,195271,2,0,P|328:72|328:120,1,80,2|0,0:0|0:0,0:0:0:0:
392,220,195860,6,0,P|388:268|344:312,1,100,2|0,0:0|0:0,0:0:0:0:
300,348,196301,2,0,P|288:324|288:292,1,50,2|0,0:0|3:0,0:0:0:0:
286,301,196742,2,0,L|322:309,2,29.9999990844727,2|2|0,0:0|0:3|3:0,0:0:0:0:
168,192,197330,5,2,0:0:0:0:
144,348,197624,2,0,P|116:364|80:364,1,59.9999981689454,2|0,3:2|0:0,0:0:0:0:
0,228,198213,6,0,P|24:192|88:192,1,100,0|0,3:2|0:0,0:0:0:0:
99,256,198654,2,0,L|96:296,1,40,2|0,0:0|3:2,0:0:0:0:
96,296,198948,1,2,0:0:0:0:
77,186,199095,2,0,L|72:144,2,40,2|2|0,0:0|0:3|3:2,0:0:0:0:
155,120,199683,2,0,L|145:41,1,80,0|0,0:0|3:2,0:0:0:0:
228,184,200271,5,2,0:0:0:0:
208,252,200418,1,2,0:0:0:0:
256,304,200565,1,0,3:2:0:0:
444,324,200860,5,2,0:0:0:0:
395,272,201007,1,2,0:0:0:0:
326,288,201154,1,0,3:2:0:0:
492,376,201448,5,2,0:0:0:0:
436,136,201742,1,2,1:2:0:0:
436,136,202918,5,10,1:2:0:0:
245,269,203801,6,0,B|209:215|233:128|270:165|301:76|237:5,1,262.500010013581,6|0,1:2|0:0,0:0:0:0:
244,24,204389,2,0,P|231:55|232:86,1,50,2|0,3:2|0:0,0:0:0:0:
272,152,204683,5,2,1:2:0:0:
300,216,204781,1,8,0:3:0:0:
272,280,204879,1,4,0:3:0:0:
236,308,204977,5,8,0:3:0:0:
224,276,205075,1,4,0:3:0:0:
241,247,205173,1,8,0:3:0:0:
312,256,205271,6,0,P|355:259|428:172,1,150.000005722046,6|2,1:2|3:2,0:0:0:0:
424,336,205713,2,0,P|416:288|380:260,1,75.0000028610231,2|8,0:0|1:2,0:0:0:0:
352,324,206007,1,2,0:0:0:0:
240,252,206154,2,0,P|200:252|156:288,1,75.0000028610231,2|0,3:2|0:0,0:0:0:0:
100,372,206448,1,4,1:1:0:0:
100,372,206521,1,8,0:3:0:0:
100,372,206595,1,4,0:3:0:0:
116,220,206742,5,2,3:2:0:0:
220,320,206889,1,2,0:0:0:0:
52,252,207036,2,0,P|48:204|68:168,1,75.0000028610231,10|0,1:2|0:0,0:0:0:0:
183,198,207330,2,0,P|185:237|169:269,1,75.0000028610231,2|0,3:2|0:0,0:0:0:0:
58,180,207624,5,2,1:2:0:0:
168,128,207771,1,2,0:0:0:0:
64,52,207918,1,2,3:2:0:0:
96,120,208065,1,2,0:0:0:0:
212,68,208213,2,0,P|244:44|256:4,1,75.0000028610231,10|0,1:2|0:0,0:0:0:0:
320,60,208507,6,0,P|364:96|368:144,1,75.0000028610231,2|0,3:2|0:0,0:0:0:0:
384,16,208801,1,2,1:2:0:0:
320,60,208948,1,2,0:0:0:0:
432,72,209095,2,0,P|456:36|456:0,1,75.0000028610231,2|0,3:2|0:0,0:0:0:0:
440,152,209389,1,10,1:2:0:0:
440,152,209463,1,0,1:0:0:0:
440,152,209536,1,2,1:2:0:0:
504,288,209683,6,0,B|472:216|360:212|360:212|400:224|408:260,1,225.000008583069,6|0,1:2|0:2,0:0:0:0:
344,284,210271,2,0,P|304:316|256:312,1,75.0000028610231,2|0,3:2|0:0,0:0:0:0:
148,272,210565,2,0,P|192:272|232:308,1,75.0000028610231,10|0,1:2|0:0,0:0:0:0:
280,248,210860,5,2,3:2:0:0:
220,360,211007,1,2,0:0:0:0:
148,272,211154,5,0,3:2:0:0:
281,318,211301,1,8,0:3:0:0:
224,204,211448,6,0,P|216:164|244:108,1,75.0000028610231,2|0,3:2|0:0,0:0:0:0:
232,128,211668,1,4,0:3:0:0:
240,124,211742,1,10,1:2:0:0:
296,172,211889,1,4,0:3:0:0:
364,140,212036,1,8,0:3:0:0:
260,188,212183,1,4,0:3:0:0:
192,68,212330,6,0,P|116:68|56:120,1,150.000005722046,6|0,1:2|3:2,0:0:0:0:
48,180,212771,1,2,0:0:0:0:
8,68,212918,2,0,P|48:44|100:60,1,75.0000028610231,10|0,1:2|0:0,0:0:0:0:
116,156,213213,2,0,P|156:136|188:72,1,112.500004291535,2|0,3:2|0:0,0:0:0:0:
192,68,213507,2,0,L|184:164,1,75.0000028610231,4|0,1:1|0:0,0:0:0:0:
132,292,213801,5,2,3:2:0:0:
108,228,213948,1,2,0:0:0:0:
200,300,214095,1,10,1:2:0:0:
160,356,214242,1,2,0:0:0:0:
248,252,214389,2,0,P|280:236|328:248,1,75.0000028610231,2|0,3:2|0:0,0:0:0:0:
440,336,214683,6,0,P|484:332|508:304,1,75.0000028610231,6|0,1:2|0:0,0:0:0:0:
512,240,214977,1,2,3:2:0:0:
440,336,215124,2,0,P|408:308|368:300,1,75.0000028610231,2|8,0:0|1:2,0:0:0:0:
377,373,215418,1,2,0:0:0:0:
440,336,215565,2,0,L|448:164,1,150.000005722046,2|4,1:2|0:1,0:0:0:0:
400,136,216007,5,0,3:2:0:0:
400,136,216154,2,0,P|380:167|380:204,1,75.0000028610231,0|0,3:2|0:0,0:0:0:0:
476,248,216448,2,0,P|508:220|512:176,1,75.0000028610231,10|0,1:2|0:0,0:0:0:0:
444,80,216742,5,2,3:2:0:0:
492,28,216889,1,2,0:0:0:0:
492,28,217036,2,0,P|512:64|504:116,1,75.0000028610231,6|0,1:2|0:0,0:0:0:0:
376,56,217330,1,2,3:2:0:0:
336,112,217477,1,2,0:0:0:0:
336,112,217624,2,0,P|308:72|312:32,1,75.0000028610231,8|0,1:2|0:0,0:0:0:0:
292,168,217918,5,2,3:2:0:0:
320,236,218065,1,2,0:0:0:0:
220,160,218213,1,10,1:2:0:0:
336,112,218360,1,2,0:0:0:0:
292,168,218507,1,2,3:2:0:0:
304,360,218801,6,0,P|280:304|196:280,1,150.000005722046,10|2,1:2|3:2,0:0:0:0:
136,308,219242,1,2,0:0:0:0:
216,208,219389,6,0,P|204:160|172:128,1,75.0000028610231,6|0,1:2|0:0,0:0:0:0:
292,168,219683,2,0,P|304:120|336:88,1,75.0000028610231,2|0,1:2|0:0,0:0:0:0:
141,84,219977,1,10,1:2:0:0:
360,39,220271,1,10,1:2:0:0:
256,192,220565,5,14,3:2:0:0:
256,347,220860,2,0,L|256:381,2,25,2|0|0,0:0|0:0|0:0,0:0:0:0:
256,347,221154,2,0,L|256:259,1,75.0000028610231,2|8,1:2|0:3,0:0:0:0:
228,204,221448,1,4,0:3:0:0:
276,144,221595,1,0,3:0:0:0:
256,72,221742,5,0,3:0:0:0:
256,72,222330,1,0,3:0:0:0:
256,72,222918,6,2,L|256:32,1,37.5000014305115,2|0,0:0|0:0,0:0:0:0:
256,32,224095,6,0,P|212:92|160:88,1,119.999996337891,6|0,1:2|3:2,0:0:0:0:
136,160,224536,1,2,0:0:0:0:
64,32,224683,2,0,P|112:36|132:64,1,59.9999981689454,10|0,1:2|0:0,0:0:0:0:
172,92,224977,2,0,L|192:216,1,119.999996337891,2|4,1:2|0:3,0:0:0:0:
168,280,225418,1,2,0:0:0:0:
288,380,225565,2,0,P|252:352|172:356,1,119.999996337891,2|8,3:2|1:2,0:0:0:0:
12,244,226154,5,2,3:2:0:0:
80,224,226301,1,2,0:0:0:0:
23,318,226448,2,0,P|31:266|83:222,1,119.999996337891,0|0,1:2|3:2,0:0:0:0:
152,240,226889,1,2,0:0:0:0:
80,224,227036,2,0,L|68:156,1,59.9999981689454,10|0,1:2|0:0,0:0:0:0:
69,164,227330,2,0,P|96:112|72:40,1,119.999996337891,2|4,1:2|0:3,0:0:0:0:
20,16,227771,1,2,0:0:0:0:
156,44,227918,6,0,P|196:48|236:28,1,59.9999981689454,2|0,3:2|0:0,0:0:0:0:
288,160,228213,2,0,P|304:128|304:92,1,59.9999981689454,10|0,1:2|0:0,0:0:0:0:
304,96,228433,1,8,0:3:0:0:
300,88,228507,1,4,0:3:0:0:
236,112,228654,1,2,0:2:0:0:
340,28,228801,6,0,P|392:24|460:80,1,119.999996337891,6|0,1:2|3:2,0:0:0:0:
488,120,229242,1,2,0:0:0:0:
488,120,229389,2,0,L|476:200,1,59.9999981689454,10|0,1:2|0:0,0:0:0:0:
448,60,229683,2,0,P|408:92|316:96,1,119.999996337891,2|6,1:2|0:3,0:0:0:0:
280,68,230124,1,2,0:0:0:0:
356,176,230271,6,0,L|376:320,1,119.999996337891,0|10,1:2|1:2,0:0:0:0:
400,360,230713,1,2,0:0:0:0:
476,292,230860,1,2,3:2:0:0:
404,324,231007,1,2,0:0:0:0:
328,352,231154,6,0,P|288:340|264:320,1,59.9999981689454,2|0,1:2|0:0,0:0:0:0:
268,320,231374,1,4,3:3:0:0:
264,312,231448,1,4,3:3:0:0:
216,376,231595,1,2,0:0:0:0:
248,244,231742,2,0,P|228:220|184:212,1,59.9999981689454,8|0,1:2|0:0,0:0:0:0:
240,148,232036,2,0,L|248:72,1,59.9999981689454,0|0,3:2|0:0,0:0:0:0:
288,28,232330,5,0,1:2:0:0:
246,88,232477,1,8,0:3:0:0:
268,160,232624,1,4,0:3:0:0:
204,216,232771,5,0,1:2:0:0:
204,216,232845,1,8,1:3:0:0:
204,216,232918,1,4,1:3:0:0:
320,228,233065,1,4,0:3:0:0:
255,274,233213,1,8,1:2:0:0:
264,348,233360,1,8,1:2:0:0:
264,348,233507,6,0,P|208:372|140:360,1,120,0|0,3:0|3:0,0:0:0:0:
136,352,234095,1,2,0:0:0:0:
64,360,234389,2,0,P|76:312|184:296,1,160,0|0,3:0|3:0,0:0:0:0:
172,288,235271,1,2,0:0:0:0:
304,200,235860,6,0,P|360:224|428:212,1,120,0|0,3:0|3:0,0:0:0:0:
432,204,236448,1,2,0:0:0:0:
504,212,236742,2,0,P|492:164|384:148,1,160,0|0,3:0|3:0,0:0:0:0:
396,140,237624,1,2,0:0:0:0:
280,32,238213,6,0,P|224:56|156:44,1,120,0|0,3:0|3:0,0:0:0:0:
152,36,238801,1,2,0:0:0:0:
84,4,239095,2,0,P|81:62|124:104,1,120,0|0,3:0|0:0,0:0:0:0:
140,124,239683,2,0,L|148:208,1,80,0|2,3:0|0:0,0:0:0:0:
144,300,240271,6,0,P|200:256|296:260,1,160,0|0,3:0|3:0,0:0:0:0:
348,292,241154,5,0,3:0:0:0:
400,348,241448,1,2,0:0:0:0:
468,316,241742,1,0,3:0:0:0:
448,252,242036,1,0,0:0:0:0:
480,192,242330,1,0,0:0:0:0:
456,128,242624,2,0,L|452:72,1,50
