osu file format v14

[General]
AudioFilename: audio.mp3
AudioLeadIn: 0
PreviewTime: 197166
Countdown: 0
SampleSet: Soft
StackLeniency: 1
Mode: 0
LetterboxInBreaks: 0
WidescreenStoryboard: 1

[Editor]
Bookmarks: 812,14145,27478,40811,47478,60812,74145,100811,114145,127478,140811,167478,180812,197895,210811,224145,232478,239145
DistanceSpacing: 0.8
BeatDivisor: 6
GridSize: 4
TimelineZoom: 2.999999

[Metadata]
Title:Hakujitsumu
TitleUnicode:白日夢
Artist:Islet feat. Isui
ArtistUnicode:Islet feat. 倚水
Creator:Reillia
Version:Collab Insane
Source:
Tags:japanese jpop pop shizuku- kazato_asa kazato asa shikibe_mayu shikibe mayu ayesha_altugle ayesha altugle amateurre heto gimbab midorijeon
BeatmapID:4052491
BeatmapSetID:1913515

[Difficulty]
HPDrainRate:5
CircleSize:3.8
OverallDifficulty:8
ApproachRate:9
SliderMultiplier:2.4
SliderTickRate:1

[Events]
//Background and Video events
0,0,"103474783_p0.jpg",0,0
//Break Periods
2,101012,113545
2,167478,180212
//Storyboard Layer 0 (Background)
//Storyboard Layer 1 (Fail)
//Storyboard Layer 2 (Pass)
//Storyboard Layer 3 (Foreground)
//Storyboard Layer 4 (Overlay)
//Storyboard Sound Samples

[TimingPoints]
812,416.666666666667,4,2,1,70,1,0
7478,-100,4,2,1,30,0,0
7895,-100,4,2,1,33,0,0
8312,-100,4,2,1,35,0,0
8728,-100,4,2,1,38,0,0
9145,-100,4,2,1,41,0,0
9562,-100,4,2,1,43,0,0
9978,-100,4,2,1,46,0,0
10395,-100,4,2,1,49,0,0
10812,-100,4,2,1,51,0,0
11228,-100,4,2,1,54,0,0
11645,-100,4,2,1,57,0,0
12062,-100,4,2,1,59,0,0
12478,-100,4,2,1,62,0,0
12895,-100,4,2,1,65,0,0
13312,-100,4,2,1,67,0,0
13728,-100,4,2,1,70,0,0
14145,-100,4,2,1,75,0,0
14770,-100,4,2,2,75,0,0
15082,-100,4,2,1,75,0,0
15603,-100,4,2,2,75,0,0
15812,-100,4,2,1,75,0,0
16437,-100,4,2,2,75,0,0
16749,-100,4,2,1,75,0,0
17270,-100,4,2,2,75,0,0
17478,-100,4,2,1,75,0,0
18103,-100,4,2,2,75,0,0
18416,-100,4,2,1,75,0,0
18937,-100,4,2,2,75,0,0
19145,-100,4,2,1,75,0,0
19770,-100,4,2,2,75,0,0
19978,-100,4,2,1,75,0,0
20812,-100,4,2,3,75,0,0
21020,-100,4,2,1,75,0,0
21437,-100,4,2,2,75,0,0
21749,-100,4,2,1,75,0,0
22270,-100,4,2,2,75,0,0
22478,-100,4,2,1,75,0,0
23103,-100,4,2,2,75,0,0
23416,-100,4,2,1,75,0,0
23937,-100,4,2,2,75,0,0
24145,-100,4,2,1,75,0,0
24770,-100,4,2,2,75,0,0
25082,-100,4,2,1,75,0,0
25603,-100,4,2,2,75,0,0
25812,-100,4,2,1,75,0,0
26437,-100,4,2,2,75,0,0
26645,-100,4,2,1,75,0,0
26853,-100,4,2,4,75,0,0
27062,-100,4,2,1,75,0,0
27478,-166.666666666667,4,2,5,60,0,0
34145,-125,4,2,5,65,0,0
34562,-125,4,2,3,65,0,0
40395,-125,4,2,5,65,0,0
40812,-100,4,2,1,75,0,0
41437,-100,4,2,2,75,0,0
41749,-100,4,2,1,75,0,0
41853,-100,4,2,4,75,0,0
42062,-100,4,2,1,75,0,0
42270,-100,4,2,2,75,0,0
42478,-100,4,2,1,75,0,0
43103,-100,4,2,2,75,0,0
43416,-100,4,2,1,75,0,0
43520,-100,4,2,4,75,0,0
43728,-100,4,2,1,75,0,0
43937,-100,4,2,2,75,0,0
44145,-100,4,2,1,75,0,0
44770,-100,4,2,2,75,0,0
45082,-100,4,2,1,75,0,0
45187,-100,4,2,4,75,0,0
45395,-100,4,2,1,75,0,0
45603,-100,4,2,2,75,0,0
45812,-100,4,2,1,75,0,0
46437,-100,4,2,2,75,0,0
46645,-100,4,2,1,75,0,0
46853,-100,4,2,4,75,0,0
47062,-100,4,2,1,75,0,0
47478,-125,4,2,3,70,0,0
47687,-125,4,2,2,70,0,0
48103,-125,4,2,6,70,0,0
48312,-125,4,2,1,70,0,0
48520,-125,4,2,6,70,0,0
48728,-125,4,2,1,70,0,0
48937,-125,4,2,6,70,0,0
49145,-125,4,2,1,70,0,0
49353,-125,4,2,6,70,0,0
49562,-125,4,2,1,70,0,0
49770,-125,4,2,2,70,0,0
49978,-125,4,2,1,70,0,0
50187,-125,4,2,2,70,0,0
50603,-125,4,2,6,70,0,0
50812,-125,4,2,1,70,0,0
51020,-125,4,2,6,70,0,0
51228,-125,4,2,1,70,0,0
51437,-125,4,2,6,70,0,0
51645,-125,4,2,1,70,0,0
51853,-125,4,2,2,70,0,0
52062,-125,4,2,1,70,0,0
52270,-125,4,2,6,70,0,0
52478,-125,4,2,1,70,0,0
52687,-125,4,2,6,70,0,0
52895,-125,4,2,1,70,0,0
53103,-125,4,2,6,70,0,0
53312,-125,4,2,1,70,0,0
53520,-125,4,2,2,70,0,0
54145,-125,4,2,3,70,0,0
54353,-125,4,2,2,70,0,0
54770,-125,4,2,6,70,0,0
54978,-125,4,2,1,70,0,0
55187,-125,4,2,6,70,0,0
55395,-125,4,2,1,70,0,0
55603,-125,4,2,6,70,0,0
55812,-125,4,2,1,70,0,0
56020,-125,4,2,6,70,0,0
56228,-125,4,2,1,70,0,0
56437,-125,4,2,2,70,0,0
56645,-125,4,2,1,70,0,0
56853,-125,4,2,2,70,0,0
57270,-125,4,2,6,70,0,0
57478,-125,4,2,1,70,0,0
57687,-125,4,2,6,70,0,0
57895,-125,4,2,1,70,0,0
58103,-125,4,2,2,70,0,0
58312,-125,4,2,1,70,0,0
58520,-125,4,2,6,70,0,0
58728,-125,4,2,1,70,0,0
58937,-125,4,2,6,70,0,0
59145,-125,4,2,1,70,0,0
59353,-125,4,2,6,70,0,0
59562,-125,4,2,1,70,0,0
59770,-125,4,2,2,70,0,0
59978,-125,4,2,1,70,0,0
60812,-142.857142857143,4,2,2,60,0,0
61228,-142.857142857143,4,2,6,60,0,0
61853,-142.857142857143,4,2,1,60,0,0
62062,-142.857142857143,4,2,6,60,0,0
62270,-142.857142857143,4,2,1,60,0,0
62478,-142.857142857143,4,2,6,60,0,0
63103,-142.857142857143,4,2,1,60,0,0
63312,-142.857142857143,4,2,7,60,0,0
63728,-142.857142857143,4,2,6,60,0,0
63937,-142.857142857143,4,2,1,60,0,0
64145,-142.857142857143,4,2,8,60,0,0
64353,-142.857142857143,4,2,1,60,0,0
64562,-142.857142857143,4,2,6,60,0,0
64770,-142.857142857143,4,2,1,60,0,0
64978,-142.857142857143,4,2,7,60,0,0
65187,-142.857142857143,4,2,1,60,0,0
65395,-142.857142857143,4,2,6,60,0,0
65603,-142.857142857143,4,2,1,60,0,0
65812,-142.857142857143,4,2,6,60,0,0
66020,-142.857142857143,4,2,9,60,0,0
66228,-142.857142857143,4,2,2,60,0,0
66437,-142.857142857143,4,2,9,60,0,0
66749,-142.857142857143,4,2,1,60,0,0
67062,-142.857142857143,4,2,8,60,0,0
67270,-142.857142857143,4,2,9,60,0,0
67478,-142.857142857143,4,2,9,65,0,0
68103,-142.857142857143,4,2,2,65,0,0
68312,-142.857142857143,4,2,1,65,0,0
68937,-142.857142857143,4,2,2,65,0,0
69145,-142.857142857143,4,2,1,65,0,0
69770,-142.857142857143,4,2,2,65,0,0
70603,-142.857142857143,4,2,3,65,0,0
70812,-142.857142857143,4,2,10,70,0,0
72166,-142.857142857143,4,2,3,70,0,0
72478,-142.857142857143,4,2,1,70,0,0
73728,-333.333333333334,4,2,1,70,0,0
74145,-83.3333333333333,4,2,1,80,0,0
74770,-83.3333333333333,4,2,4,80,0,0
74978,-83.3333333333333,4,2,1,80,0,0
75187,-83.3333333333333,4,2,2,80,0,0
75395,-83.3333333333333,4,2,1,80,0,0
75603,-83.3333333333333,4,2,2,80,0,0
75812,-100,4,2,1,80,0,0
76437,-100,4,2,2,80,0,0
77478,-83.3333333333333,4,2,1,80,0,0
78103,-83.3333333333333,4,2,2,80,0,0
78312,-83.3333333333333,4,2,1,80,0,0
78520,-83.3333333333333,4,2,4,80,0,0
78728,-83.3333333333333,4,2,1,80,0,0
78937,-83.3333333333333,4,2,2,80,0,0
79145,-83.3333333333333,4,2,1,80,0,0
79770,-83.3333333333333,4,2,2,80,0,0
80499,-83.3333333333333,4,2,3,80,0,0
80812,-100,4,2,10,80,0,0
81020,-100,4,2,1,80,0,0
81437,-83.3333333333333,4,2,2,80,0,0
82062,-83.3333333333333,4,2,1,80,0,0
82270,-83.3333333333333,4,2,2,80,0,0
82478,-100,4,2,1,80,0,0
83103,-83.3333333333333,4,2,2,80,0,0
83728,-83.3333333333333,4,2,1,80,0,0
83937,-83.3333333333333,4,2,2,80,0,0
84145,-83.3333333333333,4,2,1,80,0,0
84770,-83.3333333333333,4,2,2,80,0,0
85395,-100,4,2,1,80,0,0
85812,-83.3333333333333,4,2,1,80,0,0
86437,-83.3333333333333,4,2,2,80,0,0
86645,-83.3333333333333,4,2,1,80,0,0
86853,-83.3333333333333,4,2,2,80,0,0
87062,-83.3333333333333,4,2,1,80,0,0
87270,-83.3333333333333,4,2,3,80,0,0
87687,-83.3333333333333,4,2,1,80,0,0
88103,-83.3333333333333,4,2,4,80,0,0
88312,-83.3333333333333,4,2,1,80,0,0
88520,-83.3333333333333,4,2,2,80,0,0
88728,-83.3333333333333,4,2,1,80,0,0
88937,-83.3333333333333,4,2,2,80,0,0
89145,-100,4,2,1,80,0,0
89770,-100,4,2,2,80,0,0
90812,-83.3333333333333,4,2,3,80,0,0
91020,-83.3333333333333,4,2,1,80,0,0
91437,-83.3333333333333,4,2,2,80,0,0
91645,-76.9230769230769,4,2,10,80,0,0
91853,-76.9230769230769,4,2,4,80,0,0
91957,-76.9230769230769,4,2,1,80,0,0
92270,-76.9230769230769,4,2,2,80,0,0
92478,-71.4285714285714,4,2,3,80,0,0
92687,-71.4285714285714,4,2,1,80,0,0
93103,-71.4285714285714,4,2,2,80,0,0
93312,-83.3333333333333,4,2,2,80,0,0
93520,-83.3333333333333,4,2,11,80,0,0
93728,-100,4,2,1,80,0,0
93937,-100,4,2,3,80,0,0
94145,-100,4,2,10,80,0,0
94353,-100,4,2,1,80,0,0
94770,-100,4,2,2,80,0,0
94978,-90.9090909090909,4,2,1,80,0,0
95187,-90.9090909090909,4,2,4,80,0,0
95291,-90.9090909090909,4,2,1,80,0,0
95603,-90.9090909090909,4,2,2,80,0,0
95812,-83.3333333333333,4,2,1,80,0,0
96437,-83.3333333333333,4,2,2,80,0,0
96645,-83.3333333333333,4,2,1,80,0,0
96853,-83.3333333333333,4,2,4,80,0,0
97062,-125,4,2,1,80,0,0
97478,-100,4,2,10,80,0,0
97687,-100,4,2,1,80,0,0
98103,-100,4,2,2,80,0,0
98728,-100,4,2,1,80,0,0
98937,-100,4,2,3,80,0,0
99145,-100,4,2,12,80,0,0
99457,-100,4,2,3,80,0,0
100812,-100,4,2,1,75,0,0
101437,-100,4,2,2,75,0,0
101749,-100,4,2,1,75,0,0
102270,-100,4,2,2,75,0,0
102478,-100,4,2,1,75,0,0
103103,-100,4,2,2,75,0,0
103416,-100,4,2,1,75,0,0
103937,-100,4,2,2,75,0,0
104145,-100,4,2,1,75,0,0
104770,-100,4,2,2,75,0,0
105082,-100,4,2,1,75,0,0
105603,-100,4,2,2,75,0,0
105812,-100,4,2,1,75,0,0
106437,-100,4,2,2,75,0,0
106645,-100,4,2,1,75,0,0
107478,-100,4,2,3,75,0,0
107687,-100,4,2,1,75,0,0
108103,-100,4,2,2,75,0,0
108416,-100,4,2,1,75,0,0
108937,-100,4,2,2,75,0,0
109145,-100,4,2,1,75,0,0
109770,-100,4,2,2,75,0,0
110082,-100,4,2,1,75,0,0
110603,-100,4,2,2,75,0,0
110812,-100,4,2,1,75,0,0
111437,-100,4,2,2,75,0,0
111749,-100,4,2,1,75,0,0
112270,-100,4,2,2,75,0,0
112478,-100,4,2,1,75,0,0
113103,-100,4,2,2,75,0,0
113312,-100,4,2,1,75,0,0
113520,-100,4,2,4,75,0,0
113728,-100,4,2,1,75,0,0
114145,-166.666666666667,4,2,5,65,0,0
114353,-166.666666666667,4,2,2,65,0,0
114562,-166.666666666667,4,2,1,65,0,0
114770,-166.666666666667,4,2,6,65,0,0
114978,-166.666666666667,4,2,1,65,0,0
115187,-166.666666666667,4,2,6,65,0,0
115395,-166.666666666667,4,2,1,65,0,0
115603,-166.666666666667,4,2,2,65,0,0
115812,-166.666666666667,4,2,1,65,0,0
116020,-166.666666666667,4,2,6,65,0,0
116228,-166.666666666667,4,2,1,65,0,0
116437,-166.666666666667,4,2,2,65,0,0
116645,-166.666666666667,4,2,1,65,0,0
116853,-166.666666666667,4,2,2,65,0,0
117062,-166.666666666667,4,2,1,65,0,0
117270,-166.666666666667,4,2,6,65,0,0
117478,-166.666666666667,4,2,1,65,0,0
117687,-166.666666666667,4,2,6,65,0,0
117895,-166.666666666667,4,2,1,65,0,0
118103,-166.666666666667,4,2,2,65,0,0
118312,-166.666666666667,4,2,1,65,0,0
118520,-166.666666666667,4,2,6,65,0,0
118624,-166.666666666667,4,2,6,5,0,0
118728,-166.666666666667,4,2,1,65,0,0
118937,-166.666666666667,4,2,2,65,0,0
119145,-166.666666666667,4,2,1,65,0,0
119353,-166.666666666667,4,2,6,65,0,0
119562,-166.666666666667,4,2,1,65,0,0
119770,-166.666666666667,4,2,6,65,0,0
119978,-166.666666666667,4,2,1,65,0,0
120187,-166.666666666667,4,2,6,65,0,0
120395,-166.666666666667,4,2,1,65,0,0
120603,-166.666666666667,4,2,6,65,0,0
120812,-125,4,2,1,70,0,0
121020,-125,4,2,2,70,0,0
121228,-125,4,2,3,70,0,0
121437,-125,4,2,6,70,0,0
121645,-125,4,2,1,70,0,0
121853,-125,4,2,6,70,0,0
122062,-125,4,2,3,70,0,0
122270,-125,4,2,6,70,0,0
122478,-125,4,2,1,70,0,0
122687,-125,4,2,6,70,0,0
122895,-125,4,2,3,70,0,0
123103,-125,4,2,2,70,0,0
123207,-125,4,2,2,5,0,0
123312,-125,4,2,1,70,0,0
123520,-125,4,2,2,70,0,0
123728,-125,4,2,3,70,0,0
123937,-125,4,2,6,70,0,0
124145,-125,4,2,1,70,0,0
124353,-125,4,2,6,70,0,0
124562,-125,4,2,3,70,0,0
124770,-125,4,2,2,70,0,0
124978,-125,4,2,1,70,0,0
125187,-125,4,2,6,70,0,0
125395,-125,4,2,3,70,0,0
125603,-125,4,2,6,70,0,0
125812,-125,4,2,1,70,0,0
127374,-125,4,2,1,5,0,0
127478,-166.666666666667,4,2,13,60,0,0
127791,-166.666666666667,4,2,3,60,0,0
137478,-100,4,2,10,70,0,0
139145,-90.9090909090909,4,2,10,70,0,0
139457,-90.9090909090909,4,2,3,70,0,0
139978,-90.9090909090909,4,2,14,70,0,0
140812,-83.3333333333333,4,2,1,80,0,0
141437,-83.3333333333333,4,2,4,80,0,0
141645,-83.3333333333333,4,2,1,80,0,0
141853,-83.3333333333333,4,2,2,80,0,0
142062,-83.3333333333333,4,2,1,80,0,0
142270,-83.3333333333333,4,2,2,80,0,0
142478,-100,4,2,1,80,0,0
143103,-100,4,2,2,80,0,0
144145,-83.3333333333333,4,2,1,80,0,0
144770,-83.3333333333333,4,2,2,80,0,0
144978,-83.3333333333333,4,2,1,80,0,0
145187,-83.3333333333333,4,2,4,80,0,0
145395,-83.3333333333333,4,2,1,80,0,0
145603,-83.3333333333333,4,2,2,80,0,0
145812,-83.3333333333333,4,2,1,80,0,0
146437,-83.3333333333333,4,2,2,80,0,0
147166,-83.3333333333333,4,2,3,80,0,0
147478,-100,4,2,10,80,0,0
147687,-100,4,2,1,80,0,0
148103,-83.3333333333333,4,2,2,80,0,0
148728,-83.3333333333333,4,2,1,80,0,0
148937,-83.3333333333333,4,2,2,80,0,0
149145,-100,4,2,1,80,0,0
149770,-83.3333333333333,4,2,2,80,0,0
150395,-83.3333333333333,4,2,1,80,0,0
150603,-83.3333333333333,4,2,2,80,0,0
150812,-83.3333333333333,4,2,1,80,0,0
151437,-83.3333333333333,4,2,2,80,0,0
152062,-100,4,2,1,80,0,0
152478,-83.3333333333333,4,2,1,80,0,0
153103,-83.3333333333333,4,2,2,80,0,0
153312,-83.3333333333333,4,2,1,80,0,0
153520,-83.3333333333333,4,2,2,80,0,0
153728,-83.3333333333333,4,2,1,80,0,0
153937,-83.3333333333333,4,2,3,80,0,0
154353,-83.3333333333333,4,2,1,80,0,0
154770,-83.3333333333333,4,2,4,80,0,0
154978,-83.3333333333333,4,2,1,80,0,0
155187,-83.3333333333333,4,2,2,80,0,0
155395,-83.3333333333333,4,2,1,80,0,0
155603,-83.3333333333333,4,2,2,80,0,0
155812,-100,4,2,1,80,0,0
156437,-100,4,2,2,80,0,0
157478,-83.3333333333333,4,2,3,80,0,0
157687,-83.3333333333333,4,2,1,80,0,0
158103,-83.3333333333333,4,2,2,80,0,0
158312,-76.9230769230769,4,2,10,80,0,0
158520,-76.9230769230769,4,2,4,80,0,0
158624,-76.9230769230769,4,2,1,80,0,0
158937,-76.9230769230769,4,2,2,80,0,0
159145,-71.4285714285714,4,2,3,80,0,0
159353,-71.4285714285714,4,2,1,80,0,0
159770,-71.4285714285714,4,2,2,80,0,0
159978,-83.3333333333333,4,2,2,80,0,0
160187,-83.3333333333333,4,2,11,80,0,0
160395,-100,4,2,1,80,0,0
160603,-100,4,2,3,80,0,0
160812,-100,4,2,10,80,0,0
161020,-100,4,2,1,80,0,0
161437,-100,4,2,2,80,0,0
161645,-90.9090909090909,4,2,1,80,0,0
161853,-90.9090909090909,4,2,4,80,0,0
161957,-90.9090909090909,4,2,1,80,0,0
162270,-90.9090909090909,4,2,2,80,0,0
162478,-83.3333333333333,4,2,1,80,0,0
163103,-83.3333333333333,4,2,2,80,0,0
163312,-83.3333333333333,4,2,1,80,0,0
163520,-83.3333333333333,4,2,4,80,0,0
163728,-125,4,2,1,80,0,0
164145,-100,4,2,10,80,0,0
164353,-100,4,2,1,80,0,0
164770,-100,4,2,2,80,0,0
165395,-100,4,2,1,80,0,0
165603,-100,4,2,3,80,0,0
165812,-100,4,2,12,80,0,0
166228,-100,4,2,1,80,0,0
167478,-100,4,2,15,60,0,0
180812,-142.857142857143,4,2,4,60,0,0
181228,-142.857142857143,4,2,8,60,0,0
181853,-142.857142857143,4,2,1,60,0,0
182062,-142.857142857143,4,2,8,60,0,0
182270,-142.857142857143,4,2,1,60,0,0
182478,-142.857142857143,4,2,8,60,0,0
182895,-142.857142857143,4,2,4,60,0,0
183103,-142.857142857143,4,2,1,60,0,0
183312,-142.857142857143,4,2,4,60,0,0
183520,-142.857142857143,4,2,1,60,0,0
183728,-142.857142857143,4,2,8,60,0,0
183937,-142.857142857143,4,2,1,60,0,0
184145,-142.857142857143,4,2,8,60,0,0
184562,-142.857142857143,4,2,4,60,0,0
184770,-142.857142857143,4,2,1,60,0,0
184978,-142.857142857143,4,2,8,60,0,0
185187,-142.857142857143,4,2,1,60,0,0
185395,-142.857142857143,4,2,8,60,0,0
185603,-142.857142857143,4,2,1,60,0,0
185812,-142.857142857143,4,2,8,60,0,0
186124,-142.857142857143,4,2,4,60,0,0
186228,-142.857142857143,4,2,1,60,0,0
186437,-142.857142857143,4,2,8,60,0,0
186645,-142.857142857143,4,2,4,60,0,0
186853,-142.857142857143,4,2,1,60,0,0
187062,-142.857142857143,4,2,8,60,0,0
187478,-142.857142857143,4,2,4,65,0,0
187687,-142.857142857143,4,2,1,65,0,0
188103,-142.857142857143,4,2,2,65,0,0
188312,-142.857142857143,4,2,1,65,0,0
188520,-142.857142857143,4,2,2,65,0,0
188728,-142.857142857143,4,2,1,65,0,0
189353,-142.857142857143,4,2,2,65,0,0
189562,-142.857142857143,4,2,1,65,0,0
189770,-142.857142857143,4,2,2,65,0,0
190395,-142.857142857143,4,2,1,65,0,0
191437,-142.857142857143,4,2,2,65,0,0
191645,-142.857142857143,4,2,1,65,0,0
193103,-142.857142857143,4,2,2,65,0,0
193312,-142.857142857143,4,2,1,65,0,0
193937,-142.857142857143,4,2,3,65,0,0
194145,-100,4,2,6,70,0,0
194353,-100,4,2,5,70,0,0
194562,-100,4,2,1,70,0,0
194666,-100,4,2,5,70,0,0
194978,-100,4,2,1,70,0,0
195082,-100,4,2,5,70,0,0
195395,-100,4,2,2,70,0,0
195603,-100,4,2,5,70,0,0
195812,-83.3333333333333,4,2,10,70,0,0
196124,-83.3333333333333,4,2,3,70,0,0
196645,-100,4,2,14,70,0,0
196714,-100,4,2,2,70,0,0
196853,-100,4,2,1,70,0,0
196923,-100,4,2,2,70,0,0
197062,-100,4,2,1,70,0,0
197270,-166.666666666667,4,2,1,70,0,0
197895,-83.3333333333333,4,2,1,80,0,0
198103,-83.3333333333333,4,2,4,80,0,0
198312,-83.3333333333333,4,2,1,80,0,0
198520,-83.3333333333333,4,2,2,80,0,0
198728,-83.3333333333333,4,2,1,80,0,0
198937,-83.3333333333333,4,2,2,80,0,0
199145,-83.3333333333333,4,2,1,80,0,0
199770,-83.3333333333333,4,2,2,80,0,0
200812,-83.3333333333333,4,2,1,80,0,0
201437,-83.3333333333333,4,2,2,80,0,0
201645,-83.3333333333333,4,2,1,80,0,0
201853,-83.3333333333333,4,2,4,80,0,0
202062,-83.3333333333333,4,2,1,80,0,0
202270,-83.3333333333333,4,2,2,80,0,0
202478,-83.3333333333333,4,2,1,80,0,0
203103,-83.3333333333333,4,2,2,80,0,0
203832,-83.3333333333333,4,2,3,80,0,0
204145,-100,4,2,10,80,0,0
204353,-100,4,2,1,80,0,0
204770,-83.3333333333333,4,2,2,80,0,0
205395,-83.3333333333333,4,2,1,80,0,0
205603,-83.3333333333333,4,2,2,80,0,0
205812,-100,4,2,1,80,0,0
206437,-83.3333333333333,4,2,2,80,0,0
207062,-83.3333333333333,4,2,1,80,0,0
207270,-83.3333333333333,4,2,2,80,0,0
207478,-83.3333333333333,4,2,1,80,0,0
208103,-83.3333333333333,4,2,2,80,0,0
208728,-71.4285714285714,4,2,1,80,0,0
209145,-83.3333333333333,4,2,1,80,0,0
209770,-83.3333333333333,4,2,2,80,0,0
209978,-83.3333333333333,4,2,1,80,0,0
210187,-83.3333333333333,4,2,2,80,0,0
210395,-83.3333333333333,4,2,1,80,0,0
210603,-83.3333333333333,4,2,3,80,0,0
211020,-83.3333333333333,4,2,1,80,0,0
211437,-83.3333333333333,4,2,4,80,0,0
211645,-83.3333333333333,4,2,1,80,0,0
211853,-83.3333333333333,4,2,2,80,0,0
212062,-83.3333333333333,4,2,1,80,0,0
212270,-83.3333333333333,4,2,2,80,0,0
212478,-83.3333333333333,4,2,1,80,0,0
213103,-83.3333333333333,4,2,2,80,0,0
214145,-83.3333333333333,4,2,3,80,0,0
214353,-83.3333333333333,4,2,1,80,0,0
214770,-83.3333333333333,4,2,2,80,0,0
214978,-83.3333333333333,4,2,10,80,0,0
215187,-83.3333333333333,4,2,4,80,0,0
215291,-83.3333333333333,4,2,1,80,0,0
215603,-83.3333333333333,4,2,2,80,0,0
215812,-83.3333333333333,4,2,3,80,0,0
216020,-83.3333333333333,4,2,1,80,0,0
216437,-83.3333333333333,4,2,2,80,0,0
216853,-83.3333333333333,4,2,11,80,0,0
217062,-83.3333333333333,4,2,1,80,0,0
217270,-83.3333333333333,4,2,3,80,0,0
217478,-100,4,2,10,80,0,0
217687,-100,4,2,1,80,0,0
218103,-100,4,2,2,80,0,0
218312,-83.3333333333333,4,2,1,80,0,0
218520,-83.3333333333333,4,2,4,80,0,0
218624,-83.3333333333333,4,2,1,80,0,0
218937,-83.3333333333333,4,2,2,80,0,0
219145,-71.4285714285714,4,2,1,80,0,0
219770,-71.4285714285714,4,2,2,80,0,0
219978,-71.4285714285714,4,2,1,80,0,0
220082,-100,4,2,1,80,0,0
220187,-100,4,2,4,80,0,0
220395,-71.4285714285714,4,2,1,80,0,0
220812,-83.3333333333333,4,2,10,80,0,0
221020,-83.3333333333333,4,2,1,80,0,0
221437,-83.3333333333333,4,2,2,80,0,0
222062,-83.3333333333333,4,2,1,80,0,0
222270,-83.3333333333333,4,2,2,80,0,0
222374,-83.3333333333333,4,2,1,80,0,0
223103,-83.3333333333333,4,2,2,80,0,0
223728,-83.3333333333333,4,2,1,80,0,0
224145,-83.3333333333333,4,2,10,80,0,0
224353,-83.3333333333333,4,2,1,80,0,0
224770,-83.3333333333333,4,2,2,80,0,0
224978,-83.3333333333333,4,2,1,80,0,0
225187,-83.3333333333333,4,2,4,80,0,0
225395,-83.3333333333333,4,2,1,80,0,0
226437,-83.3333333333333,4,2,2,80,0,0
226645,-83.3333333333333,4,2,1,80,0,0
226853,-83.3333333333333,4,2,4,80,0,0
227062,-83.3333333333333,4,2,1,80,0,0
227270,-83.3333333333333,4,2,2,80,0,0
227478,-83.3333333333333,4,2,3,80,0,0
227687,-83.3333333333333,4,2,1,80,0,0
228103,-83.3333333333333,4,2,2,80,0,0
228520,-83.3333333333333,4,2,4,80,0,0
228728,-83.3333333333333,4,2,1,80,0,0
228937,-83.3333333333333,4,2,3,80,0,0
229145,-125,4,2,15,80,0,0
229457,-125,4,2,3,80,0,0
232478,-100,4,2,1,75,0,0
233103,-100,4,2,2,75,0,0
233416,-100,4,2,1,75,0,0
233937,-100,4,2,2,75,0,0
234145,-100,4,2,1,75,0,0
234770,-100,4,2,2,75,0,0
235082,-100,4,2,1,75,0,0
235603,-100,4,2,2,75,0,0
235812,-100,4,2,1,75,0,0
236437,-100,4,2,2,75,0,0
236749,-100,4,2,1,75,0,0
237270,-100,4,2,2,75,0,0
237478,-100,4,2,1,75,0,0
238103,-100,4,2,2,75,0,0
238312,-100,4,2,1,75,0,0
239145,-125,4,2,5,70,0,0
239353,-125,4,2,2,70,0,0
239457,-125,4,2,3,70,0,0
239770,-125,4,2,6,70,0,0
239978,-125,4,2,1,70,0,0
240187,-125,4,2,2,70,0,0
240395,-100,4,2,3,70,0,0
240603,-100,4,2,6,70,0,0
240812,-125,4,2,1,70,0,0
241020,-125,4,2,2,70,0,0
241124,-125,4,2,3,70,0,0
241437,-125,4,2,6,70,0,0
241645,-125,4,2,1,70,0,0
241853,-125,4,2,2,70,0,0
242062,-100,4,2,3,70,0,0
242270,-100,4,2,6,70,0,0
242478,-125,4,2,1,70,0,0
242687,-125,4,2,2,70,0,0
242791,-125,4,2,3,70,0,0
243103,-125,4,2,6,70,0,0
243312,-125,4,2,1,70,0,0
243520,-125,4,2,2,70,0,0
243728,-100,4,2,3,70,0,0
243937,-100,4,2,6,70,0,0
244145,-100,4,2,1,70,0,0
244353,-100,4,2,2,70,0,0
244457,-100,4,2,3,70,0,0
244770,-100,4,2,6,70,0,0
244978,-100,4,2,1,70,0,0
245187,-100,4,2,16,70,0,0
245395,-100,4,2,3,70,0,0
245603,-100,4,2,2,70,0,0

[Colours]
Combo1 : 255,235,172
Combo2 : 255,142,227
Combo3 : 159,203,255
Combo4 : 248,118,137

[HitObjects]
1,78,14145,6,0,P|69:70|118:53,1,120,6|2,1:2|2:3,0:0:0:0:
117,53,14457,1,2,2:2:0:0:
117,53,14562,1,8,1:2:0:0:
75,158,14770,2,0,P|133:205|143:271,1,120,2|0,2:2|1:1,0:0:0:0:
144,246,15082,1,2,2:2:0:0:
300,130,15291,1,0,0:0:0:0:
300,130,15395,2,0,L|309:70,1,60,10|0,1:2|0:0,0:0:0:0:
400,86,15603,2,0,L|390:145,1,60,2|0,2:2|0:0,0:0:0:0:
479,198,15812,6,0,P|487:130|504:81,1,120,2|2,1:2|2:3,0:0:0:0:
504,82,16124,1,2,2:2:0:0:
504,82,16229,1,8,1:2:0:0:
404,232,16437,2,0,P|479:250|517:300,1,120,2|0,2:2|1:1,0:0:0:0:
507,279,16749,1,2,2:2:0:0:
415,377,16957,1,0,0:0:0:0:
415,377,17061,2,0,L|424:317,1,60,10|0,1:2|0:0,0:0:0:0:
325,194,17269,2,0,L|315:253,1,60,2|0,2:2|0:0,0:0:0:0:
211,350,17478,6,0,P|146:345|75:374,1,120,2|2,1:2|2:3,0:0:0:0:
95,361,17791,1,2,2:2:0:0:
95,361,17895,1,8,1:2:0:0:
0,212,18103,2,0,P|33:272|88:271,1,120,2|0,2:2|1:1,0:0:0:0:
78,274,18416,1,2,2:2:0:0:
282,195,18624,1,0,0:0:0:0:
282,195,18728,2,0,L|270:253,1,60,10|0,1:2|0:0,0:0:0:0:
174,309,18937,2,0,L|185:250,1,60,2|0,2:2|0:0,0:0:0:0:
381,167,19145,6,0,P|423:209|413:276,1,120,2|2,1:2|2:3,0:0:0:0:
338,90,19457,2,0,P|353:32|416:7,1,120,2|0,2:2|0:0,0:0:0:0:
284,165,19770,2,0,P|226:180|173:138,2,120,2|2|2,2:2|1:2|2:3,0:0:0:0:
512,328,20395,2,0,P|482:330|455:343,1,60,10|0,1:2|0:0,0:0:0:0:
346,375,20603,1,8,2:2:0:0:
346,375,20707,1,8,2:2:0:0:
346,375,20812,6,0,P|297:320|294:264,1,120,6|2,1:2|2:3,0:0:0:0:
292,275,21124,1,2,2:2:0:0:
292,275,21228,1,8,1:2:0:0:
224,189,21437,2,0,P|305:185|353:143,1,120,2|0,2:2|1:1,0:0:0:0:
335,164,21749,1,2,2:2:0:0:
503,193,21957,1,0,0:0:0:0:
503,193,22062,2,0,L|513:265,1,60,10|0,1:2|0:0,0:0:0:0:
428,267,22270,2,0,L|419:207,1,60,2|0,2:2|0:0,0:0:0:0:
512,23,22478,6,0,P|457:72|401:75,1,120,2|2,1:2|2:3,0:0:0:0:
412,77,22790,1,2,2:2:0:0:
412,77,22894,1,8,1:2:0:0:
335,164,23103,2,0,P|282:136|223:139,1,120,2|0,2:2|1:1,0:0:0:0:
224,140,23415,1,2,2:2:0:0:
74,65,23623,1,0,0:0:0:0:
74,65,23728,2,0,L|82:5,1,60,10|0,1:2|0:0,0:0:0:0:
166,13,23936,2,0,L|157:73,1,60,2|0,2:2|0:0,0:0:0:0:
0,210,24145,6,0,P|55:161|111:158,1,120,2|2,1:2|2:3,0:0:0:0:
98,155,24457,1,2,2:2:0:0:
98,155,24561,1,8,1:2:0:0:
106,258,24770,2,0,P|164:266|210:303,1,120,2|0,2:2|1:1,0:0:0:0:
210,303,25082,1,2,2:2:0:0:
370,257,25290,1,0,0:0:0:0:
370,257,25395,2,0,L|380:185,1,60,10|0,1:2|0:0,0:0:0:0:
295,183,25603,2,0,L|286:243,1,60,2|0,2:2|0:0,0:0:0:0:
366,373,25812,6,0,P|419:339|501:358,1,120,10|2,1:2|2:3,0:0:0:0:
473,342,26124,1,10,2:2:0:0:
473,342,26228,2,0,P|493:299|490:254,1,60,0|0,1:1|0:0,0:0:0:0:
355,202,26437,2,0,P|334:244|337:289,1,60,10|0,2:2|0:0,0:0:0:0:
370,366,26645,1,10,1:2:0:0:
461,178,26853,1,10,2:2:0:0:
238,252,27062,1,10,1:2:0:0:
225,249,27166,1,8,2:2:0:0:
213,246,27270,1,8,2:3:0:0:
92,152,27478,6,0,B|78:71|54:101|34:17,1,143.999995605469,6|0,3:2|3:3,0:0:0:0:
5,161,28103,1,2,2:2:0:0:
130,21,28312,2,0,P|165:24|192:47,1,71.9999978027344,2|2,3:2|2:2,0:0:0:0:
271,12,28728,2,0,P|285:44|279:78,1,71.9999978027344,2|0,3:2|0:0,0:0:0:0:
363,221,29145,2,0,P|398:217|425:194,1,71.9999978027344,2|2,3:2|2:2,0:0:0:0:
504,230,29561,2,0,P|518:197|512:163,1,71.9999978027344,2|0,3:2|0:0,0:0:0:0:
331,144,29978,2,0,P|321:216|311:287,1,143.999995605469,2|0,3:2|3:3,0:0:0:0:
312,286,30603,1,2,2:2:0:0:
242,366,30812,5,2,3:2:0:0:
185,293,31020,1,2,2:2:0:0:
96,262,31228,1,2,3:2:0:0:
7,289,31437,1,0,0:0:0:0:
77,346,31645,5,2,3:2:0:0:
106,309,31853,1,2,2:2:0:0:
96,262,32062,1,2,3:2:0:0:
154,122,32270,5,0,0:0:0:0:
194,76,32478,1,2,3:2:0:0:
155,114,32687,1,2,2:2:0:0:
168,173,32895,1,2,3:2:0:0:
149,116,33103,1,2,2:2:0:0:
96,101,33311,1,2,3:2:0:0:
81,196,33520,5,2,2:2:0:0:
249,141,33728,1,2,3:2:0:0:
125,15,33937,1,2,2:2:0:0:
0,148,34145,6,0,P|94:149|166:209,1,192,2|8,3:2|3:2,0:0:0:0:
360,44,34770,1,2,2:2:0:0:
382,189,34978,2,0,P|413:148|410:99,1,96,2|2,3:2|2:2,0:0:0:0:
279,57,35395,2,0,P|248:98|251:147,1,96,10|2,3:2|2:2,0:0:0:0:
469,224,35812,6,0,P|498:260|499:307,1,96,2|2,3:2|2:2,0:0:0:0:
365,355,36229,2,0,P|335:318|334:271,1,96,10|0,3:2|0:0,0:0:0:0:
512,118,36645,6,0,P|445:181|346:174,1,192,2|8,3:2|3:2,0:0:0:0:
193,105,37270,1,2,2:2:0:0:
231,10,37478,1,2,3:2:0:0:
259,185,37687,1,2,2:2:0:0:
93,137,37895,2,0,P|41:149|-8:162,1,96,10|0,3:2|0:0,0:0:0:0:
276,81,38312,5,2,3:2:0:0:
359,99,38520,1,2,2:2:0:0:
439,122,38728,1,10,3:2:0:0:
510,71,38937,5,2,2:2:0:0:
376,178,39145,2,0,P|353:235|342:278,1,96,2|2,3:2|2:2,0:0:0:0:
201,107,39562,2,0,P|178:50|167:7,1,96,10|0,3:2|0:0,0:0:0:0:
60,278,39978,2,0,P|37:335|26:378,1,96,2|0,3:2|0:0,0:0:0:0:
28,368,40291,1,0,0:0:0:0:
28,368,40395,1,8,3:2:0:0:
123,198,40812,6,0,P|63:191|6:173,1,120,6|2,1:2|2:3,0:0:0:0:
7,174,41124,1,10,2:2:0:0:
7,174,41229,1,0,1:1:0:0:
144,337,41437,2,0,P|191:279|257:269,1,120,10|0,2:2|1:1,0:0:0:0:
232,268,41749,1,2,2:2:0:0:
304,187,41958,1,0,0:0:0:0:
304,187,42062,2,0,L|295:127,1,60,10|0,1:2|0:0,0:0:0:0:
195,87,42270,2,0,L|205:146,1,60,2|0,2:2|0:0,0:0:0:0:
382,281,42479,6,0,P|390:213|407:164,1,120,2|2,1:2|2:3,0:0:0:0:
407,165,42791,1,10,2:2:0:0:
407,165,42896,1,0,1:1:0:0:
510,26,43104,2,0,P|465:65|407:74,1,120,10|0,2:2|1:1,0:0:0:0:
410,79,43416,1,2,2:2:0:0:
255,0,43624,1,0,0:0:0:0:
255,0,43728,2,0,L|246:60,1,60,10|0,1:2|0:0,0:0:0:0:
313,161,43936,2,0,L|323:102,1,60,2|0,2:2|0:0,0:0:0:0:
158,35,44145,6,0,P|93:30|22:59,1,120,2|2,1:2|2:3,0:0:0:0:
42,46,44458,1,10,2:2:0:0:
42,46,44562,1,0,1:1:0:0:
165,150,44770,2,0,P|107:167|48:161,1,120,10|0,2:2|1:1,0:0:0:0:
48,161,45082,1,2,2:2:0:0:
257,153,45291,1,0,0:0:0:0:
257,153,45395,2,0,L|245:211,1,60,10|0,1:2|0:0,0:0:0:0:
153,321,45604,2,0,L|164:262,1,60,2|0,2:2|0:0,0:0:0:0:
356,169,45812,6,0,P|414:165|454:207,1,120,2|2,1:2|2:3,0:0:0:0:
257,142,46124,2,0,P|225:93|240:37,1,120,10|0,2:2|0:0,0:0:0:0:
286,237,46437,2,0,P|259:288|203:303,2,120,10|2|10,2:2|1:2|2:2,0:0:0:0:
248,45,47062,1,10,1:2:0:0:
248,45,47166,1,0,0:0:0:0:
248,45,47271,1,8,2:2:0:0:
512,60,47478,6,0,B|454:41|411:90|440:96|401:145|338:124,1,192,6|8,1:2|1:2,0:0:0:0:
491,159,48103,1,2,2:2:0:0:
347,126,48312,2,0,P|325:93|348:34,1,96,2|2,1:2|2:2,0:0:0:0:
485,167,48728,2,0,P|507:200|484:259,1,96,10|2,1:2|2:2,0:0:0:0:
186,373,49145,6,0,P|236:323|272:332,1,96,2|2,1:2|2:2,0:0:0:0:
308,247,49562,2,0,P|378:247|397:279,1,96,10|2,1:2|2:3,0:0:0:0:
479,346,49978,2,0,L|492:250,2,96,2|2|8,1:2|2:3|1:2,0:0:0:0:
288,233,50603,5,2,2:2:0:0:
385,206,50811,1,2,1:2:0:0:
238,74,51020,5,2,2:2:0:0:
212,171,51228,1,10,1:2:0:0:
406,121,51437,5,2,2:2:0:0:
334,49,51645,1,2,1:2:0:0:
334,49,51853,1,2,2:3:0:0:
308,144,52062,1,10,1:2:0:0:
308,144,52270,1,2,2:2:0:0:
143,102,52478,6,0,P|97:115|47:124,1,96,2|2,1:2|2:2,0:0:0:0:
250,218,52895,2,0,P|297:226|343:239,1,96,10|2,1:2|2:2,0:0:0:0:
64,361,53312,2,0,P|56:297|47:252,1,96,2|2,1:2|2:3,0:0:0:0:
50,266,53624,1,0,0:0:0:0:
50,266,53728,1,8,1:2:0:0:
180,324,53937,5,2,2:3:0:0:
180,324,54041,1,0,0:0:0:0:
180,324,54145,2,0,B|291:303|259:376|365:352,1,192,6|8,1:2|1:2,0:0:0:0:
511,212,54770,1,2,2:2:0:0:
475,383,54978,2,0,P|447:328|458:289,1,96,2|2,1:2|2:2,0:0:0:0:
345,262,55395,2,0,P|378:210|417:200,1,96,10|2,1:2|2:2,0:0:0:0:
512,72,55812,6,0,P|475:110|424:108,1,96,2|2,1:2|2:2,0:0:0:0:
345,262,56228,2,0,P|308:224|257:226,1,96,10|2,1:2|2:3,0:0:0:0:
139,117,56645,2,0,P|131:69|123:22,2,96,2|2|8,1:2|2:3|1:2,0:0:0:0:
68,248,57270,5,2,2:2:0:0:
30,159,57478,1,2,1:2:0:0:
8,325,57687,1,2,2:2:0:0:
157,262,57895,2,0,P|205:273|251:292,1,96,10|2,1:2|2:3,0:0:0:0:
418,195,58312,5,2,1:2:0:0:
401,100,58520,1,2,2:2:0:0:
325,162,58728,1,10,1:2:0:0:
488,136,58937,1,2,2:2:0:0:
317,167,59145,6,0,P|261:156|217:148,1,96,2|2,1:2|2:2,0:0:0:0:
222,149,59457,1,0,0:0:0:0:
222,149,59562,1,10,1:2:0:0:
270,255,59770,1,2,2:3:0:0:
129,225,59978,6,0,P|81:233|34:242,1,96,2|8,1:2|2:2,0:0:0:0:
18,260,60291,1,8,2:2:0:0:
7,281,60395,1,8,1:2:0:0:
0,304,60499,1,8,2:3:0:0:
0,328,60603,1,4,2:3:0:0:
5,352,60707,1,0,0:0:0:0:
15,373,60811,1,4,1:2:0:0:
209,352,61228,6,0,P|289:329|372:314,1,167.999994873047,10|10,2:2|2:2,0:0:0:0:
443,256,61853,1,2,2:2:0:0:
443,256,62062,2,0,P|461:311|461:350,1,83.9999974365235,10|2,2:2|2:2,0:0:0:0:
291,235,62478,6,0,P|316:174|376:91,1,167.999994873047,10|10,2:2|2:2,0:0:0:0:
486,20,63103,2,0,P|381:47|236:53,1,251.999992309571,2|10,2:2|2:2,0:0:0:0:
156,25,63937,1,2,1:2:0:0:
0,160,64145,6,0,P|0:221|32:248,2,83.9999974365235,10|2|10,1:2|2:2|2:2,0:0:0:0:
104,109,64770,2,0,P|146:165|117:264,1,167.999994873047,2|2,2:2|2:2,0:0:0:0:
0,356,65395,2,0,P|42:332|88:339,1,83.9999974365235,10|2,2:2|2:2,0:0:0:0:
209,298,65812,5,10,2:2:0:0:
287,363,66020,1,2,2:2:0:0:
287,363,66124,1,8,2:2:0:0:
287,363,66228,1,2,2:3:0:0:
372,331,66437,1,10,2:2:0:0:
303,274,66645,2,0,L|316:221,2,41.9999987182618,10|2|2,2:2|2:3|2:2,0:0:0:0:
180,370,67062,2,0,P|173:326|166:287,1,83.9999974365235,10|2,2:2|2:2,0:0:0:0:
141,89,67478,5,6,1:2:0:0:
141,89,67895,5,2,1:2:0:0:
263,223,68103,1,2,2:2:0:0:
85,186,68312,1,2,1:2:0:0:
250,111,68520,1,2,2:3:0:0:
160,268,68728,1,2,1:2:0:0:
183,179,68937,5,2,2:2:0:0:
263,223,69145,2,0,P|345:226|415:182,1,167.999994873047,2|2,1:2|1:2,0:0:0:0:
486,237,69770,2,0,P|471:291|465:333,1,83.9999974365235,2|0,2:2|1:1,0:0:0:0:
334,127,70187,2,0,P|349:73|355:31,1,83.9999974365235,2|0,2:2|1:1,0:0:0:0:
411,162,70603,5,6,2:3:0:0:
412,168,70673,5,4,2:3:0:0:
414,175,70742,5,4,2:3:0:0:
415,181,70812,5,6,1:2:0:0:
379,262,71228,5,8,1:2:0:0:
200,198,71437,1,10,2:2:0:0:
266,319,71645,1,10,1:2:0:0:
323,147,71853,1,8,2:2:0:0:
174,293,72062,5,8,1:2:0:0:
132,284,72166,1,8,2:3:0:0:
91,277,72270,1,6,2:3:0:0:
49,272,72374,1,4,2:3:0:0:
7,268,72478,5,10,1:2:0:0:
213,169,72687,1,0,0:0:0:0:
213,169,72791,1,10,1:2:0:0:
19,34,72999,1,0,0:0:0:0:
19,34,73103,1,10,1:2:0:0:
82,151,73312,5,10,1:2:0:0:
82,151,73728,6,0,P|111:145|128:142,1,35.9999989013672,0|2,0:0|1:2,0:0:0:0:
117,143,74041,1,0,0:0:0:0:
121,231,74145,6,0,P|55:237|-4:180,1,143.999995605469,6|2,1:2|2:3,0:0:0:0:
83,70,74457,1,8,2:2:0:0:
89,79,74562,2,0,L|80:165,1,71.9999978027344,2|0,1:2|0:0,0:0:0:0:
203,284,74770,2,0,L|210:212,1,71.9999978027344,10|0,2:2|0:0,0:0:0:0:
291,36,74978,6,0,B|387:33|339:83|422:82,1,143.999995605469,2|10,1:2|2:2,0:0:0:0:
497,33,75291,1,0,0:0:0:0:
498,123,75395,2,0,P|489:191|483:272,1,143.999995605469,10|2,1:2|2:2,0:0:0:0:
232,374,75812,6,0,P|185:325|230:271,1,120,2|2,1:2|2:3,0:0:0:0:
285,257,76124,1,8,2:2:0:0:
285,257,76228,2,0,P|325:266|363:273,1,60,2|0,1:2|0:0,0:0:0:0:
154,350,76437,2,0,P|97:339|25:328,1,120,10|0,2:2|1:1,0:0:0:0:
173,143,76853,2,0,B|228:122|228:122|277:171,1,120,10|8,2:2|1:2,0:0:0:0:
61,197,77270,1,2,2:2:0:0:
61,197,77374,1,0,0:0:0:0:
61,197,77478,6,0,B|50:139|50:139|59:112|59:112|47:35,1,143.999995605469,2|2,1:2|2:3,0:0:0:0:
118,4,77791,1,8,2:2:0:0:
118,4,77895,2,0,P|165:8|193:38,1,71.9999978027344,2|0,1:2|0:0,0:0:0:0:
126,215,78103,2,0,P|79:211|51:181,1,71.9999978027344,10|0,2:2|0:0,0:0:0:0:
260,24,78312,6,0,B|271:82|271:82|262:109|262:109|274:186,1,143.999995605469,2|10,1:2|2:2,0:0:0:0:
216,236,78624,1,0,0:0:0:0:
216,236,78728,2,0,P|223:282|228:319,1,71.9999978027344,10|0,1:2|0:0,0:0:0:0:
356,191,78937,2,0,P|349:145|344:108,1,71.9999978027344,2|0,2:2|0:0,0:0:0:0:
476,262,79145,6,0,B|394:247|437:312|323:286,1,143.999995605469,2|2,1:2|2:3,0:0:0:0:
340,289,79457,1,8,2:2:0:0:
340,289,79562,1,2,1:2:0:0:
144,182,79770,2,0,P|203:144|270:164,1,143.999995605469,10|0,2:2|1:1,0:0:0:0:
297,384,80187,1,10,2:2:0:0:
476,262,80395,5,8,1:2:0:0:
470,226,80499,1,8,2:3:0:0:
465,190,80603,1,6,2:3:0:0:
461,154,80707,1,4,2:3:0:0:
457,119,80812,6,0,B|417:102|409:49|409:49|380:92|333:94,1,180,6|8,1:2|2:2,0:0:0:0:
333,93,81228,1,2,1:2:0:0:
168,181,81437,6,0,B|221:141|284:179|255:195|314:234|370:195,1,215.999993408203,10|0,2:2|0:0,0:0:0:0:
366,197,81853,1,10,2:2:0:0:
331,4,82062,6,0,P|268:7|240:74,1,143.999995605469,10|2,1:2|2:2,0:0:0:0:
212,256,82374,1,0,0:0:0:0:
212,256,82478,6,0,B|172:273|164:326|164:326|135:283|88:281,1,180,2|8,1:2|2:2,0:0:0:0:
88,281,82895,1,2,1:2:0:0:
107,100,83103,6,0,B|141:78|153:52|153:52|135:211,1,215.999993408203,10|0,2:2|0:0,0:0:0:0:
136,199,83520,1,10,2:2:0:0:
44,354,83728,6,0,P|0:308|28:231,1,143.999995605469,10|2,1:2|2:2,0:0:0:0:
136,199,84041,1,0,0:0:0:0:
136,199,84145,6,0,B|175:207|214:209|214:209|249:245|249:245|291:247|339:258,1,215.999993408203,2|8,1:2|2:2,0:0:0:0:
335,257,84562,1,2,1:2:0:0:
506,378,84770,2,0,P|439:363|360:356,1,143.999995605469,10|0,2:2|1:1,0:0:0:0:
293,157,85187,2,0,P|333:165|370:169,1,71.9999978027344,10|0,2:2|0:0,0:0:0:0:
500,244,85395,6,0,B|456:211|404:242|428:255|379:287|333:255,1,180,10|0,1:2|0:0,0:0:0:0:
191,173,85812,6,0,P|182:127|254:79,1,143.999995605469,2|2,1:2|2:3,0:0:0:0:
179,281,86124,2,0,P|143:311|66:273,1,143.999995605469,10|0,2:2|0:0,0:0:0:0:
251,237,86437,1,10,2:2:0:0:
95,131,86645,6,0,P|107:189|110:230,1,71.9999978027344,10|0,1:2|0:0,0:0:0:0:
165,351,86853,2,0,P|170:315|178:280,1,71.9999978027344,10|0,2:2|0:0,0:0:0:0:
13,343,87062,1,10,1:2:0:0:
202,161,87270,1,6,2:3:0:0:
202,161,87374,1,4,2:3:0:0:
202,161,87478,6,0,P|279:151|336:211,1,143.999995605469,6|2,1:2|2:3,0:0:0:0:
342,308,87791,1,8,2:2:0:0:
342,308,87895,2,0,P|298:314|253:327,1,71.9999978027344,2|0,1:2|0:0,0:0:0:0:
180,249,88103,2,0,P|224:243|269:230,1,71.9999978027344,10|0,2:2|0:0,0:0:0:0:
431,371,88312,6,0,P|421:320|410:210,1,143.999995605469,2|10,1:2|2:2,0:0:0:0:
440,152,88624,1,0,0:0:0:0:
394,85,88728,2,0,P|323:80|273:142,1,143.999995605469,10|2,1:2|2:2,0:0:0:0:
164,326,89145,6,0,P|106:319|108:261,1,120,2|2,1:2|2:3,0:0:0:0:
163,193,89457,1,8,2:2:0:0:
163,193,89562,2,0,P|180:228|177:258,1,60,2|0,1:2|0:0,0:0:0:0:
49,352,89770,6,0,P|94:332|172:327,1,120,10|0,2:2|1:1,0:0:0:0:
178,95,90187,2,0,P|133:115|55:120,1,120,10|8,2:2|1:2,0:0:0:0:
290,223,90603,1,2,2:2:0:0:
290,223,90707,1,0,0:0:0:0:
290,223,90812,6,0,B|420:191|371:291|495:258,1,215.999993408203,6|8,1:2|2:2,0:0:0:0:
353,366,91228,2,0,P|332:324|349:284,1,71.9999978027344,2|0,1:2|0:0,0:0:0:0:
434,115,91437,2,0,P|455:157|438:197,1,71.9999978027344,10|0,2:2|0:0,0:0:0:0:
251,306,91645,6,0,P|207:297|173:293,1,77.9999964294435,6|0,1:2|0:0,0:0:0:0:
53,175,91853,1,10,2:2:0:0:
53,175,91957,2,0,B|82:184|113:186|113:186|144:206|144:206|173:206|201:213,1,155.999992858887,2|0,2:2|0:0,0:0:0:0:
91,344,92270,2,0,P|75:313|83:261,1,77.9999964294435,2|0,2:2|0:0,0:0:0:0:
150,28,92478,6,0,P|103:105|54:57,1,167.999994873047,6|2,1:2|2:3,0:0:0:0:
76,0,92791,1,10,2:2:0:0:
76,0,92895,1,0,1:1:0:0:
215,135,93103,1,10,2:2:0:0:
399,94,93312,2,0,P|402:60|410:16,1,71.9999978027344,0|0,1:1|0:0,0:0:0:0:
320,12,93520,2,0,P|317:46|309:90,1,71.9999978027344,14|0,2:2|0:0,0:0:0:0:
370,190,93728,5,8,1:2:0:0:
397,202,93832,1,8,2:3:0:0:
426,201,93936,1,6,2:3:0:0:
453,188,94040,1,4,2:3:0:0:
471,164,94144,5,6,1:2:0:0:
366,342,94353,1,2,2:3:0:0:
366,342,94457,1,10,2:2:0:0:
366,342,94562,2,0,P|404:347|442:359,1,60,0|0,1:1|0:0,0:0:0:0:
507,286,94770,2,0,P|469:281|431:269,1,60,10|0,2:2|0:0,0:0:0:0:
279,384,94978,6,0,P|274:325|261:244,1,132.00000402832,2|10,1:2|2:2,0:0:0:0:
262,253,95291,1,2,2:2:0:0:
262,253,95395,1,8,1:2:0:0:
360,45,95603,2,0,P|362:74|369:114,1,66.0000020141602,2|0,2:2|0:0,0:0:0:0:
249,169,95812,6,0,B|329:156|304:209|385:197,1,143.999995605469,2|2,1:2|2:3,0:0:0:0:
385,196,96124,1,10,2:2:0:0:
385,196,96228,1,0,1:1:0:0:
265,66,96437,1,10,2:2:0:0:
169,243,96645,1,2,1:2:0:0:
169,243,96749,1,0,0:0:0:0:
169,243,96853,1,10,2:2:0:0:
7,57,97062,6,0,B|63:68|63:68|87:83|87:83|158:97,1,144,10|0,1:2|0:0,0:0:0:0:
144,94,97478,6,0,P|71:115|74:166,1,120,6|2,1:2|2:3,0:0:0:0:
66,148,97791,1,10,2:2:0:0:
66,148,97895,1,0,1:1:0:0:
43,356,98103,2,0,P|107:339|161:330,1,120,10|0,2:2|1:1,0:0:0:0:
159,330,98416,1,0,0:0:0:0:
159,330,98520,1,10,2:2:0:0:
242,155,98728,2,0,P|194:164|167:168,1,60,10|8,1:2|2:3,0:0:0:0:
39,242,98937,5,6,2:3:0:0:
56,254,99041,1,6,2:3:0:0:
77,250,99145,1,6,1:2:0:0:
256,192,99249,12,14,100395,2:3:0:0:
256,192,100812,5,6,1:2:0:0:
390,309,114145,6,0,P|394:258|411:161,1,143.999995605469,6|0,3:2|3:3,0:0:0:0:
312,210,114770,1,2,2:2:0:0:
415,86,114978,6,0,P|364:93|339:116,1,71.9999978027344,2|2,3:2|2:2,0:0:0:0:
272,51,115395,2,0,P|252:98|259:131,1,71.9999978027344,2|2,3:2|2:3,0:0:0:0:
247,318,115812,2,0,P|196:311|171:288,1,71.9999978027344,2|2,3:2|2:2,0:0:0:0:
104,353,116229,2,0,P|84:305|91:272,1,71.9999978027344,2|2,3:2|2:3,0:0:0:0:
35,149,116645,2,0,P|86:159|180:178,1,143.999995605469,2|0,3:2|3:3,0:0:0:0:
176,177,117270,1,2,2:2:0:0:
375,28,117478,5,2,3:2:0:0:
465,53,117687,1,2,2:2:0:0:
504,137,117895,1,2,3:2:0:0:
479,227,118103,1,2,2:3:0:0:
390,257,118312,6,0,P|397:197|404:135,1,107.999996704102,2|0,3:2|0:0,0:0:0:0:
402,149,118728,1,2,3:2:0:0:
402,149,118937,1,2,2:3:0:0:
266,225,119145,5,2,3:2:0:0:
315,291,119353,1,2,2:2:0:0:
189,334,119562,1,2,3:2:0:0:
188,252,119770,1,2,2:2:0:0:
268,359,119978,2,0,P|327:376|396:307,1,143.999995605469,2|2,3:2|3:2,0:0:0:0:
93,5,120812,6,0,P|105:72|123:217,1,192,2|8,3:2|3:2,0:0:0:0:
94,355,121437,1,2,2:2:0:0:
214,254,121645,6,0,P|233:210|227:163,1,96,2|2,3:2|2:2,0:0:0:0:
32,134,122062,2,0,P|12:177|18:224,1,96,10|2,3:2|2:2,0:0:0:0:
200,362,122478,5,2,3:2:0:0:
120,194,122687,1,2,2:2:0:0:
200,362,122895,2,0,P|273:372|315:309,1,144,10|0,3:2|0:0,0:0:0:0:
370,384,123312,6,0,P|358:317|340:172,1,192,2|8,3:2|3:2,0:0:0:0:
174,81,123937,1,2,2:2:0:0:
199,173,124145,1,2,3:2:0:0:
76,61,124353,1,2,2:2:0:0:
242,12,124562,2,0,P|295:23|352:32,1,96,10|2,3:2|2:3,0:0:0:0:
336,29,124874,1,0,0:0:0:0:
336,29,124978,5,2,3:2:0:0:
438,171,125187,1,2,2:2:0:0:
461,58,125395,1,10,3:2:0:0:
322,146,125603,1,2,2:2:0:0:
502,268,125812,5,2,3:2:0:0:
361,227,126124,1,0,0:0:0:0:
292,360,126437,1,0,0:0:0:0:
372,384,126645,5,2,3:2:0:0:
354,307,126853,1,0,0:0:0:0:
281,280,127062,2,0,P|214:292|129:306,1,144,0|0,3:3|0:0,0:0:0:0:
139,304,127478,5,2,2:2:0:0:
79,361,127791,1,2,2:2:0:0:
6,321,128104,1,2,2:2:0:0:
21,240,128416,1,2,2:2:0:0:
102,230,128728,1,2,2:2:0:0:
102,230,129145,5,2,2:2:0:0:
180,215,129457,1,2,2:2:0:0:
195,135,129769,1,2,2:2:0:0:
120,96,130082,1,2,2:2:0:0:
62,153,130395,1,2,2:2:0:0:
62,153,130812,5,2,2:2:0:0:
180,215,131124,1,2,2:2:0:0:
120,96,131437,1,2,2:2:0:0:
102,230,131749,1,2,2:2:0:0:
195,135,132062,1,0,0:0:0:0:
249,271,132270,1,2,2:2:0:0:
249,271,132374,1,2,2:2:0:0:
249,271,132478,5,2,2:2:0:0:
421,371,132791,1,2,2:2:0:0:
421,371,132895,1,0,0:0:0:0:
341,189,133103,1,2,2:2:0:0:
341,189,133207,1,0,0:0:0:0:
299,383,133520,1,2,2:2:0:0:
448,251,133728,1,2,2:2:0:0:
348,289,133937,1,0,0:0:0:0:
249,271,134145,6,0,P|247:225|230:146,1,107.999996704102,2|0,2:2|0:0,0:0:0:0:
235,164,134562,1,2,2:2:0:0:
300,88,134770,1,2,2:2:0:0:
385,146,134978,1,2,2:2:0:0:
385,146,135082,2,0,P|441:142|502:117,1,107.999996704102,0|2,0:0|2:2,0:0:0:0:
227,19,135812,6,0,P|171:23|110:48,1,107.999996704102
122,40,136228,1,2,2:2:0:0:
94,127,136437,1,2,2:2:0:0:
0,77,136645,1,2,2:2:0:0:
0,77,136749,2,0,P|15:135|22:196,1,107.999996704102,0|2,0:0|2:2,0:0:0:0:
166,331,137270,6,0,P|163:314|159:297,2,23.9999992675781,6|4|4,2:3|2:3|2:3,0:0:0:0:
166,331,137478,6,0,B|270:302|227:383|337:356,1,180,6|0,1:2|0:0,0:0:0:0:
335,356,137895,1,8,1:2:0:0:
440,204,138103,1,10,2:2:0:0:
310,225,138312,1,10,1:2:0:0:
462,330,138520,1,8,2:2:0:0:
368,138,138728,5,8,1:2:0:0:
370,103,138832,1,8,2:2:0:0:
373,69,138936,1,10,2:2:0:0:
378,35,139040,1,8,2:2:0:0:
382,2,139144,1,14,2:2:0:0:
238,138,139353,1,0,1:1:0:0:
238,138,139457,1,8,2:3:0:0:
440,204,139666,1,0,1:1:0:0:
440,204,139770,1,6,2:3:0:0:
272,25,139978,6,0,B|162:3|204:89|85:63,1,198.000006042481,14|8,2:2|2:2,0:0:0:0:
27,128,140395,1,8,2:2:0:0:
15,122,140499,1,8,2:2:0:0:
10,109,140603,2,0,P|3:66|-6:18,1,66.0000020141602,10|8,2:2|2:2,0:0:0:0:
132,223,140812,6,0,P|47:220|10:290,1,143.999995605469,6|2,1:2|2:3,0:0:0:0:
101,365,141124,1,8,2:2:0:0:
101,365,141228,2,0,P|98:330|89:284,1,71.9999978027344,2|0,1:2|0:0,0:0:0:0:
215,176,141437,2,0,P|218:211|227:257,1,71.9999978027344,10|0,2:2|0:0,0:0:0:0:
355,308,141645,6,0,B|331:313|299:316|299:316|277:333|277:333|247:335|193:348,1,143.999995605469,2|10,1:2|2:2,0:0:0:0:
319,222,141957,1,0,0:0:0:0:
407,234,142062,2,0,P|442:270|431:359,1,143.999995605469,10|2,1:2|2:2,0:0:0:0:
286,110,142478,6,0,P|359:100|419:85,1,120,2|2,1:2|2:3,0:0:0:0:
499,145,142791,1,8,2:2:0:0:
499,145,142895,2,0,P|448:156|421:162,1,60,2|0,1:2|0:0,0:0:0:0:
289,113,143103,6,0,B|265:57|265:57|300:0,1,120,10|0,2:2|1:1,0:0:0:0:
499,145,143520,2,0,B|523:201|523:201|488:258,1,120,10|8,2:2|1:2,0:0:0:0:
299,314,143937,1,2,2:2:0:0:
299,314,144041,1,0,0:0:0:0:
299,314,144145,6,0,B|214:297|249:353|160:337,1,143.999995605469,2|2,1:2|2:3,0:0:0:0:
92,375,144457,1,8,2:2:0:0:
92,375,144562,2,0,P|79:329|89:299,1,71.9999978027344,2|0,1:2|0:0,0:0:0:0:
177,189,144770,2,0,P|190:235|180:265,1,71.9999978027344,10|0,2:2|0:0,0:0:0:0:
0,135,144978,6,0,P|77:124|156:111,1,143.999995605469,2|10,1:2|2:2,0:0:0:0:
164,25,145291,1,0,0:0:0:0:
164,25,145395,2,0,P|94:38|71:38,1,71.9999978027344,10|0,1:2|0:0,0:0:0:0:
25,215,145603,2,0,P|95:202|118:202,1,71.9999978027344,2|0,2:2|0:0,0:0:0:0:
308,140,145812,6,0,B|306:57|344:98|341:-1,1,143.999995605469,2|2,1:2|2:3,0:0:0:0:
341,3,146124,1,8,2:2:0:0:
341,3,146228,1,2,1:2:0:0:
512,117,146437,2,0,P|445:160|392:132,1,143.999995605469,10|0,2:2|1:1,0:0:0:0:
258,21,146853,1,10,2:2:0:0:
177,189,147062,5,8,1:2:0:0:
182,224,147166,1,8,2:3:0:0:
187,260,147270,1,6,2:3:0:0:
191,296,147374,1,4,2:3:0:0:
194,331,147478,6,0,B|244:331|273:373|273:373|274:324|314:297,1,180,6|8,1:2|2:2,0:0:0:0:
311,299,147895,1,2,1:2:0:0:
510,284,148103,6,0,B|458:249|398:294|398:294|399:350|340:383,1,215.999993408203,10|0,2:2|0:0,0:0:0:0:
354,373,148520,1,10,2:2:0:0:
228,245,148728,6,0,P|273:204|358:215,1,143.999995605469,10|2,1:2|2:2,0:0:0:0:
445,185,149041,1,0,0:0:0:0:
445,185,149145,6,0,P|479:135|390:131,1,180,2|8,1:2|2:2,0:0:0:0:
394,119,149562,1,2,1:2:0:0:
152,194,149770,6,0,B|205:154|268:192|239:208|298:247|354:208,1,215.999993408203,10|0,2:2|0:0,0:0:0:0:
350,210,150187,1,10,2:2:0:0:
462,14,150395,6,0,P|376:19|333:66,1,143.999995605469,10|2,1:2|2:2,0:0:0:0:
310,137,150707,1,0,0:0:0:0:
310,137,150812,6,0,P|323:220|336:361,1,215.999993408203,2|8,1:2|2:2,0:0:0:0:
335,351,151228,1,2,1:2:0:0:
83,348,151437,2,0,P|74:295|66:205,1,143.999995605469,10|0,2:2|1:1,0:0:0:0:
235,79,151853,6,0,P|178:71|160:66,1,71.9999978027344,10|0,2:2|0:0,0:0:0:0:
32,115,152062,2,0,B|66:122|100:124|100:124|131:149|131:149|168:151|201:157,1,180,10|0,1:2|0:0,0:0:0:0:
330,109,152478,6,0,P|351:57|288:-1,1,143.999995605469,2|2,1:2|2:3,0:0:0:0:
352,187,152791,2,0,P|386:231|468:205,1,143.999995605469,10|0,2:2|0:0,0:0:0:0:
277,165,153103,1,10,2:2:0:0:
490,125,153312,6,0,P|434:137|408:141,1,71.9999978027344,10|0,1:2|0:0,0:0:0:0:
322,307,153520,2,0,P|357:313|392:321,1,71.9999978027344,10|0,2:2|0:0,0:0:0:0:
512,282,153728,1,10,1:2:0:0:
263,379,153937,1,6,2:3:0:0:
263,379,154041,1,4,2:3:0:0:
263,379,154145,6,0,P|225:315|251:246,1,143.999995605469,6|2,1:2|2:3,0:0:0:0:
392,321,154457,1,8,2:2:0:0:
392,321,154562,2,0,P|356:314|321:306,1,71.9999978027344,2|0,1:2|0:0,0:0:0:0:
223,161,154770,2,0,P|258:167|293:175,1,71.9999978027344,10|0,2:2|0:0,0:0:0:0:
415,13,154978,6,0,B|333:2|364:56|277:45,1,143.999995605469,2|10,1:2|2:2,0:0:0:0:
211,14,155291,1,0,0:0:0:0:
159,75,155395,2,0,P|90:89|41:40,1,143.999995605469,10|2,1:2|2:2,0:0:0:0:
45,256,155812,6,0,P|94:218|160:228,1,120,2|2,1:2|2:3,0:0:0:0:
155,361,156124,1,8,2:2:0:0:
155,361,156228,2,0,P|152:331|148:301,1,60,2|0,1:2|0:0,0:0:0:0:
223,161,156437,6,0,P|230:233|242:295,1,120,10|0,2:2|1:1,0:0:0:0:
60,374,156853,2,0,P|53:302|41:240,1,120,10|8,2:2|1:2,0:0:0:0:
186,74,157270,1,2,2:2:0:0:
186,74,157374,1,0,0:0:0:0:
186,74,157478,6,0,B|226:81|262:82|262:82|305:117|305:117|349:118|389:127,1,215.999993408203,6|8,1:2|2:2,0:0:0:0:
423,49,157895,2,0,P|358:39|344:36,1,71.9999978027344,2|0,1:2|0:0,0:0:0:0:
151,149,158103,2,0,P|216:159|230:162,1,71.9999978027344,10|0,2:2|0:0,0:0:0:0:
462,201,158312,6,0,P|466:156|477:110,1,77.9999964294435,6|0,1:2|0:0,0:0:0:0:
340,207,158520,1,10,2:2:0:0:
340,207,158624,2,0,P|332:288|320:366,1,155.999992858887,2|0,2:2|0:0,0:0:0:0:
492,300,158937,2,0,P|453:296|408:288,1,77.9999964294435,2|0,2:2|0:0,0:0:0:0:
162,271,159145,6,0,B|202:240|250:269|228:281|273:310|316:281,1,167.999994873047,6|2,1:2|2:3,0:0:0:0:
316,280,159457,1,10,2:2:0:0:
316,280,159562,1,0,1:1:0:0:
187,377,159770,1,10,2:2:0:0:
78,256,159978,6,0,P|79:215|90:175,1,71.9999978027344,0|0,1:1|0:0,0:0:0:0:
170,200,160187,2,0,P|169:241|158:281,1,71.9999978027344,14|0,2:2|0:0,0:0:0:0:
18,135,160395,5,8,1:2:0:0:
37,112,160499,1,8,2:3:0:0:
64,99,160603,1,6,2:3:0:0:
94,98,160707,1,4,2:3:0:0:
121,110,160811,1,6,1:2:0:0:
228,211,161020,5,2,2:3:0:0:
228,211,161124,1,10,2:2:0:0:
228,211,161228,2,0,P|176:200|152:197,1,60,0|0,1:1|0:0,0:0:0:0:
155,33,161437,2,0,P|207:44|231:47,1,60,10|0,2:2|0:0,0:0:0:0:
352,131,161645,6,0,P|344:65|336:-11,1,132.00000402832,2|10,1:2|2:2,0:0:0:0:
337,0,161957,1,2,2:2:0:0:
337,0,162062,1,8,1:2:0:0:
490,22,162270,2,0,P|497:76|498:93,1,66.0000020141602,2|0,2:2|0:0,0:0:0:0:
475,209,162478,6,0,B|386:185|429:254|316:221,1,143.999995605469,2|2,1:2|2:3,0:0:0:0:
337,226,162791,1,10,2:2:0:0:
337,226,162895,1,0,1:1:0:0:
192,376,163103,1,10,2:2:0:0:
143,164,163312,1,2,1:2:0:0:
143,164,163416,1,0,0:0:0:0:
143,164,163520,1,10,2:2:0:0:
18,348,163728,6,0,P|13:296|-1:202,1,144,10|0,1:2|0:0,0:0:0:0:
0,206,164145,6,0,P|67:202|99:265,1,120,6|2,1:2|2:3,0:0:0:0:
96,239,164457,1,10,2:2:0:0:
96,239,164562,1,0,1:1:0:0:
254,181,164770,2,0,P|264:257|272:313,1,120,10|0,2:2|1:1,0:0:0:0:
270,299,165082,1,0,0:0:0:0:
270,299,165187,1,10,2:2:0:0:
199,102,165395,5,10,1:2:0:0:
239,82,165499,1,8,2:3:0:0:
283,86,165603,1,6,2:3:0:0:
319,111,165707,1,4,2:3:0:0:
337,152,165811,1,6,1:2:0:0:
452,152,180812,6,0,P|460:193|463:234,1,83.9999974365235,2|0,2:3|0:0,0:0:0:0:
312,296,181228,2,0,P|303:254|300:213,1,83.9999974365235,2|0,2:2|0:0,0:0:0:0:
416,328,181645,1,2,2:2:0:0:
320,308,181853,1,2,2:2:0:0:
228,332,182062,1,2,2:2:0:0:
148,384,182270,1,2,2:2:0:0:
60,348,182478,6,0,P|27:271|40:190,1,167.999994873047,2|2,2:2|2:3,0:0:0:0:
200,164,183103,2,0,P|232:240|219:321,1,167.999994873047,2|2,2:2|2:2,0:0:0:0:
148,384,183728,1,2,2:2:0:0:
128,292,183937,1,2,2:2:0:0:
219,321,184145,6,0,L|302:308,1,83.9999974365235,2|0,2:2|0:0,0:0:0:0:
444,332,184562,1,2,2:3:0:0:
316,228,184770,1,2,2:2:0:0:
392,200,184978,1,2,2:2:0:0:
380,280,185187,1,2,2:2:0:0:
368,360,185395,1,2,2:2:0:0:
471,170,185603,1,2,2:2:0:0:
408,244,185812,6,0,L|324:231,1,83.9999974365235,2|0,2:2|0:0,0:0:0:0:
316,240,186124,2,0,L|232:252,1,83.9999974365235,2|0,2:3|0:0,0:0:0:0:
224,244,186437,1,2,2:2:0:0:
392,80,186645,2,0,P|383:121|377:162,1,83.9999974365235,2|2,2:3|2:2,0:0:0:0:
252,324,187062,2,0,P|245:282|237:241,1,83.9999974365235,2|0,2:2|0:0,0:0:0:0:
300,68,187478,6,0,P|341:71|380:86,1,83.9999974365235,4|2,1:2|2:3,0:0:0:0:
348,248,187895,2,0,P|306:244|267:229,1,83.9999974365235,0|2,1:1|2:2,0:0:0:0:
192,128,188312,1,2,1:2:0:0:
36,96,188520,1,2,2:2:0:0:
4,252,188728,1,2,1:2:0:0:
160,284,188937,1,2,2:3:0:0:
44,88,189145,5,2,1:2:0:0:
200,120,189353,1,2,2:2:0:0:
16,244,189562,1,2,1:2:0:0:
172,276,189770,1,2,2:2:0:0:
112,184,189978,2,0,P|107:142|100:100,1,83.9999974365235,0|2,1:1|2:2,0:0:0:0:
240,180,190395,2,0,P|236:200|234:221,2,41.9999987182618,2|0|2,1:2|0:0|2:3,0:0:0:0:
336,320,190812,6,0,P|295:307|254:301,1,83.9999974365235,2|2,1:2|2:3,0:0:0:0:
396,168,191228,2,0,P|436:155|477:149,1,83.9999974365235,0|2,1:1|2:2,0:0:0:0:
304,104,191645,2,0,P|312:145|318:186,1,83.9999974365235,2|2,1:2|2:3,0:0:0:0:
428,348,192062,2,0,P|435:306|445:265,1,83.9999974365235,0|2,1:1|2:3,0:0:0:0:
450,117,192478,5,0,1:1:0:0:
444,265,192687,1,2,2:3:0:0:
318,186,192895,1,0,1:1:0:0:
403,189,193103,1,2,2:2:0:0:
444,265,193312,2,0,P|440:306|417:341,1,83.9999974365235,2|2,1:2|2:3,0:0:0:0:
329,382,193728,1,2,1:2:0:0:
180,312,193937,1,6,2:3:0:0:
180,312,194006,1,4,2:3:0:0:
180,312,194075,1,4,2:3:0:0:
180,311,194145,6,0,P|172:252|160:193,1,120,4|10,1:2|2:3,0:0:0:0:
160,193,194457,1,8,2:3:0:0:
160,192,194562,2,0,P|188:184|218:180,1,60,10|8,1:2|2:3,0:0:0:0:
236,88,194770,2,0,P|207:96|177:100,1,60,10|10,2:3|2:3,0:0:0:0:
304,152,194978,5,10,1:2:0:0:
326,109,195082,1,8,2:3:0:0:
324,60,195187,1,10,2:3:0:0:
298,19,195291,1,8,2:3:0:0:
236,88,195395,5,8,1:2:0:0:
202,100,195499,1,8,2:3:0:0:
166,98,195603,1,10,2:3:0:0:
135,79,195707,1,8,2:3:0:0:
48,124,195812,6,0,P|39:54|83:0,1,143.999995605469,14|0,2:2|1:1,0:0:0:0:
176,180,196124,2,0,P|184:249|140:304,1,143.999995605469,10|0,2:3|1:1,0:0:0:0:
24,232,196437,2,0,P|58:223|94:220,1,71.9999978027344,6|0,2:3|1:1,0:0:0:0:
184,168,196645,6,0,B|232:176|232:176|248:192|248:192|296:184,1,120,14|10,2:2|2:2,0:0:0:0:
301,183,196923,1,8,2:3:0:0:
306,182,196992,1,8,2:3:0:0:
311,181,197062,1,10,2:2:0:0:
472,344,197270,6,0,P|383:326|294:320,1,179.999994506836,2|0,2:2|1:1,0:0:0:0:
220,368,197895,6,0,P|215:332|208:297,1,71.9999978027344,6|0,1:2|0:0,0:0:0:0:
272,228,198103,2,0,P|276:192|283:157,1,71.9999978027344,10|0,2:2|0:0,0:0:0:0:
180,36,198312,6,0,B|191:69|223:92|223:92|249:65|290:65,1,143.999995605469,2|10,1:2|2:2,0:0:0:0:
368,120,198624,1,0,0:0:0:0:
368,119,198728,2,0,P|372:83|379:47,1,71.9999978027344,10|0,1:2|0:0,0:0:0:0:
288,236,198937,2,0,P|283:200|276:164,1,71.9999978027344,2|0,2:2|0:0,0:0:0:0:
436,220,199145,6,0,P|488:264|475:332,1,143.999995605469,2|2,1:2|2:3,0:0:0:0:
324,324,199457,1,8,2:2:0:0:
328,312,199562,2,0,P|362:302|398:297,1,71.9999978027344,2|0,1:2|0:0,0:0:0:0:
424,129,199770,6,0,P|354:146|283:156,1,143.999995605469,10|0,2:2|1:1,0:0:0:0:
188,292,200187,2,0,P|118:274|47:264,1,143.999995605469,10|8,2:2|1:2,0:0:0:0:
28,132,200603,1,2,2:2:0:0:
28,132,200707,1,0,0:0:0:0:
28,132,200812,6,0,B|18:92|-5:68|-5:68|-5:66|-5:66|26:60|54:32,1,143.999995605469,2|2,1:2|2:3,0:0:0:0:
116,100,201124,1,8,2:2:0:0:
124,108,201228,2,0,P|131:143|136:178,1,71.9999978027344,2|0,1:2|0:0,0:0:0:0:
192,264,201437,2,0,P|184:299|179:334,1,71.9999978027344,10|0,2:2|0:0,0:0:0:0:
276,292,201645,6,0,B|286:252|309:228|309:228|309:226|309:226|278:220|250:192,1,143.999995605469,2|10,1:2|2:2,0:0:0:0:
108,296,201957,1,0,0:0:0:0:
112,283,202062,2,0,P|147:275|182:271,1,71.9999978027344,10|0,1:2|0:0,0:0:0:0:
256,204,202270,2,0,P|291:211|326:215,1,71.9999978027344,2|0,2:2|0:0,0:0:0:0:
480,260,202478,6,0,P|434:311|366:302,1,143.999995605469,2|2,1:2|2:3,0:0:0:0:
365,302,202791,1,8,2:2:0:0:
365,302,202895,1,2,1:2:0:0:
308,144,203103,2,0,P|353:92|421:101,1,143.999995605469,10|0,2:2|1:1,0:0:0:0:
260,256,203520,1,10,2:2:0:0:
160,132,203728,1,8,1:2:0:0:
156,120,203832,1,8,2:3:0:0:
153,105,203937,1,6,2:3:0:0:
153,90,204041,1,4,2:3:0:0:
158,79,204145,6,0,B|201:48|241:67|241:67|258:117|305:123,1,180,6|8,1:2|2:2,0:0:0:0:
306,124,204562,1,2,1:2:0:0:
208,328,204770,6,0,P|106:343|44:261,1,215.999993408203,10|0,2:2|0:0,0:0:0:0:
44,261,205187,1,10,2:2:0:0:
40,148,205395,2,0,B|92:128|92:128|116:156|116:156|168:168,1,143.999995605469,10|2,1:2|2:2,0:0:0:0:
166,167,205707,1,0,0:0:0:0:
166,167,205812,6,0,B|271:144|224:232|330:209,1,180,2|8,1:2|2:2,0:0:0:0:
329,209,206228,1,2,1:2:0:0:
476,140,206437,6,0,B|556:16|428:-44|408:64,1,215.999993408203,10|0,2:2|0:0,0:0:0:0:
415,38,206853,1,10,2:2:0:0:
416,200,207062,2,0,P|428:270|435:342,1,143.999995605469,10|2,1:2|2:2,0:0:0:0:
368,384,207374,1,0,0:0:0:0:
368,384,207478,6,0,P|290:313|186:327,1,215.999993408203,2|8,1:2|2:2,0:0:0:0:
186,327,207895,1,2,1:2:0:0:
32,276,208103,2,0,B|24:240|4:208|4:208|36:200|63:172,1,143.999995605469,10|0,2:2|1:1,0:0:0:0:
184,228,208520,2,0,P|149:236|113:243,1,71.9999978027344,10|0,2:2|0:0,0:0:0:0:
88,344,208728,6,0,P|169:322|252:308,1,167.999994873047,10|2,1:2|2:3,0:0:0:0:
436,228,209145,6,0,P|458:293|417:348,1,143.999995605469,2|2,1:2|2:3,0:0:0:0:
248,320,209457,2,0,P|225:254|266:199,1,143.999995605469,10|0,2:2|0:0,0:0:0:0:
376,280,209770,2,0,P|340:272|305:268,1,71.9999978027344,10|0,2:2|0:0,0:0:0:0:
264,188,209978,1,10,1:2:0:0:
444,220,210187,1,10,2:2:0:0:
424,360,210395,1,10,1:2:0:0:
240,328,210603,1,6,2:3:0:0:
232,316,210707,1,4,2:3:0:0:
236,304,210812,6,0,B|216:252|256:208|256:208|220:224,1,143.999995605469,6|2,1:2|2:3,0:0:0:0:
219,224,211124,1,8,2:2:0:0:
219,224,211228,6,0,P|184:235|149:240,1,71.9999978027344,2|0,1:2|0:0,0:0:0:0:
120,112,211437,2,0,P|154:100|189:95,1,71.9999978027344,10|0,2:2|0:0,0:0:0:0:
284,72,211645,2,0,P|277:107|272:143,1,71.9999978027344,2|0,1:2|0:0,0:0:0:0:
232,232,211853,2,0,P|238:267|243:303,1,71.9999978027344,10|0,2:2|0:0,0:0:0:0:
320,360,212062,2,0,P|355:355|388:339,1,71.9999978027344,10|0,1:2|0:0,0:0:0:0:
236,312,212270,2,0,P|200:316|167:332,1,71.9999978027344,2|0,2:2|0:0,0:0:0:0:
15,287,212478,6,0,P|-20:228|6:164,1,143.999995605469,2|2,1:2|2:3,0:0:0:0:
96,132,212791,1,8,2:2:0:0:
96,144,212895,2,0,L|88:215,1,71.9999978027344,2|0,1:2|0:0,0:0:0:0:
244,320,213103,6,0,P|251:248|263:177,1,143.999995605469,10|0,2:2|1:1,0:0:0:0:
160,16,213520,2,0,P|172:86|180:158,1,143.999995605469,10|8,2:2|1:2,0:0:0:0:
424,64,213937,1,2,2:2:0:0:
424,64,214041,1,0,0:0:0:0:
424,64,214145,6,0,P|355:51|305:99,1,143.999995605469,6|2,1:2|2:3,0:0:0:0:
372,220,214457,1,8,2:2:0:0:
367,207,214562,2,0,P|370:171|376:135,1,71.9999978027344,2|0,1:2|0:0,0:0:0:0:
492,192,214770,2,0,P|488:227|482:263,1,71.9999978027344,10|0,2:2|0:0,0:0:0:0:
292,288,214978,6,0,P|342:335|410:323,1,143.999995605469,6|10,1:2|2:2,0:0:0:0:
376,232,215291,1,2,2:2:0:0:
368,219,215395,2,0,P|403:212|438:208,1,71.9999978027344,8|0,1:2|0:0,0:0:0:0:
256,144,215603,2,0,P|220:136|185:132,1,71.9999978027344,2|0,2:2|0:0,0:0:0:0:
332,60,215812,6,0,P|339:95|344:130,1,71.9999978027344,6|0,1:2|0:0,0:0:0:0:
168,224,216020,1,2,2:3:0:0:
166,206,216124,2,0,P|158:134|144:63,1,143.999995605469,10|0,2:2|0:0,0:0:0:0:
140,48,216437,2,0,P|175:55|210:59,1,71.9999978027344,10|0,2:2|0:0,0:0:0:0:
336,72,216645,5,0,1:1:0:0:
368,256,216853,1,14,2:2:0:0:
184,288,217062,1,8,1:2:0:0:
152,104,217270,1,6,2:3:0:0:
152,104,217374,1,4,2:3:0:0:
152,104,217478,6,0,B|172:52|224:44|224:44|240:76|288:92,1,180,6|10,1:2|2:2,0:0:0:0:
376,128,217895,2,0,P|379:98|384:68,1,60,0|0,1:1|0:0,0:0:0:0:
300,184,218103,2,0,P|304:213|308:243,1,60,10|0,2:2|0:0,0:0:0:0:
480,376,218312,6,0,P|512:277|444:199,1,215.999993408203,2|2,1:2|2:2,0:0:0:0:
344,312,218728,2,0,P|379:304|414:297,1,71.9999978027344,8|0,1:2|0:0,0:0:0:0:
304,236,218937,2,0,P|268:228|233:221,1,71.9999978027344,2|0,2:2|0:0,0:0:0:0:
108,184,219145,6,0,P|115:225|121:266,1,83.9999974365235,2|0,1:2|0:0,0:0:0:0:
232,340,219353,1,2,2:3:0:0:
236,324,219457,2,0,P|243:240|256:157,1,167.999994873047,10|0,2:2|0:0,0:0:0:0:
172,112,219770,2,0,P|166:70|159:29,1,83.9999974365235,10|0,2:2|0:0,0:0:0:0:
252,60,219978,5,2,1:2:0:0:
252,59,220082,2,0,P|310:51|360:81,1,120
172,112,220395,6,0,P|93:132|31:81,1,167.999994873047,10|2,1:2|2:3,0:0:0:0:
31,81,220707,1,0,0:0:0:0:
31,81,220812,6,0,P|43:151|49:222,1,143.999995605469,6|2,1:2|2:3,0:0:0:0:
204,280,221124,1,10,2:2:0:0:
202,293,221228,2,0,P|196:328|194:364,1,71.9999978027344,0|0,1:1|0:0,0:0:0:0:
0,292,221437,2,0,B|24:320|60:328|60:328|84:300|124:292,1,143.999995605469,10|0,2:2|1:1,0:0:0:0:
122,292,221749,1,0,0:0:0:0:
122,292,221853,1,10,2:2:0:0:
272,344,222062,1,10,1:2:0:0:
296,180,222270,1,2,2:2:0:0:
296,180,222374,1,2,2:2:0:0:
296,180,222478,6,0,P|363:165|414:212,1,143.999995605469,2|2,1:2|2:3,0:0:0:0:
508,188,222791,1,10,2:2:0:0:
512,204,222895,2,0,P|506:239|502:275,1,71.9999978027344,0|0,1:1|0:0,0:0:0:0:
364,384,223103,2,0,P|355:312|344:241,1,143.999995605469,10|0,2:2|1:1,0:0:0:0:
344,241,223416,1,0,0:0:0:0:
344,241,223520,1,10,2:2:0:0:
256,108,223728,1,10,1:2:0:0:
251,94,223832,1,8,2:3:0:0:
252,79,223937,1,4,2:3:0:0:
256,65,224041,1,4,2:3:0:0:
264,53,224145,6,0,P|326:20|397:26,1,143.999995605469,6|2,1:2|2:3,0:0:0:0:
252,160,224457,2,0,P|191:122|161:58,1,143.999995605469,10|0,2:2|0:0,0:0:0:0:
349,117,224770,1,10,2:2:0:0:
349,117,224978,2,0,P|346:187|305:245,2,143.999995605469,2|10|10,1:2|2:2|1:2,0:0:0:0:
512,368,225812,6,0,P|446:339|376:319,1,143.999995605469,2|2,1:2|2:3,0:0:0:0:
188,348,226124,2,0,P|245:305|297:255,1,143.999995605469,10|0,2:2|0:0,0:0:0:0:
368,78,226437,1,10,2:2:0:0:
368,78,226645,2,0,P|376:149|393:219,2,143.999995605469,2|10|10,1:2|2:2|1:2,0:0:0:0:
216,200,227270,1,2,2:2:0:0:
216,200,227374,1,0,0:0:0:0:
215,200,227478,6,0,P|146:212|92:168,1,143.999995605469,6|2,1:2|2:3,0:0:0:0:
8,112,227791,2,0,P|13:147|17:183,1,71.9999978027344,10|0,2:2|1:1,0:0:0:0:
132,308,228103,2,0,P|136:272|142:236,1,71.9999978027344,10|0,2:2|0:0,0:0:0:0:
168,132,228312,1,0,1:1:0:0:
216,288,228520,1,10,2:2:0:0:
57,252,228728,1,10,1:2:0:0:
279,122,228937,1,6,2:3:0:0:
279,122,229041,1,4,2:3:0:0:
279,122,229145,6,0,B|309:73|364:53|425:73|458:128|458:128|487:184|473:259|393:312|292:297|247:205|247:205|201:113|100:98|20:150|7:226|35:282|35:282|68:336|129:356|184:336|215:288,1,1152,6|0,1:2|0:0,0:0:0:0:
224,296,232062,6,0,P|228:248|249:151,1,144,14|0,2:3|0:0,0:0:0:0:
324,137,232478,6,0,B|360:133|384:117|384:117|404:141|396:169,1,120,6|2,1:2|2:3,0:0:0:0:
334,275,232791,2,0,P|329:245|323:216,1,60,2|8,2:2|1:2,0:0:0:0:
112,368,233103,2,0,P|76:321|83:263,1,120,2|0,2:2|1:1,0:0:0:0:
216,284,233416,2,0,L|157:297,1,60,2|2,2:2|2:3,0:0:0:0:
20,156,233728,2,0,L|78:169,1,60,10|0,1:2|0:0,0:0:0:0:
36,80,233937,2,0,L|94:93,1,60,2|0,2:2|0:0,0:0:0:0:
152,148,234145,6,0,P|209:156|255:120,1,120,2|2,1:2|2:3,0:0:0:0:
344,160,234457,2,0,L|350:100,1,60,2|8,2:2|1:2,0:0:0:0:
456,284,234770,2,0,P|410:247|352:256,1,120,2|0,2:2|1:1,0:0:0:0:
264,216,235082,2,0,L|270:275,1,60,2|2,2:2|2:3,0:0:0:0:
496,80,235395,2,0,B|476:124|424:124|424:124|400:77|352:76,1,180,10|0,1:2|0:0,0:0:0:0:
279,127,235812,6,0,P|255:74|278:20,1,120,2|2,1:2|2:3,0:0:0:0:
353,76,236124,2,0,L|412:84,1,60,2|8,2:2|1:2,0:0:0:0:
200,230,236437,2,0,P|219:225|238:219,2,40,2|0|0,2:2|0:0|0:0,0:0:0:0:
112,208,236645,1,0,1:1:0:0:
112,208,236749,2,0,L|120:268,1,60,2|2,2:2|2:3,0:0:0:0:
328,344,237062,2,0,L|336:284,1,60,10|0,1:2|0:0,0:0:0:0:
404,356,237270,2,0,L|412:296,1,60,2|0,2:2|0:0,0:0:0:0:
387,223,237478,6,0,P|333:202|280:226,1,120,2|2,1:2|2:3,0:0:0:0:
188,192,237791,2,0,P|191:221|194:251,1,60,2|8,2:2|1:2,0:0:0:0:
340,296,238103,2,0,P|336:325|333:355,1,60,2|0,2:2|0:0,0:0:0:0:
252,380,238312,5,2,1:2:0:0:
250,362,238416,1,0,0:0:0:0:
246,344,238520,1,2,2:3:0:0:
241,326,238624,1,0,0:0:0:0:
172,366,238728,5,10,1:2:0:0:
124,374,238832,1,0,0:0:0:0:
79,353,238937,1,8,2:2:0:0:
62,307,239041,1,8,2:2:0:0:
140,291,239145,6,0,P|183:271|229:258,1,96,6|2,3:2|2:3,0:0:0:0:
112,140,239457,2,0,P|88:181|59:219,1,96,2|0,2:2|0:0,0:0:0:0:
223,247,239770,2,0,P|218:200|218:152,1,96,2|0,2:2|3:3,0:0:0:0:
69,225,240082,2,0,P|100:260|128:300,1,96,2|0,2:2|0:0,0:0:0:0:
208,153,240395,6,0,P|178:159|148:163,1,60,10|0,3:2|0:0,0:0:0:0:
80,236,240603,2,0,P|109:241|139:245,1,60,2|0,2:2|0:0,0:0:0:0:
272,56,240812,6,0,P|226:69|179:76,1,96,2|2,3:2|2:3,0:0:0:0:
277,209,241124,2,0,P|306:171|340:137,1,96,2|0,2:2|0:0,0:0:0:0:
182,86,241437,2,0,P|181:133|173:181,1,96,2|0,2:2|3:3,0:0:0:0:
333,131,241749,2,0,P|306:91|284:48,1,96,2|0,2:2|0:0,0:0:0:0:
184,181,242062,6,0,P|191:211|195:240,1,60,10|0,3:2|0:0,0:0:0:0:
272,224,242270,2,0,P|265:194|261:165,1,60,2|0,2:2|0:0,0:0:0:0:
244,300,242478,6,0,P|291:308|336:324,1,96,2|2,3:2|2:3,0:0:0:0:
349,164,242791,2,0,P|305:185|260:198,1,96,2|0,2:2|0:0,0:0:0:0:
344,336,243103,2,0,P|366:293|395:255,1,96,2|0,2:2|3:3,0:0:0:0:
246,193,243416,2,0,P|252:240|251:288,1,96,2|0,2:2|0:0,0:0:0:0:
408,251,243728,6,0,P|380:243|351:236,1,60,10|0,3:2|0:0,0:0:0:0:
256,184,243937,2,0,P|284:175|313:168,1,60,2|0,2:2|0:0,0:0:0:0:
416,52,244145,6,0,P|402:110|393:169,1,120,2|2,3:2|2:3,0:0:0:0:
268,316,244457,2,0,P|260:256|248:197,1,120,2|0,2:2|0:0,0:0:0:0:
80,116,244770,1,2,2:2:0:0:
240,8,244978,6,0,B|312:-12|356:40|356:40|312:84|312:140,1,240,2|10,3:2|3:2,0:0:0:0:
